osu file format v14

[General]
AudioFilename: audio.mp3
AudioLeadIn: 0
PreviewTime: 90668
Countdown: 0
SampleSet: Normal
StackLeniency: 0.7
Mode: 0
LetterboxInBreaks: 0
WidescreenStoryboard: 0

[Editor]
Bookmarks: 360,22948,45536,68124,90712,113301,135889,158477,181065,203654,226242,248830,271418,294007,316595,322242
DistanceSpacing: 0.5
BeatDivisor: 4
GridSize: 8
TimelineZoom: 1.7

[Metadata]
Title:My Sunset
TitleUnicode:My Sunset
Artist:Feint
ArtistUnicode:Feint
Creator:Slips
Version:Collab
Source:
Tags:dnb drum and n & bass semaphore fser
BeatmapID:1810930
BeatmapSetID:866157

[Difficulty]
HPDrainRate:6
CircleSize:4
OverallDifficulty:8
ApproachRate:9
SliderMultiplier:1.92
SliderTickRate:1

[Events]
//Background and Video events
0,0,"pc3a1jaros-libres.jpg",0,0
//Break Periods
2,136089,146583
2,226442,228465
//Storyboard Layer 0 (Background)
//Storyboard Layer 1 (Fail)
//Storyboard Layer 2 (Pass)
//Storyboard Layer 3 (Foreground)
//Storyboard Sound Samples

[TimingPoints]
360,352.941176470588,4,1,1,60,1,0
360,-142.857142857143,4,1,1,60,0,0
90712,-100,4,1,1,80,0,1
135889,-142.857142857143,4,1,1,60,0,0
181065,-100,4,1,1,80,0,1
226242,-142.857142857143,4,1,1,60,0,0
229065,-83.3333333333333,4,1,1,80,0,1
271418,-111.111111111111,4,1,1,60,0,0
294007,-142.857142857143,4,1,1,60,0,0
322242,-142.857142857143,4,1,1,20,0,0

[Colours]
Combo1 : 223,239,255
Combo2 : 255,255,232

[HitObjects]
167,112,360,5,4,3:0:0:0:
173,121,712,2,0,P|169:188|154:273,2,134.399995898438,0|0|0,0:0|0:0|0:0,0:0:0:0:
336,336,1771,6,0,P|325:272|319:202,1,134.399995898438,0|0,0:0|0:0,0:0:0:0:
400,56,2301,2,0,L|471:64,1,67.1999979492188,0|0,0:0|0:0,0:0:0:0:
464,193,2654,1,0,0:0:0:0:
480,59,2830,1,0,0:0:0:0:
319,202,3183,5,0,0:0:0:0:
312,192,3536,2,0,P|247:195|178:208,2,134.399995898438,0|0|0,0:0|0:0|0:0,0:0:0:0:
127,276,4595,6,0,P|94:218|122:143,1,134.399995898438,0|0,0:0|0:0,0:0:0:0:
220,16,5124,2,0,L|228:87,1,67.1999979492188,0|0,0:0|0:0,0:0:0:0:
357,80,5477,1,0,0:0:0:0:
223,96,5653,1,0,0:0:0:0:
342,255,6007,5,0,0:0:0:0:
348,265,6359,2,0,P|416:260|491:249,2,134.399995898438
202,333,7418,6,0,P|196:266|185:199,1,134.399995898438,0|0,0:0|0:0,0:0:0:0:
118,13,7948,2,0,L|110:84,1,67.1999979492188,0|0,0:0|0:0,0:0:0:0:
239,75,8301,1,0,0:0:0:0:
105,91,8477,1,0,0:0:0:0:
342,192,8830,5,0,0:0:0:0:
351,186,9183,2,0,P|355:123|368:52,2,134.399995898438,0|0|0,0:0|0:0|0:0,0:0:0:0:
402,316,10242,6,0,L|483:325,2,67.1999979492188,0|0|0,0:0|0:0|0:0,0:0:0:0:
269,207,10771,1,0,0:0:0:0:
342,192,10948,2,0,L|260:201,1,67.1999979492188
139,307,11477,1,0,0:0:0:0:
112,168,11654,5,0,0:0:0:0:
122,173,12007,2,0,P|134:241|139:307,2,134.399995898438,0|0|0,0:0|0:0|0:0,0:0:0:0:
241,79,13065,6,0,P|304:63|361:95,1,134.399995898438,0|0,0:0|0:0,0:0:0:0:
347,307,13595,2,0,L|355:236,1,67.1999979492188,0|0,0:0|0:0,0:0:0:0:
470,177,13948,1,0,0:0:0:0:
345,230,14124,1,0,0:0:0:0:
183,66,14477,5,0,0:0:0:0:
175,76,14830,2,0,P|159:139|191:196,2,134.399995898438,0|0|0,0:0|0:0|0:0,0:0:0:0:
107,332,15889,6,0,P|174:319|241:315,1,134.399995898438
480,357,16418,2,0,L|409:349,1,67.1999979492188,0|0,0:0|0:0,0:0:0:0:
416,220,16771,1,0,0:0:0:0:
400,354,16947,1,0,0:0:0:0:
308,120,17301,5,0,0:0:0:0:
298,116,17654,2,0,P|235:121|164:133,2,134.399995898438,0|0|0,0:0|0:0|0:0,0:0:0:0:
98,81,18712,6,0,P|82:144|114:201,1,134.399995898438,0|0,0:0|0:0,0:0:0:0:
294,255,19242,2,0,L|223:245,1,67.1999979492188,0|0,0:0|0:0,0:0:0:0:
198,372,19595,1,0,0:0:0:0:
215,238,19771,1,0,0:0:0:0:
428,303,20124,5,0,0:0:0:0:
420,294,20477,2,0,P|408:226|403:160,2,134.399995898438,0|0|0,0:0|0:0|0:0,0:0:0:0:
291,88,21536,6,0,L|224:95,2,67.1999979492188,0|0|0,0:0|0:0|0:0,0:0:0:0:
168,202,22065,1,0,0:0:0:0:
169,276,22242,2,0,L|177:209,1,67.1999979492188
293,230,22771,1,0,0:0:0:0:
300,373,22948,6,0,P|303:310|300:218,1,134.399995898438,4|0,0:0|0:0,0:0:0:0:
301,238,23654,1,0,0:0:0:0:
223,283,24007,2,0,P|188:278|145:274,1,67.1999979492188,0|0,0:0|0:0,0:0:0:0:
61,378,24359,6,0,P|75:333|73:235,1,134.399995898438,0|0,0:0|0:0,0:0:0:0:
16,188,24889,2,0,P|13:121|30:56,1,134.399995898438,0|0,0:0|0:0,0:0:0:0:
103,15,25418,1,0,0:0:0:0:
295,148,25771,6,0,P|356:145|456:137,1,134.399995898438,0|0,0:0|0:0,0:0:0:0:
429,139,26477,1,0,0:0:0:0:
384,66,26830,2,0,P|388:26|391:-7,1,67.1999979492188,0|0,0:0|0:0,0:0:0:0:
495,4,27183,6,0,P|513:50|511:139,1,134.399995898438,0|0,0:0|0:0,0:0:0:0:
453,195,27712,2,0,P|435:241|437:330,1,134.399995898438,0|0,0:0|0:0,0:0:0:0:
501,384,28242,1,0,0:0:0:0:
256,294,28595,6,0,P|206:303|103:317,1,134.399995898438,0|0,0:0|0:0,0:0:0:0:
123,314,29301,1,0,0:0:0:0:
178,231,29654,2,0,P|182:191|188:151,1,67.1999979492188,0|0,0:0|0:0,0:0:0:0:
201,67,30007,6,0,P|146:76|55:86,1,134.399995898438,0|0,0:0|0:0,0:0:0:0:
67,84,30536,2,0,P|76:139|86:230,1,134.399995898438,0|0,0:0|0:0,0:0:0:0:
32,287,31065,1,0,0:0:0:0:
279,352,31418,6,0,P|278:297|280:199,2,134.399995898438,0|0|0,0:0|0:0|0:0,0:0:0:0:
279,352,32477,1,0,0:0:0:0:
413,342,32830,5,0,0:0:0:0:
428,245,33007,1,0,0:0:0:0:
450,363,33183,1,0,0:0:0:0:
466,234,33359,1,0,0:0:0:0:
391,179,33536,1,0,0:0:0:0:
391,179,33712,2,0,P|355:183|239:191,1,134.399995898438,0|0,0:0|0:0,0:0:0:0:
153,99,34242,6,0,P|220:103|286:110,1,134.399995898438,0|0,0:0|0:0,0:0:0:0:
286,110,34948,1,0,0:0:0:0:
363,66,35301,2,0,P|367:29|372:-5,1,67.1999979492188,0|0,0:0|0:0,0:0:0:0:
509,154,35654,6,0,P|471:142|382:174,1,134.399995898438,0|0,0:0|0:0,0:0:0:0:
355,258,36183,2,0,P|295:287|230:275,1,134.399995898438,0|0,0:0|0:0,0:0:0:0:
171,199,36712,1,0,0:0:0:0:
45,343,37065,6,0,P|48:282|48:201,1,134.399995898438,0|0,0:0|0:0,0:0:0:0:
48,208,37771,1,0,0:0:0:0:
138,269,38124,2,0,P|174:279|217:285,1,67.1999979492188,0|0,0:0|0:0,0:0:0:0:
261,384,38477,6,0,P|281:346|278:255,1,134.399995898438,0|0,0:0|0:0,0:0:0:0:
210,197,39007,2,0,P|190:159|193:68,1,134.399995898438,0|0,0:0|0:0,0:0:0:0:
255,2,39536,1,0,0:0:0:0:
423,106,39889,6,0,P|381:102|281:89,1,134.399995898438,0|0,0:0|0:0,0:0:0:0:
289,90,40595,1,0,0:0:0:0:
340,177,40948,2,0,P|342:216|342:258,1,67.1999979492188,0|0,0:0|0:0,0:0:0:0:
445,335,41301,6,0,P|402:347|310:308,1,134.399995898438,0|0,0:0|0:0,0:0:0:0:
251,254,41830,2,0,P|208:242|116:281,1,134.399995898438,0|0,0:0|0:0,0:0:0:0:
76,346,42359,1,0,0:0:0:0:
193,143,42712,6,0,P|147:144|49:142,2,134.399995898438,0|0|0,0:0|0:0|0:0,0:0:0:0:
193,143,43771,2,0,P|192:103|195:67,1,67.1999979492188,0|0,0:0|0:0,0:0:0:0:
303,18,44124,5,0,0:0:0:0:
412,37,44301,1,0,0:0:0:0:
280,43,44477,1,0,0:0:0:0:
422,74,44654,1,0,0:0:0:0:
455,150,44830,1,0,0:0:0:0:
455,150,45007,2,0,P|453:206|455:294,1,134.399995898438,0|0,0:0|0:0,0:0:0:0:
308,277,45536,5,4,0:0:0:0:
298,286,45889,2,0,P|231:282|154:271,2,134.399995898438
176,48,46948,6,0,P|187:112|193:182,1,134.399995898438
112,328,47477,2,0,L|41:320,1,67.1999979492188,0|0,0:0|0:0,0:0:0:0:
48,191,47830,1,0,0:0:0:0:
32,325,48006,1,0,0:0:0:0:
193,182,48359,5,0,0:0:0:0:
200,192,48712,2,0,P|265:189|334:176,2,134.399995898438,0|0|0,0:0|0:0|0:0,0:0:0:0:
385,108,49771,6,0,P|418:166|390:241,1,134.399995898438,0|0,0:0|0:0,0:0:0:0:
292,368,50300,2,0,L|284:297,1,67.1999979492188,0|0,0:0|0:0,0:0:0:0:
155,304,50653,1,0,0:0:0:0:
289,288,50829,1,0,0:0:0:0:
170,129,51183,5,0,0:0:0:0:
164,119,51536,2,0,P|101:103|44:135,2,134.399995898438
310,51,52595,6,0,P|316:118|327:185,1,134.399995898438
394,371,53124,2,0,L|402:300,1,67.1999979492188,0|0,0:0|0:0,0:0:0:0:
273,309,53477,1,0,0:0:0:0:
407,293,53653,1,0,0:0:0:0:
170,192,54006,5,0,0:0:0:0:
161,198,54359,2,0,P|156:260|144:332,2,134.399995898438,0|0|0,0:0|0:0|0:0,0:0:0:0:
110,68,55418,6,0,L|29:59,2,67.1999979492188,0|0|0,0:0|0:0|0:0,0:0:0:0:
231,143,55948,1,0,0:0:0:0:
215,218,56124,2,0,L|223:152,1,67.1999979492188
373,77,56653,1,0,0:0:0:0:
400,216,56830,5,4,3:0:0:0:
390,211,57183,2,0,P|378:143|373:77,2,134.399995898438,0|0|0,0:0|0:0|0:0,0:0:0:0:
271,305,58242,6,0,P|208:321|151:289,1,134.399995898438
165,77,58771,2,0,L|157:148,1,67.1999979492188,0|0,0:0|0:0,0:0:0:0:
42,207,59124,1,0,0:0:0:0:
167,154,59300,1,0,0:0:0:0:
329,318,59653,5,0,0:0:0:0:
337,308,60006,2,0,P|353:245|321:188,2,134.399995898438,0|0|0,0:0|0:0|0:0,0:0:0:0:
405,52,61065,6,0,P|339:57|271:69,1,134.399995898438,0|0,0:0|0:0,0:0:0:0:
32,27,61594,2,0,L|103:35,1,67.1999979492188,0|0,0:0|0:0,0:0:0:0:
96,164,61947,1,0,0:0:0:0:
112,30,62123,1,0,0:0:0:0:
204,264,62477,5,0,0:0:0:0:
214,268,62830,2,0,P|277:263|348:251,2,134.399995898438,0|0|0,0:0|0:0|0:0,0:0:0:0:
414,303,63889,6,0,P|430:240|398:183,1,134.399995898438
218,129,64418,2,0,L|289:139,1,67.1999979492188,0|0,0:0|0:0,0:0:0:0:
314,12,64771,1,0,0:0:0:0:
297,146,64947,1,0,0:0:0:0:
84,81,65300,5,0,0:0:0:0:
92,90,65653,2,0,P|103:157|109:224,2,134.399995898438,0|0|0,0:0|0:0|0:0,0:0:0:0:
221,296,66712,6,0,L|288:289,2,67.1999979492188,0|0|0,0:0|0:0|0:0,0:0:0:0:
342,184,67242,1,0,0:0:0:0:
415,199,67418,2,0,L|348:191,1,67.1999979492188
122,341,68124,6,0,P|126:276|127:206,1,134.399995898438,4|0,3:1|0:0,0:0:0:0:
390,341,68830,2,0,P|386:276|385:206,1,134.399995898438,0|0,3:0|0:0,0:0:0:0:
454,58,69536,2,0,P|417:65|317:91,1,134.399995898438,0|0,3:0|0:0,0:0:0:0:
150,123,70065,1,0,0:0:0:0:
150,123,70242,2,0,P|109:111|69:104,1,67.1999979492188,0|0,3:0|0:0,0:0:0:0:
104,35,70595,2,0,P|136:41|168:51,1,67.1999979492188,0|0,0:0|0:0,0:0:0:0:
316,192,70948,6,0,P|379:196|465:193,1,134.399995898438,0|0,3:0|0:0,0:0:0:0:
196,192,71654,2,0,P|133:196|47:193,1,134.399995898438,0|0,3:0|0:0,0:0:0:0:
256,380,72359,2,0,P|253:317|256:235,1,134.399995898438,0|0,3:0|0:0,0:0:0:0:
299,48,72889,1,0,0:0:0:0:
299,48,73065,2,0,P|293:88|291:117,1,67.1999979492188,0|0,3:0|0:0,0:0:0:0:
365,121,73418,2,0,P|367:88|373:55,1,67.1999979492188
417,224,73771,6,0,P|413:271|409:362,1,134.399995898438,0|0,3:0|0:0,0:0:0:0:
95,224,74477,2,0,P|99:271|103:362,1,134.399995898438,0|0,3:0|0:0,0:0:0:0:
71,106,75183,2,0,P|114:113|207:139,1,134.399995898438,0|0,3:0|0:0,0:0:0:0:
313,141,75712,1,0,0:0:0:0:
313,141,75889,2,0,P|349:132|398:125,1,67.1999979492188,0|0,3:0|0:0,0:0:0:0:
371,52,76242,2,0,P|337:57|305:65,1,67.1999979492188,0|0,0:0|0:0,0:0:0:0:
477,12,76595,6,0,P|475:52|475:153,1,134.399995898438,0|0,3:0|0:0,0:0:0:0:
306,368,77301,2,0,P|304:328|304:227,1,134.399995898438,0|0,3:0|0:0,0:0:0:0:
212,49,78007,2,0,P|213:86|211:124,1,67.1999979492188,0|0,3:0|0:0,0:0:0:0:
135,0,78359,2,0,P|98:1|60:-1,1,67.1999979492188,0|0,0:0|0:0,0:0:0:0:
6,178,78712,1,0,3:0:0:0:
33,174,78889,1,0,0:0:0:0:
48,187,79065,1,0,0:0:0:0:
57,184,79242,1,0,0:0:0:0:
416,192,79418,5,0,3:0:0:0:
96,192,79771,1,0,0:0:0:0:
256,352,80124,2,0,P|253:290|256:210,1,134.399995898438,0|0,3:0|0:0,0:0:0:0:
320,24,80830,6,0,P|343:66|322:165,1,134.399995898438,0|0,3:0|0:0,0:0:0:0:
179,149,81359,2,0,P|165:84|192:24,1,134.399995898438
256,64,81889,2,0,L|256:144,1,67.1999979492188,0|0,0:0|0:0,0:0:0:0:
141,264,82242,5,0,0:0:0:0:
371,264,82595,1,0,0:0:0:0:
141,264,82948,2,0,P|89:253|3:242,1,134.399995898438,0|0,3:0|0:0,0:0:0:0:
256,32,83654,2,0,P|253:95|254:176,1,134.399995898438,0|0,3:0|0:0,0:0:0:0:
341,32,84183,2,0,P|338:95|339:176,1,134.399995898438,0|0,0:0|0:0,0:0:0:0:
423,95,84712,1,0,0:0:0:0:
73,27,85065,5,0,3:0:0:0:
79,137,85418,1,0,3:0:0:0:
140,229,85771,1,0,3:0:0:0:
134,339,86124,1,0,3:0:0:0:
249,322,86477,5,0,3:0:0:0:
40,303,86830,1,0,3:0:0:0:
269,289,87183,1,0,3:0:0:0:
0,260,87536,1,0,3:0:0:0:
314,227,87889,5,0,3:0:0:0:
480,207,88065,1,0,3:0:0:0:
456,40,88242,1,0,3:0:0:0:
290,65,88418,1,0,3:0:0:0:
400,250,88595,5,0,3:0:0:0:
503,118,88771,1,0,3:0:0:0:
368,17,88948,1,0,3:0:0:0:
268,152,89124,1,0,3:0:0:0:
412,336,89301,5,0,3:0:0:0:
378,334,89389,1,0,3:0:0:0:
344,332,89477,1,0,3:0:0:0:
310,331,89565,1,0,3:0:0:0:
276,330,89654,1,0,3:0:0:0:
251,337,89742,1,0,3:0:0:0:
227,344,89830,1,0,3:0:0:0:
203,351,89918,1,0,3:0:0:0:
178,359,90007,5,0,3:0:0:0:
153,352,90095,1,0,3:0:0:0:
136,333,90183,1,0,3:0:0:0:
110,330,90271,1,0,3:0:0:0:
100,306,90359,1,0,3:0:0:0:
106,281,90448,1,0,3:0:0:0:
95,258,90536,1,0,3:0:0:0:
109,237,90624,1,0,3:0:0:0:
126,223,90712,6,0,P|149:179|96:41,1,192,4|8,3:1|0:0,0:0:0:0:
244,181,91242,1,0,0:0:0:0:
283,183,91330,1,0,0:0:0:0:
322,181,91419,1,0,0:0:0:0:
360,174,91507,1,0,0:0:0:0:
397,162,91595,1,0,3:0:0:0:
322,283,91771,1,8,0:0:0:0:
473,75,91948,1,0,0:0:0:0:
473,75,92036,1,0,0:0:0:0:
473,75,92124,6,0,P|482:136|485:199,1,96,0|0,3:0|0:0,0:0:0:0:
322,283,92477,1,8,0:0:0:0:
156,119,92654,2,0,P|154:169|158:227,1,96
161,243,92919,1,0,0:0:0:0:
166,269,93007,1,0,3:0:0:0:
322,283,93183,2,0,P|371:286|436:278,1,96,8|0,0:0|0:0,0:0:0:0:
347,118,93536,6,0,P|256:111|132:122,1,192,0|8,3:0|0:0,0:0:0:0:
474,246,94065,1,0,0:0:0:0:
495,213,94153,1,0,0:0:0:0:
501,173,94241,1,0,0:0:0:0:
489,136,94329,1,0,0:0:0:0:
462,107,94417,1,0,3:0:0:0:
310,207,94595,2,0,P|316:263|328:319,1,96,8|0,0:0|0:0,0:0:0:0:
157,33,94948,6,0,P|164:87|163:143,1,96,0|0,3:0|0:0,0:0:0:0:
160,158,95213,1,0,0:0:0:0:
157,183,95301,1,8,0:0:0:0:
193,335,95477,1,0,0:0:0:0:
157,350,95565,1,0,0:0:0:0:
117,352,95653,1,0,0:0:0:0:
81,338,95741,1,0,0:0:0:0:
52,311,95829,1,0,3:0:0:0:
157,183,96007,2,0,P|212:189|270:204,1,96,8|0,0:0|0:0,0:0:0:0:
417,86,96359,6,0,P|391:135|467:269,1,192,0|8,3:0|0:0,0:0:0:0:
248,67,96889,1,0,0:0:0:0:
248,67,96977,1,0,0:0:0:0:
248,67,97065,1,0,0:0:0:0:
165,262,97242,1,0,3:0:0:0:
25,31,97418,2,0,L|6:130,1,96,8|0,0:0|0:0,0:0:0:0:
183,356,97771,6,0,L|164:259,1,96,0|0,3:0|0:0,0:0:0:0:
41,348,98124,1,8,0:0:0:0:
144,168,98301,1,0,0:0:0:0:
183,166,98389,1,0,0:0:0:0:
222,168,98478,1,0,0:0:0:0:
260,175,98566,1,0,0:0:0:0:
297,187,98654,1,0,3:0:0:0:
328,354,98830,1,8,0:0:0:0:
407,107,99007,1,0,0:0:0:0:
407,107,99095,1,0,0:0:0:0:
407,107,99183,6,0,P|409:163|417:210,1,96,0|0,3:0|0:0,0:0:0:0:
328,354,99536,1,8,0:0:0:0:
191,145,99712,1,0,0:0:0:0:
186,184,99800,1,0,0:0:0:0:
182,223,99888,1,0,0:0:0:0:
179,262,99976,1,0,0:0:0:0:
175,302,100065,1,0,3:0:0:0:
58,224,100242,1,8,0:0:0:0:
281,160,100418,1,0,0:0:0:0:
281,160,100507,1,0,0:0:0:0:
281,160,100595,5,0,3:0:0:0:
105,98,100771,1,0,0:0:0:0:
309,229,100948,1,8,0:0:0:0:
110,308,101124,1,0,0:0:0:0:
110,308,101212,1,0,0:0:0:0:
110,308,101301,1,0,0:0:0:0:
355,170,101477,1,0,3:0:0:0:
105,98,101654,1,8,0:0:0:0:
301,292,101830,1,0,0:0:0:0:
301,292,101918,1,0,0:0:0:0:
301,292,102007,6,0,P|199:306|84:307,1,192,4|8,3:1|0:0,0:0:0:0:
215,146,102536,1,0,0:0:0:0:
250,130,102624,1,0,0:0:0:0:
290,128,102712,1,0,0:0:0:0:
326,143,102800,1,0,0:0:0:0:
355,170,102888,1,0,3:0:0:0:
303,48,103065,1,8,0:0:0:0:
139,263,103242,1,0,0:0:0:0:
139,263,103330,1,0,0:0:0:0:
139,263,103418,6,0,L|125:142,1,96,0|0,3:0|0:0,0:0:0:0:
303,48,103771,1,8,0:0:0:0:
348,210,103948,2,0,P|400:213|458:209,1,96
472,207,104213,1,0,0:0:0:0:
498,202,104301,1,0,3:0:0:0:
398,50,104477,2,0,P|347:45|295:49,1,96,8|0,0:0|0:0,0:0:0:0:
174,223,104830,6,0,P|260:251|367:183,1,192,0|8,3:0|0:0,0:0:0:0:
80,147,105359,1,0,0:0:0:0:
74,186,105447,1,0,0:0:0:0:
69,225,105535,1,0,0:0:0:0:
64,264,105623,1,0,0:0:0:0:
59,303,105711,1,0,3:0:0:0:
280,154,105889,2,0,P|276:99|258:39,1,96,8|0,0:0|0:0,0:0:0:0:
415,313,106242,6,0,P|415:260|424:203,1,96,0|0,3:0|0:0,0:0:0:0:
432,190,106507,1,0,0:0:0:0:
442,167,106595,1,8,0:0:0:0:
326,48,106771,1,0,0:0:0:0:
362,32,106859,1,0,0:0:0:0:
401,30,106947,1,0,0:0:0:0:
437,45,107035,1,0,0:0:0:0:
466,72,107123,1,0,3:0:0:0:
305,197,107301,2,0,P|250:191|190:171,1,96,8|0,0:0|0:0,0:0:0:0:
55,332,107654,6,0,P|45:239|16:117,1,192,0|8,3:0|0:0,0:0:0:0:
264,317,108183,1,0,0:0:0:0:
264,317,108271,1,0,0:0:0:0:
264,317,108359,1,0,0:0:0:0:
347,122,108536,1,0,3:0:0:0:
486,350,108712,2,0,P|494:301|506:249,1,96,8|0,0:0|0:0,0:0:0:0:
329,27,109065,6,0,L|348:127,1,96,0|0,3:0|0:0,0:0:0:0:
471,36,109418,1,8,0:0:0:0:
407,204,109595,1,0,0:0:0:0:
371,219,109683,1,0,0:0:0:0:
332,221,109771,1,0,0:0:0:0:
295,207,109859,1,0,0:0:0:0:
266,180,109947,1,0,3:0:0:0:
184,30,110124,1,8,0:0:0:0:
89,222,110301,1,0,0:0:0:0:
89,222,110389,1,0,0:0:0:0:
89,222,110477,6,0,P|87:166|76:118,1,96,0|0,3:0|0:0,0:0:0:0:
184,30,110830,1,8,0:0:0:0:
337,232,111007,1,0,0:0:0:0:
317,197,111095,1,0,0:0:0:0:
312,158,111183,1,0,0:0:0:0:
322,120,111271,1,0,0:0:0:0:
346,88,111359,1,0,3:0:0:0:
205,285,111536,1,8,0:0:0:0:
408,162,111712,1,0,0:0:0:0:
408,162,111801,1,0,0:0:0:0:
408,162,111889,5,0,3:0:0:0:
184,30,112065,1,0,0:0:0:0:
441,69,112242,1,8,0:0:0:0:
205,285,112418,1,0,0:0:0:0:
205,285,112507,1,0,0:0:0:0:
205,285,112595,1,0,0:0:0:0:
355,86,112771,1,0,3:0:0:0:
305,331,112948,1,8,0:0:0:0:
95,121,113124,1,0,0:0:0:0:
95,121,113212,1,0,0:0:0:0:
95,121,113301,6,0,P|91:232|93:346,1,192,4|8,3:1|0:0,0:0:0:0:
193,224,113830,1,0,0:0:0:0:
232,222,113918,1,0,0:0:0:0:
271,224,114007,1,0,0:0:0:0:
309,231,114095,1,0,0:0:0:0:
346,243,114183,1,0,3:0:0:0:
248,36,114359,2,0,P|260:83|267:135,1,96,8|0,0:0|0:0,0:0:0:0:
226,329,114712,6,0,P|282:328|340:332,1,96,0|0,3:0|0:0,0:0:0:0:
354,336,114977,1,0,0:0:0:0:
379,344,115065,1,8,0:0:0:0:
483,251,115242,2,0,P|481:197|485:139,1,96
490,123,115507,1,0,0:0:0:0:
495,97,115595,1,0,3:0:0:0:
291,135,115771,2,0,P|340:137|393:134,1,96,8|0,0:0|0:0,0:0:0:0:
215,62,116124,6,0,P|116:67|4:62,1,192,0|8,3:0|0:0,0:0:0:0:
105,236,116654,1,0,0:0:0:0:
133,209,116742,1,0,0:0:0:0:
167,190,116830,1,0,0:0:0:0:
204,177,116918,1,0,0:0:0:0:
243,170,117007,1,0,3:0:0:0:
324,5,117183,2,0,P|325:58|330:113,1,96,8|0,0:0|0:0,0:0:0:0:
504,173,117536,5,0,3:0:0:0:
365,217,117712,1,0,0:0:0:0:
338,214,117801,1,0,0:0:0:0:
311,211,117889,1,8,0:0:0:0:
473,323,118065,1,0,0:0:0:0:
454,287,118154,1,0,0:0:0:0:
452,246,118242,1,0,0:0:0:0:
463,208,118330,1,0,0:0:0:0:
489,178,118418,1,0,3:0:0:0:
342,325,118595,2,0,P|289:314|236:305,1,96,8|0,0:0|0:0,0:0:0:0:
124,151,118948,6,0,P|126:212|124:366,1,192,0|8,3:0|0:0,0:0:0:0:
253,219,119477,1,0,0:0:0:0:
244,180,119565,1,0,0:0:0:0:
238,140,119654,1,0,0:0:0:0:
243,100,119742,1,0,0:0:0:0:
255,62,119830,1,0,3:0:0:0:
79,19,120007,2,0,P|141:8|194:-4,1,96,8|0,0:0|0:0,0:0:0:0:
373,102,120359,6,0,P|375:156|371:208,1,96,0|0,3:0|0:0,0:0:0:0:
367,227,120624,1,0,0:0:0:0:
358,251,120712,1,8,0:0:0:0:
143,334,120889,2,0,P|139:279|143:227,1,96
147,208,121154,1,0,0:0:0:0:
156,184,121242,1,0,3:0:0:0:
272,372,121418,2,0,P|274:323|270:270,1,96
481,381,121771,6,0,P|477:321|476:161,1,192,0|8,3:0|0:0,0:0:0:0:
401,53,122301,1,0,0:0:0:0:
362,59,122389,1,0,0:0:0:0:
322,63,122477,1,0,0:0:0:0:
282,65,122565,1,0,0:0:0:0:
242,65,122654,1,0,3:0:0:0:
380,180,122830,2,0,P|327:184|268:182,1,96,8|0,0:0|0:0,0:0:0:0:
82,83,123183,5,0,3:0:0:0:
65,240,123359,1,0,0:0:0:0:
223,254,123536,1,8,0:0:0:0:
239,96,123712,1,0,0:0:0:0:
236,69,123801,1,0,0:0:0:0:
234,42,123889,2,0,L|182:48,1,48
107,18,124065,2,0,L|55:27,1,48,0|0,3:0|0:0,0:0:0:0:
130,169,124242,1,8,0:0:0:0:
0,282,124418,1,0,0:0:0:0:
60,342,124595,6,0,P|157:339|281:344,1,192,4|8,3:1|0:0,0:0:0:0:
463,334,125124,1,0,0:0:0:0:
445,298,125212,1,0,0:0:0:0:
410,277,125301,1,0,0:0:0:0:
370,273,125389,1,0,0:0:0:0:
332,286,125477,1,0,3:0:0:0:
255,190,125654,2,0,P|262:139|265:77,1,96,8|0,0:0|0:0,0:0:0:0:
420,15,126007,6,0,P|416:72|416:122,1,96,0|0,3:0|0:0,0:0:0:0:
419,146,126271,1,0,0:0:0:0:
425,171,126359,1,8,0:0:0:0:
332,286,126536,2,0,P|278:284|227:286,1,96
201,285,126800,1,0,0:0:0:0:
176,291,126888,1,0,3:0:0:0:
420,369,127065,2,0,P|416:312|418:263,1,96,8|0,0:0|0:0,0:0:0:0:
340,143,127418,6,0,P|276:142|128:164,1,192,0|8,3:0|0:0,0:0:0:0:
36,295,127948,1,0,0:0:0:0:
42,256,128036,1,0,0:0:0:0:
45,216,128124,1,0,0:0:0:0:
44,176,128212,1,0,0:0:0:0:
37,136,128301,1,0,3:0:0:0:
221,11,128477,2,0,P|212:65|204:116,1,96,8|0,0:0|0:0,0:0:0:0:
296,221,128830,5,0,3:0:0:0:
431,141,129007,1,0,0:0:0:0:
457,143,129095,1,0,0:0:0:0:
483,145,129183,1,8,0:0:0:0:
414,284,129359,1,0,0:0:0:0:
398,247,129448,1,0,0:0:0:0:
391,208,129536,1,0,0:0:0:0:
396,168,129624,1,0,0:0:0:0:
417,134,129712,1,0,3:0:0:0:
286,346,129889,2,0,P|295:297|302:245,1,96,8|0,0:0|0:0,0:0:0:0:
130,121,130242,6,0,P|236:122|340:141,1,192,0|8,3:0|0:0,0:0:0:0:
512,45,130771,1,0,0:0:0:0:
475,29,130859,1,0,0:0:0:0:
435,25,130948,1,0,0:0:0:0:
397,36,131036,1,0,0:0:0:0:
370,65,131124,1,0,3:0:0:0:
203,114,131301,2,0,P|197:62|189:10,1,96,8|0,0:0|0:0,0:0:0:0:
330,244,131654,6,0,P|387:249|439:248,1,96,0|0,3:0|0:0,0:0:0:0:
461,246,131918,1,0,0:0:0:0:
487,242,132007,1,8,0:0:0:0:
282,156,132183,2,0,P|287:100|286:48,1,96
284,26,132447,1,0,0:0:0:0:
280,0,132536,1,0,3:0:0:0:
204,217,132712,2,0,P|148:211|96:212,1,96,8|0,0:0|0:0,0:0:0:0:
0,299,133065,6,0,P|9:234|23:80,1,192,0|8,3:0|0:0,0:0:0:0:
112,305,133595,1,0,0:0:0:0:
136,336,133683,1,0,0:0:0:0:
171,352,133771,1,0,0:0:0:0:
210,349,133859,1,0,0:0:0:0:
245,330,133948,1,0,3:0:0:0:
414,279,134124,2,0,P|367:272|309:260,1,96,8|0,0:0|0:0,0:0:0:0:
256,64,134477,5,0,3:0:0:0:
384,192,134654,1,0,0:0:0:0:
256,320,134830,1,8,0:0:0:0:
128,192,135007,1,0,0:0:0:0:
102,198,135095,1,0,0:0:0:0:
76,203,135183,1,0,0:0:0:0:
230,234,135359,1,0,3:0:0:0:
363,200,135536,1,8,0:0:0:0:
468,219,135712,1,0,0:0:0:0:
485,216,135889,5,4,3:3:0:0:
485,216,147183,5,4,0:0:0:0:
475,211,147536,2,0,P|463:143|458:77,2,134.399995898438,0|0|0,0:0|0:0|0:0,0:0:0:0:
281,312,148595,6,0,P|218:311|141:298,1,134.399995898438
165,77,149124,2,0,P|159:111|157:148,1,67.1999979492188,0|0,0:0|0:0,0:0:0:0:
42,207,149477,1,0,0:0:0:0:
167,154,149653,1,0,0:0:0:0:
329,318,150006,5,0,0:0:0:0:
337,308,150359,2,0,P|353:245|321:188,2,134.399995898438,0|0|0,0:0|0:0|0:0,0:0:0:0:
405,52,151418,6,0,P|339:57|271:69,1,134.399995898438,0|0,0:0|0:0,0:0:0:0:
32,27,151947,2,0,L|103:35,1,67.1999979492188,0|0,0:0|0:0,0:0:0:0:
96,164,152300,1,0,0:0:0:0:
112,30,152476,1,0,0:0:0:0:
204,264,152830,5,0,0:0:0:0:
214,268,153183,2,0,P|277:263|348:251,2,134.399995898438,0|0|0,0:0|0:0|0:0,0:0:0:0:
461,291,154242,6,0,P|454:225|438:154,1,134.399995898438
218,129,154771,2,0,L|289:139,1,67.1999979492188,0|0,0:0|0:0,0:0:0:0:
314,12,155124,1,0,0:0:0:0:
297,146,155300,1,0,0:0:0:0:
84,81,155653,5,0,0:0:0:0:
92,90,156006,2,0,P|104:158|109:224,2,134.399995898438,0|0|0,0:0|0:0|0:0,0:0:0:0:
221,296,157065,6,0,L|288:289,2,67.1999979492188,0|0|0,0:0|0:0|0:0,0:0:0:0:
342,182,157595,1,0,0:0:0:0:
415,199,157771,2,0,L|348:191,1,67.1999979492188
219,154,158300,1,0,0:0:0:0:
219,154,158477,6,0,P|222:99|221:16,1,134.399995898438,4|0,0:0|0:0,0:0:0:0:
221,19,159183,1,0,0:0:0:0:
307,100,159536,2,0,L|377:91,1,67.1999979492188,0|0,0:0|0:0,0:0:0:0:
443,0,159889,2,0,P|455:42|435:135,1,134.399995898438,0|0,0:0|0:0,0:0:0:0:
377,195,160418,2,0,P|365:237|385:330,1,134.399995898438,0|0,0:0|0:0,0:0:0:0:
442,384,160948,1,0,0:0:0:0:
275,266,161301,6,0,P|221:272|139:272,1,134.399995898438,0|0,0:0|0:0,0:0:0:0:
141,272,162007,1,0,0:0:0:0:
206,186,162359,2,0,L|201:112,1,67.1999979492188,0|0,0:0|0:0,0:0:0:0:
122,27,162712,6,0,P|175:16|247:57,1,134.399995898438,0|0,0:0|0:0,0:0:0:0:
305,125,163242,2,0,P|361:159|426:150,1,134.399995898438,0|0,0:0|0:0,0:0:0:0:
495,87,163771,1,0,0:0:0:0:
494,348,164124,6,0,P|490:293|490:208,1,134.399995898438,0|0,0:0|0:0,0:0:0:0:
489,213,164830,1,0,0:0:0:0:
399,280,165183,2,0,L|330:273,1,67.1999979492188,0|0,0:0|0:0,0:0:0:0:
254,384,165536,6,0,P|242:343|257:249,1,134.399995898438,0|0,0:0|0:0,0:0:0:0:
320,189,166065,2,0,P|332:148|317:54,1,134.399995898438,0|0,0:0|0:0,0:0:0:0:
247,0,166595,1,0,0:0:0:0:
148,146,166948,6,0,P|103:142|2:143,1,134.399995898438,0|0,0:0|0:0,0:0:0:0:
13,142,167654,1,0,0:0:0:0:
83,228,168007,2,0,L|87:299,1,67.1999979492188,0|0,0:0|0:0,0:0:0:0:
179,364,168359,5,0,0:0:0:0:
296,351,168536,1,0,0:0:0:0:
153,341,168712,1,0,0:0:0:0:
312,320,168889,1,0,0:0:0:0:
353,249,169065,1,0,0:0:0:0:
365,165,169242,1,0,0:0:0:0:
374,81,169418,2,0,L|375:151,1,67.1999979492188,8|0,0:0|0:0,0:0:0:0:
277,206,169771,6,0,P|231:203|137:202,1,134.399995898438,0|8,3:0|0:0,0:0:0:0:
69,253,170301,1,0,0:0:0:0:
52,254,170389,1,0,0:0:0:0:
35,255,170477,1,0,0:0:0:0:
138,309,170654,1,0,3:0:0:0:
60,162,170830,2,0,P|67:121|71:80,1,67.1999979492188,8|0,0:0|0:0,0:0:0:0:
64,14,171183,6,0,P|111:8|186:57,1,134.399995898438,0|8,3:0|0:0,0:0:0:0:
203,147,171712,2,0,P|255:186|321:184,1,134.399995898438,0|0,0:0|3:0,0:0:0:0:
324,167,172154,1,0,0:0:0:0:
327,150,172242,2,0,L|336:76,1,67.1999979492188,8|0,0:0|0:0,0:0:0:0:
366,275,172595,6,0,P|408:271|504:272,1,134.399995898438,0|8,3:0|0:0,0:0:0:0:
469,179,173124,1,0,0:0:0:0:
452,178,173212,1,0,0:0:0:0:
435,178,173301,1,0,0:0:0:0:
304,219,173477,1,0,3:0:0:0:
236,175,173654,2,0,P|189:178|162:178,1,67.1999979492188,8|0,0:0|0:0,0:0:0:0:
116,34,174007,6,0,P|91:73|105:171,1,134.399995898438,0|8,3:0|0:0,0:0:0:0:
137,247,174536,2,0,P|147:312|117:371,1,134.399995898438,0|0,0:0|3:0,0:0:0:0:
100,369,174977,1,0,0:0:0:0:
83,367,175065,2,0,L|16:359,1,67.1999979492188,8|0,0:0|0:0,0:0:0:0:
233,321,175418,6,0,L|373:316,1,134.399995898438,0|8,3:0|0:0,0:0:0:0:
479,360,175948,1,0,0:0:0:0:
495,356,176036,1,0,0:0:0:0:
511,353,176124,1,0,0:0:0:0:
426,194,176301,1,0,3:0:0:0:
479,131,176477,2,0,P|478:90|480:59,1,67.1999979492188,8|0,0:0|0:0,0:0:0:0:
315,108,176830,6,0,P|331:145|320:244,1,134.399995898438,0|8,3:0|0:0,0:0:0:0:
198,172,177359,2,0,P|182:135|193:36,1,134.399995898438,0|0,0:0|3:0,0:0:0:0:
206,39,177801,1,0,0:0:0:0:
222,35,177889,2,0,L|298:25,1,67.1999979492188,8|0,0:0|0:0,0:0:0:0:
377,62,178242,5,0,3:0:0:0:
209,263,178595,2,0,P|165:255|55:241,1,134.399995898438,8|0,0:0|0:0,0:0:0:0:
128,336,179124,1,0,3:0:0:0:
303,263,179301,2,0,P|347:255|398:249,1,67.1999979492188,8|0,0:0|0:0,0:0:0:0:
465,359,179654,5,0,3:0:0:0:
482,214,179830,1,0,0:0:0:0:
426,370,180007,1,8,0:0:0:0:
454,193,180183,1,0,0:0:0:0:
479,25,180359,1,0,0:0:0:0:
462,29,180448,1,0,0:0:0:0:
445,32,180536,1,0,3:0:0:0:
429,37,180624,1,0,0:0:0:0:
413,42,180712,5,8,0:0:0:0:
69,10,181065,6,0,P|62:91|65:233,1,192,4|8,3:1|0:0,0:0:0:0:
171,321,181595,1,0,0:0:0:0:
204,324,181683,1,0,0:0:0:0:
237,326,181771,1,0,0:0:0:0:
271,324,181859,1,0,0:0:0:0:
304,319,181947,1,0,3:0:0:0:
376,171,182124,1,8,0:0:0:0:
478,331,182301,1,0,0:0:0:0:
478,331,182389,1,0,0:0:0:0:
478,331,182477,6,0,P|486:276|490:226,1,96,0|0,3:0|0:0,0:0:0:0:
491,211,182742,1,0,0:0:0:0:
490,188,182830,1,8,0:0:0:0:
364,29,183007,2,0,P|372:83|376:133,1,96,0|0,0:0|0:0,0:0:0:0:
377,148,183272,1,0,0:0:0:0:
376,171,183360,1,0,3:0:0:0:
263,293,183536,2,0,P|212:295|162:290,1,96,8|0,0:0|0:0,0:0:0:0:
165,75,183889,6,0,P|266:68|367:77,1,192,0|8,3:0|0:0,0:0:0:0:
87,161,184418,1,0,0:0:0:0:
67,128,184506,1,0,0:0:0:0:
57,91,184594,1,0,0:0:0:0:
60,53,184682,1,0,0:0:0:0:
74,17,184770,1,0,3:0:0:0:
216,146,184948,1,8,0:0:0:0:
129,278,185124,1,0,0:0:0:0:
129,278,185212,1,0,0:0:0:0:
129,278,185301,6,0,P|179:281|240:281,1,96,0|0,3:0|0:0,0:0:0:0:
352,158,185654,1,8,0:0:0:0:
460,350,185830,1,0,0:0:0:0:
462,316,185918,1,0,0:0:0:0:
464,282,186006,1,0,0:0:0:0:
466,249,186094,1,0,0:0:0:0:
468,215,186182,1,0,3:0:0:0:
342,62,186359,2,0,P|349:114|352:163,1,96,8|0,0:0|0:0,0:0:0:0:
235,278,186712,6,0,P|179:279|132:275,1,96,0|0,3:0|0:0,0:0:0:0:
327,336,187065,1,8,0:0:0:0:
192,187,187242,1,0,0:0:0:0:
156,171,187330,1,0,0:0:0:0:
117,169,187418,1,0,0:0:0:0:
81,184,187506,1,0,0:0:0:0:
52,211,187594,1,0,3:0:0:0:
231,338,187771,2,0,P|278:339|326:335,1,96,8|0,0:0|0:0,0:0:0:0:
420,62,188124,6,0,P|427:143|424:268,1,192,0|8,3:0|0:0,0:0:0:0:
192,187,188654,1,0,0:0:0:0:
189,148,188742,1,0,0:0:0:0:
189,110,188830,1,0,0:0:0:0:
191,71,188918,1,0,0:0:0:0:
194,33,189006,1,0,3:0:0:0:
317,167,189183,2,0,P|318:218|315:264,1,96,8|0,0:0|0:0,0:0:0:0:
98,34,189536,6,0,P|149:30|214:35,1,96,0|0,3:0|0:0,0:0:0:0:
317,167,189889,1,8,0:0:0:0:
181,332,190065,1,0,0:0:0:0:
161,299,190153,1,0,0:0:0:0:
151,262,190241,1,0,0:0:0:0:
154,224,190329,1,0,0:0:0:0:
168,188,190417,1,0,3:0:0:0:
367,85,190595,1,8,0:0:0:0:
258,254,190771,1,0,0:0:0:0:
258,254,190859,1,0,0:0:0:0:
258,254,190948,5,0,3:0:0:0:
293,29,191124,1,0,0:0:0:0:
349,291,191301,1,8,0:0:0:0:
225,161,191477,1,0,0:0:0:0:
225,161,191565,1,0,0:0:0:0:
225,161,191654,1,0,0:0:0:0:
388,71,191830,1,0,3:0:0:0:
143,42,192007,1,8,0:0:0:0:
258,254,192183,1,0,0:0:0:0:
258,254,192271,1,0,0:0:0:0:
258,254,192359,6,0,P|190:258|47:247,1,192,4|8,3:1|0:0,0:0:0:0:
339,181,192889,1,0,0:0:0:0:
356,215,192977,1,0,0:0:0:0:
362,253,193065,1,0,0:0:0:0:
355,290,193153,1,0,0:0:0:0:
338,325,193241,1,0,3:0:0:0:
192,137,193418,1,8,0:0:0:0:
208,308,193595,1,0,0:0:0:0:
208,308,193683,1,0,0:0:0:0:
208,308,193771,5,0,3:0:0:0:
350,90,193948,1,0,0:0:0:0:
40,139,194124,1,8,0:0:0:0:
182,172,194301,1,0,0:0:0:0:
192,137,194389,1,0,0:0:0:0:
197,99,194477,1,0,0:0:0:0:
199,61,194565,1,0,0:0:0:0:
197,23,194653,1,0,3:0:0:0:
351,185,194830,2,0,P|349:126|350:72,1,96,8|0,0:0|0:0,0:0:0:0:
439,261,195183,6,0,P|382:299|259:255,1,192,0|8,3:0|0:0,0:0:0:0:
192,137,195712,1,0,0:0:0:0:
192,137,195801,1,0,0:0:0:0:
192,137,195889,1,0,0:0:0:0:
232,343,196065,1,0,3:0:0:0:
351,185,196242,1,8,0:0:0:0:
106,243,196418,1,0,0:0:0:0:
106,243,196507,1,0,0:0:0:0:
106,243,196595,6,0,P|103:186|102:122,1,96,0|0,3:0|0:0,0:0:0:0:
232,343,196948,1,8,0:0:0:0:
350,89,197124,2,0,P|352:144|350:194,1,96,0|0,0:0|0:0,0:0:0:0:
349,209,197389,1,0,0:0:0:0:
345,232,197477,1,0,3:0:0:0:
140,12,197654,2,0,P|188:9|245:13,1,96,8|0,0:0|0:0,0:0:0:0:
350,184,198007,6,0,P|276:193|126:182,1,192,0|8,3:0|0:0,0:0:0:0:
427,96,198536,1,0,0:0:0:0:
446,123,198624,1,0,0:0:0:0:
459,154,198712,1,0,0:0:0:0:
465,187,198800,1,0,0:0:0:0:
464,220,198888,1,0,3:0:0:0:
294,369,199065,2,0,P|289:301|294:248,1,96,8|0,0:0|0:0,0:0:0:0:
108,111,199418,5,0,3:0:0:0:
268,260,199595,1,0,0:0:0:0:
268,260,199683,1,0,0:0:0:0:
268,260,199771,1,8,0:0:0:0:
28,210,199948,1,0,0:0:0:0:
16,241,200036,1,0,0:0:0:0:
11,274,200124,1,0,0:0:0:0:
14,308,200212,1,0,0:0:0:0:
24,340,200300,1,0,3:0:0:0:
203,111,200477,2,0,P|148:109|81:112,1,96,8|0,0:0|0:0,0:0:0:0:
268,260,200830,6,0,P|338:265|480:255,1,192,0|8,3:0|0:0,0:0:0:0:
232,40,201359,1,0,0:0:0:0:
211,73,201447,1,0,0:0:0:0:
203,111,201535,1,0,0:0:0:0:
213,149,201623,1,0,0:0:0:0:
236,181,201711,1,0,3:0:0:0:
143,353,201889,1,8,0:0:0:0:
77,153,202065,1,0,0:0:0:0:
77,153,202154,1,0,0:0:0:0:
77,153,202242,5,0,3:0:0:0:
240,288,202418,1,0,0:0:0:0:
299,108,202595,1,8,0:0:0:0:
144,239,202771,1,0,0:0:0:0:
144,239,202859,1,0,0:0:0:0:
144,239,202948,1,0,0:0:0:0:
345,304,203124,1,0,3:0:0:0:
203,45,203301,1,8,0:0:0:0:
251,345,203477,1,0,0:0:0:0:
251,345,203565,1,0,0:0:0:0:
251,345,203654,6,0,P|353:340|460:348,1,192,4|8,3:1|0:0,0:0:0:0:
415,189,204183,1,0,0:0:0:0:
384,169,204271,1,0,0:0:0:0:
348,169,204359,1,0,0:0:0:0:
315,184,204448,1,0,0:0:0:0:
294,213,204536,1,0,3:0:0:0:
512,281,204712,2,0,P|506:230|506:185,1,96,8|0,0:0|0:0,0:0:0:0:
329,15,205065,6,0,P|331:70|329:120,1,96,0|0,3:0|0:0,0:0:0:0:
328,135,205330,1,0,0:0:0:0:
324,158,205418,1,8,0:0:0:0:
113,212,205595,2,0,P|168:210|218:212,1,96,0|0,0:0|0:0,0:0:0:0:
233,213,205860,1,0,0:0:0:0:
256,217,205948,1,0,3:0:0:0:
326,384,206124,2,0,P|324:329|326:279,1,96,8|0,0:0|0:0,0:0:0:0:
189,384,206477,6,0,P|199:307|208:182,1,192,0|8,3:0|0:0,0:0:0:0:
154,11,207007,1,0,0:0:0:0:
168,43,207095,1,0,0:0:0:0:
187,72,207183,1,0,0:0:0:0:
212,96,207271,1,0,0:0:0:0:
243,113,207359,1,0,3:0:0:0:
115,189,207536,2,0,P|109:241|102:294,1,96,8|0,0:0|0:0,0:0:0:0:
305,206,207889,5,0,3:0:0:0:
452,248,208065,1,0,0:0:0:0:
476,246,208154,1,0,0:0:0:0:
499,245,208242,1,8,0:0:0:0:
439,51,208418,1,0,0:0:0:0:
410,74,208507,1,0,0:0:0:0:
394,106,208595,1,0,0:0:0:0:
392,141,208683,1,0,0:0:0:0:
403,175,208771,1,0,3:0:0:0:
512,334,208948,2,0,P|462:332|416:334,1,96,8|0,0:0|0:0,0:0:0:0:
256,273,209301,6,0,P|198:276|64:274,1,192,0|8,3:0|0:0,0:0:0:0:
0,122,209830,1,0,0:0:0:0:
35,122,209918,1,0,0:0:0:0:
70,117,210007,1,0,0:0:0:0:
104,107,210095,1,0,0:0:0:0:
135,89,210183,1,0,3:0:0:0:
251,36,210359,2,0,P|197:17|162:-1,1,96,8|0,0:0|0:0,0:0:0:0:
385,93,210712,6,0,P|382:153|385:230,1,96,0|0,3:0|0:0,0:0:0:0:
383,213,210977,1,0,0:0:0:0:
386,236,211065,1,8,0:0:0:0:
277,358,211242,2,0,P|217:355|140:358,1,96,0|0,0:0|0:0,0:0:0:0:
157,356,211507,1,0,0:0:0:0:
134,359,211595,1,0,3:0:0:0:
0,242,211771,2,0,P|51:247|108:258,1,96,8|0,0:0|0:0,0:0:0:0:
193,109,212124,6,0,P|252:107|384:93,1,192,0|8,3:0|0:0,0:0:0:0:
475,251,212654,1,0,0:0:0:0:
499,224,212742,1,0,0:0:0:0:
511,190,212830,1,0,0:0:0:0:
507,154,212918,1,0,0:0:0:0:
486,124,213007,1,0,3:0:0:0:
384,0,213183,2,0,P|386:52|384:98,1,96,8|0,0:0|0:0,0:0:0:0:
340,314,213536,5,0,3:0:0:0:
366,172,213712,1,0,0:0:0:0:
223,149,213889,1,8,0:0:0:0:
193,289,214065,1,0,0:0:0:0:
169,293,214154,1,0,0:0:0:0:
145,297,214242,2,0,L|90:306,1,48,0|0,0:0|0:0,0:0:0:0:
47,220,214418,2,0,L|-8:229,1,48,0|0,3:0|0:0,0:0:0:0:
85,52,214595,1,8,0:0:0:0:
259,103,214771,1,0,0:0:0:0:
321,47,214948,6,0,P|378:52|512:52,1,192,4|8,3:1|0:0,0:0:0:0:
370,164,215477,1,0,0:0:0:0:
341,185,215565,1,0,0:0:0:0:
327,218,215654,1,0,0:0:0:0:
326,253,215742,1,0,0:0:0:0:
339,286,215830,1,0,3:0:0:0:
498,354,216007,2,0,P|501:304|499:252,1,96,8|0,0:0|0:0,0:0:0:0:
257,364,216359,6,0,P|208:358|124:354,1,96,0|0,3:0|0:0,0:0:0:0:
137,354,216624,1,0,0:0:0:0:
113,356,216712,1,8,0:0:0:0:
0,217,216889,2,0,P|49:219|132:230,1,96,0|0,0:0|0:0,0:0:0:0:
120,228,217154,1,0,0:0:0:0:
143,234,217242,1,0,3:0:0:0:
215,71,217418,2,0,P|160:85|118:102,1,96,8|0,0:0|0:0,0:0:0:0:
312,191,217771,6,0,P|306:95|309:0,1,192,0|8,3:0|0:0,0:0:0:0:
512,164,218301,1,0,0:0:0:0:
496,131,218389,1,0,0:0:0:0:
466,110,218477,1,0,0:0:0:0:
431,101,218565,1,0,0:0:0:0:
395,109,218654,1,0,3:0:0:0:
421,300,218830,2,0,P|465:282|512:271,1,96,8|0,0:0|0:0,0:0:0:0:
261,256,219183,5,0,3:0:0:0:
131,312,219359,1,0,0:0:0:0:
106,310,219448,1,0,0:0:0:0:
82,308,219536,1,8,0:0:0:0:
147,107,219712,1,0,0:0:0:0:
163,139,219801,1,0,0:0:0:0:
172,173,219889,1,0,0:0:0:0:
175,208,219977,1,0,0:0:0:0:
171,243,220065,1,0,3:0:0:0:
245,91,220242,2,0,P|257:43|277:-8,1,96,8|0,0:0|0:0,0:0:0:0:
496,146,220595,6,0,P|443:143|299:150,1,192,0|8,3:0|0:0,0:0:0:0:
149,244,221124,1,0,0:0:0:0:
153,209,221212,1,0,0:0:0:0:
150,174,221300,1,0,0:0:0:0:
141,140,221388,1,0,0:0:0:0:
125,108,221477,1,0,3:0:0:0:
273,0,221654,2,0,P|256:44|245:91,1,96,8|0,0:0|0:0,0:0:0:0:
297,237,222007,6,0,P|351:231|413:231,1,96,0|0,3:0|0:0,0:0:0:0:
416,231,222271,1,0,0:0:0:0:
439,235,222359,1,8,0:0:0:0:
216,190,222536,2,0,P|210:136|210:74,1,96,0|0,0:0|0:0,0:0:0:0:
210,71,222800,1,0,0:0:0:0:
214,48,222888,1,0,3:0:0:0:
159,259,223065,2,0,P|105:265|43:265,1,96,8|0,0:0|0:0,0:0:0:0:
240,336,223418,6,0,P|290:339|431:360,1,192,0|8,3:0|0:0,0:0:0:0:
511,227,223948,1,0,0:0:0:0:
494,195,224036,1,0,0:0:0:0:
481,161,224124,1,0,0:0:0:0:
474,125,224212,1,0,0:0:0:0:
474,88,224301,1,0,3:0:0:0:
356,16,224477,2,0,P|309:5|261:0,1,96,8|0,0:0|0:0,0:0:0:0:
376,119,224830,5,0,3:0:0:0:
183,72,225007,1,0,0:0:0:0:
136,265,225183,1,8,0:0:0:0:
329,312,225359,1,0,0:0:0:0:
352,308,225448,1,0,0:0:0:0:
375,305,225536,5,0,0:0:0:0:
400,113,225712,1,0,3:0:0:0:
226,30,225889,1,8,0:0:0:0:
93,170,226065,1,0,0:0:0:0:
185,340,226242,5,4,2:1:0:0:
197,76,229065,6,0,P|202:150|201:323,1,230.39999296875,4|8,3:1|0:0,0:0:0:0:
323,92,229595,1,0,0:0:0:0:
323,92,229683,1,0,0:0:0:0:
323,92,229771,2,0,P|377:88|449:92,1,115.199996484375,0|0,0:0|3:0,0:0:0:0:
236,221,230124,1,8,0:0:0:0:
74,26,230301,1,0,0:0:0:0:
74,26,230389,1,0,0:0:0:0:
74,26,230477,6,0,P|62:126|64:174,1,115.199996484375,0|0,3:0|0:0,0:0:0:0:
89,325,230830,1,8,0:0:0:0:
229,359,231007,1,0,0:0:0:0:
237,313,231095,1,0,0:0:0:0:
240,267,231183,1,0,0:0:0:0:
236,221,231271,1,0,0:0:0:0:
226,177,231359,1,0,3:0:0:0:
405,88,231536,1,8,0:0:0:0:
309,307,231712,1,0,0:0:0:0:
309,307,231801,1,0,0:0:0:0:
309,307,231889,6,0,P|397:315|546:301,1,230.39999296875,0|8,3:0|0:0,0:0:0:0:
365,64,232418,1,0,0:0:0:0:
365,64,232507,1,0,0:0:0:0:
365,64,232595,2,0,P|303:63|233:66,1,115.199996484375,0|0,0:0|3:0,0:0:0:0:
24,154,232948,2,0,P|18:211|19:277,1,115.199996484375,8|0,0:0|0:0,0:0:0:0:
170,370,233301,6,0,P|173:312|168:235,1,115.199996484375,0|0,3:0|0:0,0:0:0:0:
87,88,233654,1,8,0:0:0:0:
248,282,233830,1,0,0:0:0:0:
290,299,233918,1,0,0:0:0:0:
335,303,234006,1,0,0:0:0:0:
380,291,234094,1,0,0:0:0:0:
418,266,234182,1,0,3:0:0:0:
386,47,234359,2,0,P|378:118|379:174,1,115.199996484375,8|0,0:0|0:0,0:0:0:0:
211,375,234712,6,0,P|212:300|194:133,1,230.39999296875,0|8,3:0|0:0,0:0:0:0:
0,279,235242,1,0,0:0:0:0:
0,279,235330,1,0,0:0:0:0:
0,279,235418,2,0,P|64:284|128:283,1,115.199996484375,0|0,0:0|3:0,0:0:0:0:
196,145,235771,1,8,0:0:0:0:
37,17,235948,1,0,0:0:0:0:
37,17,236036,1,0,0:0:0:0:
37,17,236124,5,0,3:0:0:0:
193,244,236301,1,0,0:0:0:0:
309,60,236477,1,8,0:0:0:0:
64,174,236654,1,0,0:0:0:0:
64,174,236742,1,0,0:0:0:0:
64,174,236830,1,0,0:0:0:0:
312,261,237007,1,0,3:0:0:0:
192,1,237183,1,8,0:0:0:0:
182,296,237359,1,0,0:0:0:0:
182,296,237448,1,0,0:0:0:0:
182,296,237536,6,0,P|247:301|432:285,1,230.39999296875,4|8,3:1|0:0,0:0:0:0:
477,57,238065,1,0,0:0:0:0:
477,57,238154,1,0,0:0:0:0:
477,57,238242,2,0,P|414:54|345:59,1,115.199996484375,0|0,0:0|3:0,0:0:0:0:
234,233,238595,1,8,0:0:0:0:
119,20,238771,1,0,0:0:0:0:
119,20,238859,1,0,0:0:0:0:
119,20,238948,6,0,P|179:17|264:20,1,115.199996484375,0|0,3:0|0:0,0:0:0:0:
343,206,239301,1,8,0:0:0:0:
185,119,239477,1,0,0:0:0:0:
138,116,239565,1,0,0:0:0:0:
92,116,239653,1,0,0:0:0:0:
46,119,239741,1,0,0:0:0:0:
1,125,239829,1,0,3:0:0:0:
226,347,240007,2,0,P|234:282|232:219,1,115.199996484375,8|0,0:0|0:0,0:0:0:0:
339,102,240359,6,0,P|406:129|396:288,1,230.39999296875,0|8,3:0|0:0,0:0:0:0:
138,116,240889,1,0,0:0:0:0:
138,116,240977,1,0,0:0:0:0:
138,116,241065,2,0,P|206:113|271:122,1,115.199996484375,0|0,0:0|3:0,0:0:0:0:
236,330,241418,1,8,0:0:0:0:
23,198,241595,1,0,0:0:0:0:
23,198,241683,1,0,0:0:0:0:
23,198,241771,6,0,P|22:136|27:69,1,115.199996484375,0|0,3:0|0:0,0:0:0:0:
152,266,242124,1,8,0:0:0:0:
272,14,242301,1,0,0:0:0:0:
316,4,242389,1,0,0:0:0:0:
362,10,242477,1,0,0:0:0:0:
404,29,242565,1,0,0:0:0:0:
437,60,242653,1,0,3:0:0:0:
266,269,242830,2,0,P|203:270|134:263,1,115.199996484375,8|0,0:0|0:0,0:0:0:0:
206,56,243183,6,0,P|288:54|459:62,1,230.39999296875,0|8,3:0|0:0,0:0:0:0:
266,269,243712,1,0,0:0:0:0:
266,269,243801,1,0,0:0:0:0:
266,269,243889,2,0,P|263:206|271:131,1,115.199996484375,0|0,0:0|3:0,0:0:0:0:
422,242,244242,2,0,P|426:299|423:356,1,115.199996484375,8|0,0:0|0:0,0:0:0:0:
267,154,244595,5,0,3:0:0:0:
119,289,244771,1,0,0:0:0:0:
119,289,244859,1,0,0:0:0:0:
119,289,244948,1,8,0:0:0:0:
29,36,245124,1,0,0:0:0:0:
33,82,245212,1,0,0:0:0:0:
33,128,245300,1,0,0:0:0:0:
31,173,245388,1,0,0:0:0:0:
25,220,245476,1,0,3:0:0:0:
157,360,245654,2,0,P|207:364|275:362,1,115.199996484375,8|0,0:0|0:0,0:0:0:0:
460,185,246007,6,0,P|403:128|249:177,1,230.39999296875,0|8,3:0|0:0,0:0:0:0:
352,342,246536,1,0,0:0:0:0:
352,342,246624,1,0,0:0:0:0:
352,342,246712,2,0,P|358:282|353:204,1,115.199996484375,0|0,0:0|3:0,0:0:0:0:
199,74,247065,1,8,0:0:0:0:
264,275,247242,1,0,0:0:0:0:
264,275,247330,1,0,0:0:0:0:
264,275,247418,5,0,3:0:0:0:
315,24,247595,1,0,0:0:0:0:
152,226,247771,1,8,0:0:0:0:
402,112,247948,1,0,0:0:0:0:
402,112,248036,1,0,0:0:0:0:
402,112,248124,1,0,0:0:0:0:
192,30,248301,1,0,3:0:0:0:
353,223,248477,1,8,0:0:0:0:
49,113,248654,1,0,0:0:0:0:
49,113,248742,1,0,0:0:0:0:
49,113,248830,6,0,P|51:226|69:359,1,230.39999296875,4|8,3:1|0:0,0:0:0:0:
157,384,249359,1,0,0:0:0:0:
245,0,249536,2,0,P|243:113|225:246,1,230.39999296875,0|8,0:0|0:0,0:0:0:0:
137,271,250065,1,0,0:0:0:0:
329,362,250242,6,0,P|327:294|331:228,1,115.199996484375,0|0,3:0|0:0,0:0:0:0:
403,115,250595,1,8,0:0:0:0:
403,115,250771,2,0,P|405:47|401:-19,1,115.199996484375,0|0,0:0|0:0,0:0:0:0:
483,183,251124,1,0,3:0:0:0:
304,97,251301,2,0,P|237:104|182:109,1,115.199996484375,8|0,0:0|0:0,0:0:0:0:
0,169,251654,5,0,3:0:0:0:
182,0,251830,1,0,0:0:0:0:
153,198,252007,1,8,0:0:0:0:
63,18,252183,1,0,0:0:0:0:
317,106,252359,2,0,P|390:102|457:109,1,115.199996484375,0|0,0:0|3:0,0:0:0:0:
229,217,252712,2,0,P|233:290|226:357,1,115.199996484375,8|0,0:0|0:0,0:0:0:0:
228,68,253065,6,0,P|165:80|-4:94,1,230.39999296875,0|8,3:0|0:0,0:0:0:0:
99,0,253595,1,0,0:0:0:0:
75,260,253771,1,0,0:0:0:0:
187,152,253948,1,0,3:0:0:0:
336,223,254124,2,0,P|401:238|476:250,1,115.199996484375,8|0,0:0|0:0,0:0:0:0:
153,379,254477,6,0,P|166:312|187:142,1,230.39999296875,0|8,3:0|0:0,0:0:0:0:
104,84,255007,1,0,0:0:0:0:
394,116,255183,1,0,0:0:0:0:
197,0,255359,1,0,3:0:0:0:
321,0,255536,2,0,P|308:76|303:141,1,115.199996484375,8|0,0:0|0:0,0:0:0:0:
471,211,255889,6,0,P|401:224|327:251,1,115.199996484375,0|0,3:0|0:0,0:0:0:0:
190,341,256242,1,8,0:0:0:0:
190,341,256418,2,0,P|246:350|301:367,1,115.199996484375,0|0,0:0|0:0,0:0:0:0:
107,174,256771,1,0,3:0:0:0:
107,174,256948,2,0,P|108:237|103:304,1,115.199996484375,8|0,0:0|0:0,0:0:0:0:
213,89,257301,6,0,P|279:92|457:89,2,230.39999296875,0|8|0,3:0|0:0|0:0,0:0:0:0:
328,0,258183,1,0,3:0:0:0:
439,179,258359,2,0,P|449:236|466:291,1,115.199996484375,8|0,0:0|0:0,0:0:0:0:
313,365,258712,5,0,3:0:0:0:
353,183,258889,1,0,0:0:0:0:
189,367,259065,1,8,0:0:0:0:
158,153,259242,1,0,0:0:0:0:
43,287,259418,1,0,0:0:0:0:
222,209,259595,1,0,3:0:0:0:
340,279,259771,1,8,0:0:0:0:
512,201,259948,1,0,0:0:0:0:
321,289,260124,6,0,P|323:200|309:53,1,230.39999296875,4|8,3:1|0:0,0:0:0:0:
224,10,260654,1,0,0:0:0:0:
412,373,260830,2,0,P|410:284|424:137,1,230.39999296875,0|8,0:0|0:0,0:0:0:0:
509,94,261360,1,0,0:0:0:0:
321,289,261536,6,0,P|263:279|200:273,1,115.199996484375,0|0,3:0|0:0,0:0:0:0:
33,341,261889,1,8,0:0:0:0:
33,341,262065,2,0,P|90:335|147:325,1,115.199996484375,0|0,0:0|0:0,0:0:0:0:
201,103,262418,1,0,3:0:0:0:
95,105,262595,2,0,P|94:166|98:220,1,115.199996484375,8|0,0:0|0:0,0:0:0:0:
369,368,262948,5,0,3:0:0:0:
485,196,263124,1,0,0:0:0:0:
512,353,263301,1,8,0:0:0:0:
332,225,263477,1,0,0:0:0:0:
486,113,263654,2,0,P|496:53|503:-5,1,115.199996484375,0|0,0:0|3:0,0:0:0:0:
199,41,264007,2,0,P|139:31|81:24,1,115.199996484375,8|0,0:0|0:0,0:0:0:0:
341,0,264359,6,0,P|324:90|308:235,1,230.39999296875,0|8,3:0|0:0,0:0:0:0:
368,384,264889,1,0,0:0:0:0:
214,271,265065,1,0,0:0:0:0:
410,292,265242,1,0,3:0:0:0:
114,199,265418,2,0,P|56:191|0:191,1,115.199996484375,8|0,0:0|0:0,0:0:0:0:
214,271,265771,6,0,P|207:209|199:40,1,230.39999296875,0|8,3:0|0:0,0:0:0:0:
414,0,266301,1,0,0:0:0:0:
306,216,266477,1,0,0:0:0:0:
284,68,266654,1,0,3:0:0:0:
511,122,266830,2,0,P|444:106|396:98,1,115.199996484375,8|0,0:0|0:0,0:0:0:0:
75,0,267183,6,0,P|85:67|90:118,1,115.199996484375,0|0,3:0|0:0,0:0:0:0:
22,298,267536,1,8,0:0:0:0:
22,298,267712,2,0,P|27:240|36:183,1,115.199996484375,0|0,0:0|0:0,0:0:0:0:
89,373,268065,1,0,3:0:0:0:
244,246,268242,1,8,0:0:0:0:
357,319,268418,1,0,0:0:0:0:
462,247,268595,6,0,P|459:169|462:15,2,230.39999296875,0|8|0,3:0|0:0|0:0,0:0:0:0:
280,138,269477,1,0,3:0:0:0:
82,250,269654,2,0,P|139:254|197:261,1,115.199996484375,8|0,0:0|0:0,0:0:0:0:
404,296,270007,5,0,3:0:0:0:
360,44,270183,1,0,0:0:0:0:
108,88,270359,1,8,0:0:0:0:
152,340,270536,1,0,0:0:0:0:
364,336,270712,1,0,0:0:0:0:
427,133,270889,1,0,3:0:0:0:
253,11,271065,1,8,0:0:0:0:
83,138,271242,1,0,0:0:0:0:
151,340,271418,5,4,3:1:0:0:
427,133,271771,1,8,0:0:0:0:
254,131,271948,1,0,0:0:0:0:
248,101,272036,1,0,0:0:0:0:
247,71,272124,1,0,0:0:0:0:
248,40,272212,1,0,0:0:0:0:
253,11,272300,1,0,3:0:0:0:
427,133,272477,1,8,0:0:0:0:
334,273,272654,1,0,0:0:0:0:
334,273,272742,1,0,0:0:0:0:
334,273,272830,6,0,P|388:278|443:273,1,86.3999973632813,0|0,3:0|0:0,0:0:0:0:
226,348,273183,1,8,0:0:0:0:
254,131,273359,2,0,P|210:129|160:131,1,86.3999973632813
145,132,273624,1,0,0:0:0:0:
122,136,273712,1,0,3:0:0:0:
11,257,273889,2,0,P|9:300|14:343,1,86.3999973632813,8|0,0:0|0:0,0:0:0:0:
199,231,274242,6,0,P|203:179|192:35,1,172.799994726563,0|8,3:0|0:0,0:0:0:0:
308,18,274771,1,0,0:0:0:0:
338,34,274859,1,0,0:0:0:0:
371,42,274947,1,0,0:0:0:0:
406,40,275036,1,0,0:0:0:0:
438,28,275123,1,0,3:0:0:0:
512,168,275301,1,8,0:0:0:0:
372,242,275477,1,0,0:0:0:0:
372,242,275565,1,0,0:0:0:0:
372,242,275654,6,0,P|369:191|372:134,1,86.3999973632813,0|0,3:0|0:0,0:0:0:0:
240,27,276007,1,8,0:0:0:0:
85,175,276183,2,0,P|129:177|179:175,1,86.3999973632813
194,174,276448,1,0,0:0:0:0:
217,170,276536,1,0,3:0:0:0:
285,335,276712,2,0,P|241:334|198:336,1,86.3999973632813,8|0,0:0|0:0,0:0:0:0:
18,246,277065,6,0,P|-10:183|44:87,1,172.799994726563,0|8,3:0|0:0,0:0:0:0:
165,50,277595,1,0,0:0:0:0:
195,44,277683,1,0,0:0:0:0:
225,43,277771,1,0,0:0:0:0:
256,44,277859,1,0,0:0:0:0:
285,49,277947,1,0,3:0:0:0:
176,175,278124,2,0,P|132:175|89:173,1,86.3999973632813,8|0,0:0|0:0,0:0:0:0:
285,49,278477,6,0,P|287:92|286:135,1,86.3999973632813,0|0,3:0|0:0,0:0:0:0:
356,294,278830,1,8,0:0:0:0:
465,101,279007,2,0,P|463:145|465:195,1,86.3999973632813
466,210,279272,1,0,0:0:0:0:
470,233,279360,1,0,3:0:0:0:
356,294,279536,2,0,P|312:294|269:292,1,86.3999973632813,8|0,0:0|0:0,0:0:0:0:
137,179,279889,6,0,P|223:171|309:176,1,172.799994726563,0|8,3:0|0:0,0:0:0:0:
470,212,280418,1,0,0:0:0:0:
482,180,280506,1,0,0:0:0:0:
484,145,280594,1,0,0:0:0:0:
476,112,280682,1,0,0:0:0:0:
460,82,280770,1,0,3:0:0:0:
317,39,280948,1,8,0:0:0:0:
348,173,281124,1,0,0:0:0:0:
348,173,281212,1,0,0:0:0:0:
348,173,281301,6,0,P|348:220|345:275,2,86.3999973632813,0|0|8,3:0|0:0|0:0,0:0:0:0:
267,61,281830,1,0,0:0:0:0:
135,104,282007,1,0,0:0:0:0:
135,242,282183,1,0,3:0:0:0:
267,285,282359,1,8,0:0:0:0:
135,104,282536,1,0,0:0:0:0:
135,104,282624,1,0,0:0:0:0:
135,104,282712,6,0,P|199:98|324:106,1,172.799994726563,4|8,3:1|0:0,0:0:0:0:
274,225,283242,1,0,0:0:0:0:
268,255,283330,1,0,0:0:0:0:
267,285,283418,1,0,0:0:0:0:
268,316,283506,1,0,0:0:0:0:
273,345,283594,1,0,3:0:0:0:
380,226,283771,1,8,0:0:0:0:
221,107,283948,1,0,0:0:0:0:
221,107,284036,1,0,0:0:0:0:
221,107,284124,6,0,P|167:102|112:107,1,86.3999973632813,0|0,3:0|0:0,0:0:0:0:
323,31,284477,1,8,0:0:0:0:
327,258,284654,2,0,P|371:260|421:258,1,86.3999973632813
436,257,284919,1,0,0:0:0:0:
459,253,285007,1,0,3:0:0:0:
505,118,285183,2,0,P|506:74|501:31,1,86.3999973632813,8|0,0:0|0:0,0:0:0:0:
313,139,285536,6,0,P|279:196|306:307,1,172.799994726563,0|8,3:0|0:0,0:0:0:0:
204,366,286065,1,0,0:0:0:0:
174,350,286153,1,0,0:0:0:0:
141,342,286241,1,0,0:0:0:0:
106,344,286329,1,0,0:0:0:0:
74,356,286417,1,0,3:0:0:0:
0,216,286595,1,8,0:0:0:0:
140,142,286771,1,0,0:0:0:0:
140,142,286859,1,0,0:0:0:0:
140,142,286948,6,0,P|143:193|140:250,1,86.3999973632813,0|0,3:0|0:0,0:0:0:0:
272,357,287301,1,8,0:0:0:0:
426,207,287477,2,0,P|382:205|332:207,1,86.3999973632813
317,208,287742,1,0,0:0:0:0:
294,212,287830,1,0,3:0:0:0:
227,49,288006,2,0,P|270:49|313:47,1,86.3999973632813,8|0,0:0|0:0,0:0:0:0:
494,138,288359,6,0,P|522:201|468:297,1,172.799994726563,0|8,3:0|0:0,0:0:0:0:
347,334,288889,1,0,0:0:0:0:
317,340,288977,1,0,0:0:0:0:
287,341,289065,1,0,0:0:0:0:
256,340,289153,1,0,0:0:0:0:
227,335,289241,1,0,3:0:0:0:
336,209,289418,2,0,P|379:208|422:210,1,86.3999973632813,8|0,0:0|0:0,0:0:0:0:
227,335,289771,6,0,P|224:291|225:248,1,86.3999973632813,0|0,3:0|0:0,0:0:0:0:
156,90,290124,1,8,0:0:0:0:
47,283,290301,2,0,P|49:239|47:189,1,86.3999973632813
46,174,290566,1,0,0:0:0:0:
42,151,290654,1,0,3:0:0:0:
156,90,290830,2,0,P|199:89|242:91,1,86.3999973632813,8|0,0:0|0:0,0:0:0:0:
375,205,291183,6,0,P|288:212|202:207,1,172.799994726563,0|8,3:0|0:0,0:0:0:0:
42,172,291712,1,0,0:0:0:0:
30,204,291800,1,0,0:0:0:0:
28,239,291888,1,0,0:0:0:0:
36,272,291976,1,0,0:0:0:0:
52,302,292064,1,0,3:0:0:0:
195,345,292242,1,8,0:0:0:0:
164,211,292418,1,0,0:0:0:0:
164,211,292506,1,0,0:0:0:0:
164,211,292595,6,0,P|164:164|167:109,2,86.3999973632813,0|0|8,3:0|0:0|0:0,0:0:0:0:
245,323,293124,1,0,0:0:0:0:
377,280,293301,1,0,0:0:0:0:
377,142,293477,1,0,3:0:0:0:
377,142,293654,1,8,0:0:0:0:
509,99,293830,1,0,0:0:0:0:
509,99,293918,1,0,0:0:0:0:
509,99,294007,6,0,P|507:159|509:240,1,134.399995898438,4|0,3:3|0:0,0:0:0:0:
508,233,294712,1,0,0:0:0:0:
417,183,295065,2,0,L|341:192,1,67.1999979492188,0|0,0:0|0:0,0:0:0:0:
331,102,295418,6,0,P|291:97|220:158,1,134.399995898438,0|0,0:0|0:0,0:0:0:0:
181,249,295948,2,0,P|141:254|70:193,1,134.399995898438,0|0,0:0|0:0,0:0:0:0:
46,107,296477,1,0,0:0:0:0:
135,351,296830,6,0,P|82:348|-2:349,1,134.399995898438,0|0,0:0|0:0,0:0:0:0:
0,348,297536,1,0,0:0:0:0:
66,265,297889,2,0,L|72:194,1,67.1999979492188,0|0,0:0|0:0,0:0:0:0:
46,107,298242,6,0,P|90:94|186:129,1,134.399995898438,0|0,0:0|0:0,0:0:0:0:
239,200,298771,2,0,P|283:213|379:178,1,134.399995898438,0|0,0:0|0:0,0:0:0:0:
434,106,299301,1,0,0:0:0:0:
377,351,299654,6,0,P|430:348|514:349,1,134.399995898438,0|0,0:0|0:0,0:0:0:0:
512,348,300360,1,0,0:0:0:0:
446,265,300713,2,0,L|440:194,1,67.1999979492188,0|0,0:0|0:0,0:0:0:0:
371,19,301065,6,0,P|385:55|370:162,1,134.399995898438,0|0,0:0|0:0,0:0:0:0:
301,216,301595,2,0,P|287:252|302:359,1,134.399995898438,0|0,0:0|0:0,0:0:0:0:
383,384,302124,1,0,0:0:0:0:
183,256,302477,6,0,P|186:204|186:106,1,134.399995898438,0|0,0:0|0:0,0:0:0:0:
186,121,303183,1,0,0:0:0:0:
98,193,303536,2,0,L|23:198,1,67.1999979492188,0|0,0:0|0:0,0:0:0:0:
175,354,303889,5,0,0:0:0:0:
198,237,304065,1,0,0:0:0:0:
201,365,304242,1,0,0:0:0:0:
233,226,304418,1,0,0:0:0:0:
320,195,304595,1,0,0:0:0:0:
320,195,304771,2,0,P|378:200|465:198,1,134.399995898438,0|0,0:0|0:0,0:0:0:0:
255,134,305301,6,0,P|260:76|258:-11,1,134.399995898438,0|0,0:0|0:0,0:0:0:0:
258,0,306007,1,0,0:0:0:0:
346,76,306359,2,0,L|418:71,1,67.1999979492188,0|0,0:0|0:0,0:0:0:0:
461,149,306712,6,0,P|419:171|316:158,1,134.399995898438,0|0,0:0|0:0,0:0:0:0:
242,116,307242,2,0,P|200:93|97:106,1,134.399995898438,0|0,0:0|0:0,0:0:0:0:
25,152,307771,1,0,0:0:0:0:
210,227,308124,6,0,P|159:234|60:241,1,134.399995898438,0|0,0:0|0:0,0:0:0:0:
77,241,308830,1,0,0:0:0:0:
158,317,309183,2,0,L|160:388,1,67.1999979492188,0|0,0:0|0:0,0:0:0:0:
264,384,309536,6,0,P|286:343|274:247,1,134.399995898438,0|0,0:0|0:0,0:0:0:0:
216,179,310065,2,0,P|194:138|206:42,1,134.399995898438,0|0,0:0|0:0,0:0:0:0:
280,0,310595,1,0,0:0:0:0:
360,227,310948,6,0,P|426:236|493:240,1,134.399995898438,0|0,0:0|0:0,0:0:0:0:
493,241,311654,1,0,0:0:0:0:
434,145,312007,2,0,L|432:77,1,67.1999979492188,0|0,0:0|0:0,0:0:0:0:
364,22,312359,6,0,P|325:20|251:86,1,134.399995898438,0|0,0:0|0:0,0:0:0:0:
415,135,312889,2,0,P|431:96|384:2,1,134.399995898438,0|0,0:0|0:0,0:0:0:0:
293,183,313418,2,0,P|329:198|371:194,1,67.1999979492188,0|0,0:0|0:0,0:0:0:0:
485,185,313771,6,0,P|483:239|486:319,3,134.399995898438,0|0|0|0,0:0|0:0|0:0|0:0,0:0:0:0:
486,319,315183,1,0,0:0:0:0:
391,301,315359,1,0,0:0:0:0:
286,347,315536,1,0,0:0:0:0:
253,343,315712,1,0,0:0:0:0:
50,276,315889,5,0,0:0:0:0:
178,260,316065,1,0,0:0:0:0:
182,226,316242,1,0,0:0:0:0:
186,192,316418,1,0,0:0:0:0:
193,111,316595,5,0,0:0:0:0:
256,192,316683,12,0,320830,0:0:0:0:
