osu file format v14

[General]
AudioFilename: audio.mp3
AudioLeadIn: 0
PreviewTime: 43493
Countdown: 0
SampleSet: Soft
StackLeniency: 0.6
Mode: 0
LetterboxInBreaks: 0
WidescreenStoryboard: 0

[Editor]
Bookmarks: 62779,65522
DistanceSpacing: 0.5
BeatDivisor: 4
GridSize: 8
TimelineZoom: 1

[Metadata]
Title:Lonesong
TitleUnicode:Lonesong
Artist:Feint
ArtistUnicode:Feint
Creator:Naitsirk
Version:Winter Isolation
Source:
Tags:
BeatmapID:1730131
BeatmapSetID:825468

[Difficulty]
HPDrainRate:6
CircleSize:4
OverallDifficulty:8.5
ApproachRate:9.2
SliderMultiplier:1.8
SliderTickRate:1

[Events]
//Background and Video events
0,0,"lonesong.jpg",0,0
//Break Periods
2,41090,43063
//Storyboard Layer 0 (Background)
//Storyboard Layer 1 (Fail)
//Storyboard Layer 2 (Pass)
//Storyboard Layer 3 (Foreground)
//Storyboard Sound Samples

[TimingPoints]
1119,342.857142857143,4,2,0,20,1,0
21690,-133.333333333333,4,2,0,50,0,0
43633,-83.3333333333333,4,1,0,70,0,1
62833,-100,4,2,0,50,0,0
65576,-83.3333333333333,4,1,0,70,0,1
84776,-100,4,2,0,50,0,0

[Colours]
Combo1 : 87,102,234
Combo2 : 87,254,191
Combo3 : 54,247,252
Combo4 : 65,186,252

[HitObjects]
256,192,18947,12,0,21518,0:0:0:0:
139,55,21690,6,0,P|132:87|139:120,1,67.5000025749208
185,179,22033,2,0,P|247:199|310:177,1,135.000005149842
374,137,22547,1,0,0:0:0:0:
426,188,22718,2,0,L|422:255,1,67.5000025749208
417,329,23061,6,0,P|384:336|351:330,1,67.5000025749208
287,290,23404,2,0,P|254:283|221:289,1,67.5000025749208
160,339,23747,1,0,0:0:0:0:
102,291,23919,1,0,0:0:0:0:
102,291,24004,1,0,0:0:0:0:
102,291,24090,2,0,P|95:258|100:225,1,67.5000025749208
162,162,24433,6,0,P|100:138|38:163,2,135.000005149842
218,229,25290,1,0,0:0:0:0:
270,159,25461,2,0,P|275:125|268:93,1,67.5000025749208
362,148,25804,6,0,P|356:181|363:213,1,67.5000025749208
361,313,26147,2,0,P|335:291|303:281,1,67.5000025749208
218,229,26490,2,0,P|249:217|274:195,2,67.5000025749208
202,142,27004,1,0,0:0:0:0:
132,251,27176,6,0,P|169:305|233:320,2,135.000005149842
116,164,28033,1,0,0:0:0:0:
202,142,28204,2,0,P|207:108|200:76,1,67.5000025749208
290,108,28547,6,0,L|357:104,1,67.5000025749208
445,103,28890,1,0,0:0:0:0:
445,103,29061,1,0,0:0:0:0:
335,193,29233,2,0,L|402:189,2,67.5000025749208
297,272,29747,1,0,0:0:0:0:
231,212,29919,6,0,P|207:273|232:335,2,135.000005149842
269,133,30776,1,0,0:0:0:0:
202,71,30947,2,0,P|169:77|136:72,1,67.5000025749208
54,39,31290,6,0,L|58:106,1,67.5000025749208
130,156,31633,2,0,L|126:223,1,67.5000025749208
54,273,31976,2,0,L|58:340,2,67.5000025749208
23,190,32490,1,0,0:0:0:0:
125,223,32661,6,0,P|158:228|190:221,1,67.5000025749208
271,160,33004,2,0,L|262:294,1,135.000005149842
347,267,33519,1,0,0:0:0:0:
425,305,33690,2,0,L|421:238,1,67.5000025749208
452,155,34033,6,0,P|418:149|386:156,1,67.5000025749208
332,86,34376,2,0,P|299:93|266:87,1,67.5000025749208
186,48,34719,1,0,0:0:0:0:
196,134,34890,1,0,0:0:0:0:
196,134,34976,1,0,0:0:0:0:
196,134,35061,2,0,L|200:201,1,67.5000025749208
206,289,35404,6,0,P|269:308|329:281,2,135.000005149842
128,248,36261,1,0,0:0:0:0:
201,199,36433,2,0,P|206:165|199:133,1,67.5000025749208
160,55,36776,6,0,L|227:51,1,67.5000025749208
288,114,37119,2,0,L|355:110,1,67.5000025749208
416,173,37461,2,0,L|483:169,2,67.5000025749208
367,246,37976,1,0,0:0:0:0:
279,241,38147,6,0,L|144:232,2,135.000005149842
367,246,39004,1,0,0:0:0:0:
416,173,39176,2,0,P|421:139|414:107,1,67.5000025749208
328,88,39519,6,0,P|295:94|262:89,1,67.5000025749208
183,50,39861,1,0,0:0:0:0:
183,50,40033,1,0,0:0:0:0:
112,163,40204,2,0,L|108:96,2,67.5000025749208
117,250,40719,1,0,0:0:0:0:
183,50,40890,5,0,0:0:0:0:
183,50,43633,6,0,L|190:172,1,107.999996704102
198,309,43976,1,0,0:0:0:0:
232,329,44061,1,0,0:0:0:0:
272,336,44147,1,0,0:0:0:0:
312,329,44233,1,0,0:0:0:0:
347,310,44318,1,0,0:0:0:0:
404,169,44490,1,0,0:0:0:0:
263,113,44661,2,0,L|270:235,1,107.999996704102
351,93,45004,6,0,P|400:74|451:89,1,107.999996704102
452,309,45347,1,0,0:0:0:0:
404,169,45519,1,0,0:0:0:0:
404,169,45604,1,0,0:0:0:0:
404,169,45690,1,0,0:0:0:0:
269,220,45861,1,0,0:0:0:0:
221,80,46033,2,0,L|99:73,1,107.999996704102
70,271,46376,5,0,0:0:0:0:
269,220,46547,1,0,0:0:0:0:
113,73,46719,1,0,0:0:0:0:
195,284,46890,1,0,0:0:0:0:
228,306,46975,1,0,0:0:0:0:
268,313,47061,1,0,0:0:0:0:
307,304,47147,1,0,0:0:0:0:
339,280,47232,1,0,0:0:0:0:
265,119,47404,2,0,B|248:170|248:170|269:220,1,107.999996704102
450,49,47747,5,0,0:0:0:0:
471,330,47919,1,0,0:0:0:0:
471,330,48004,1,0,0:0:0:0:
471,330,48090,2,0,L|464:222,1,107.999996704102
355,46,48433,5,0,0:0:0:0:
375,330,48604,1,0,0:0:0:0:
375,330,48689,1,0,0:0:0:0:
375,330,48775,2,0,L|368:222,1,107.999996704102
221,80,49119,5,0,0:0:0:0:
408,134,49290,1,0,0:0:0:0:
170,246,49461,1,0,0:0:0:0:
368,222,49633,1,0,0:0:0:0:
368,222,49718,1,0,0:0:0:0:
368,222,49804,1,0,0:0:0:0:
102,132,49976,1,0,0:0:0:0:
272,236,50147,2,0,L|265:358,1,107.999996704102
209,125,50490,6,0,L|331:118,1,107.999996704102
512,198,50833,1,0,0:0:0:0:
272,236,51004,1,0,0:0:0:0:
272,236,51090,1,0,0:0:0:0:
272,236,51176,1,0,0:0:0:0:
462,81,51347,1,0,0:0:0:0:
474,321,51519,2,0,L|366:314,1,107.999996704102
62,298,51861,5,0,0:0:0:0:
272,236,52033,1,0,0:0:0:0:
48,186,52204,1,0,0:0:0:0:
270,128,52376,1,0,0:0:0:0:
308,134,52461,1,0,0:0:0:0:
342,155,52547,1,0,0:0:0:0:
365,188,52633,1,0,0:0:0:0:
374,228,52718,1,0,0:0:0:0:
265,343,52890,2,0,L|272:235,1,107.999996704102
287,44,53233,5,0,0:0:0:0:
108,236,53404,1,0,0:0:0:0:
108,236,53489,1,0,0:0:0:0:
108,236,53575,2,0,L|181:156,1,107.999996704102
287,44,53919,5,0,0:0:0:0:
25,34,54090,1,0,0:0:0:0:
25,34,54175,1,0,0:0:0:0:
25,34,54261,2,0,L|133:37,1,107.999996704102
236,282,54604,5,0,0:0:0:0:
302,89,54776,1,0,0:0:0:0:
322,354,54947,1,0,0:0:0:0:
388,161,55119,1,0,0:0:0:0:
388,161,55204,1,0,0:0:0:0:
388,161,55290,1,0,0:0:0:0:
236,282,55461,1,0,0:0:0:0:
194,86,55633,2,0,L|302:89,1,107.999996704102
448,255,55976,6,0,L|340:258,1,107.999996704102
122,264,56319,1,0,0:0:0:0:
287,180,56490,1,0,0:0:0:0:
287,180,56576,1,0,0:0:0:0:
287,180,56661,1,0,0:0:0:0:
49,189,56833,1,0,0:0:0:0:
238,258,57004,2,0,P|289:274|340:257,1,107.999996704102
417,75,57347,5,0,0:0:0:0:
287,180,57519,1,0,0:0:0:0:
512,107,57690,1,0,0:0:0:0:
270,79,57861,1,0,0:0:0:0:
230,74,57946,1,0,0:0:0:0:
190,70,58032,1,0,0:0:0:0:
150,65,58118,1,0,0:0:0:0:
110,61,58203,1,0,0:0:0:0:
170,270,58376,2,0,L|180:162,1,107.999996704102
15,281,58719,5,0,0:0:0:0:
277,260,58890,1,0,0:0:0:0:
277,260,58976,1,0,0:0:0:0:
277,260,59061,2,0,L|169:270,1,107.999996704102
25,173,59404,5,0,0:0:0:0:
287,152,59575,1,0,0:0:0:0:
287,152,59661,1,0,0:0:0:0:
287,152,59747,2,0,L|157:163,1,107.999996704102
377,216,60090,5,0,0:0:0:0:
228,48,60261,1,0,0:0:0:0:
169,269,60433,1,0,0:0:0:0:
350,93,60604,1,0,0:0:0:0:
350,93,60690,1,0,0:0:0:0:
350,93,60776,1,0,0:0:0:0:
123,136,60947,1,0,0:0:0:0:
292,300,61119,2,0,L|282:192,1,107.999996704102
139,30,61461,6,0,L|123:137,1,107.999996704102
90,346,61804,1,0,0:0:0:0:
282,192,61976,1,0,0:0:0:0:
282,192,62061,1,0,0:0:0:0:
282,192,62147,1,0,0:0:0:0:
3,246,62319,1,0,0:0:0:0:
292,300,62490,1,0,0:0:0:0:
11,146,62661,1,0,0:0:0:0:
11,146,62747,1,0,0:0:0:0:
11,146,62833,5,0,0:0:0:0:
181,119,63176,5,0,0:0:0:0:
165,225,63347,1,0,0:0:0:0:
11,146,63690,5,0,0:0:0:0:
58,242,63861,1,0,0:0:0:0:
82,69,64204,5,0,0:0:0:0:
165,225,64547,5,0,0:0:0:0:
251,285,64718,1,0,0:0:0:0:
333,221,64890,1,0,0:0:0:0:
246,124,65233,5,0,0:0:0:0:
246,124,65404,1,0,0:0:0:0:
165,225,65576,5,0,0:0:0:0:
333,221,65747,1,0,0:0:0:0:
239,21,65919,1,0,0:0:0:0:
251,285,66090,1,0,0:0:0:0:
251,285,66175,1,0,0:0:0:0:
251,285,66261,1,0,0:0:0:0:
342,113,66432,1,0,0:0:0:0:
114,134,66604,2,0,L|6:144,1,107.999996704102
251,285,66947,6,0,L|241:177,1,107.999996704102
434,54,67290,1,0,0:0:0:0:
367,289,67461,1,0,0:0:0:0:
367,289,67547,1,0,0:0:0:0:
367,289,67633,1,0,0:0:0:0:
233,89,67804,1,0,0:0:0:0:
443,236,67976,2,0,P|456:287|442:339,1,107.999996704102
341,112,68319,5,0,0:0:0:0:
244,298,68490,1,0,0:0:0:0:
443,98,68661,1,0,0:0:0:0:
233,89,68833,1,0,0:0:0:0:
192,88,68918,1,0,0:0:0:0:
152,86,69004,1,0,0:0:0:0:
111,85,69090,1,0,0:0:0:0:
71,83,69175,1,0,0:0:0:0:
46,239,69347,2,0,L|168:232,1,107.999996704102
253,33,69690,5,0,0:0:0:0:
244,298,69861,1,0,0:0:0:0:
244,298,69947,1,0,0:0:0:0:
244,298,70033,2,0,L|251:176,1,107.999996704102
360,26,70376,5,0,0:0:0:0:
351,291,70547,1,0,0:0:0:0:
351,291,70633,1,0,0:0:0:0:
351,291,70719,2,0,L|358:169,1,107.999996704102
163,105,71061,5,0,0:0:0:0:
357,183,71233,1,0,0:0:0:0:
95,242,71404,1,0,0:0:0:0:
260,144,71576,1,0,0:0:0:0:
260,144,71661,1,0,0:0:0:0:
260,144,71747,1,0,0:0:0:0:
175,329,71919,1,0,0:0:0:0:
55,111,72090,2,0,L|163:105,1,107.999996704102
357,183,72433,6,0,L|249:189,1,107.999996704102
14,205,72776,1,0,0:0:0:0:
175,329,72947,1,0,0:0:0:0:
175,329,73033,1,0,0:0:0:0:
175,329,73119,1,0,0:0:0:0:
163,105,73290,1,0,0:0:0:0:
365,324,73461,2,0,L|359:216,1,107.999996704102
351,32,73804,5,0,0:0:0:0:
166,208,73976,1,0,0:0:0:0:
426,109,74147,1,0,0:0:0:0:
163,105,74319,1,0,0:0:0:0:
123,112,74404,1,0,0:0:0:0:
90,134,74490,1,0,0:0:0:0:
69,169,74576,1,0,0:0:0:0:
64,209,74661,1,0,0:0:0:0:
257,318,74833,2,0,L|365:324,1,107.999996704102
264,146,75176,5,0,0:0:0:0:
512,164,75347,1,0,0:0:0:0:
512,164,75433,1,0,0:0:0:0:
512,164,75519,2,0,L|390:157,1,107.999996704102
263,50,75861,5,0,0:0:0:0:
511,68,76032,1,0,0:0:0:0:
511,68,76118,1,0,0:0:0:0:
511,68,76204,2,0,L|389:61,1,107.999996704102
134,43,76547,5,0,0:0:0:0:
267,201,76719,1,0,0:0:0:0:
403,61,76890,1,0,0:0:0:0:
133,142,77061,1,0,0:0:0:0:
133,142,77147,1,0,0:0:0:0:
133,142,77233,1,0,0:0:0:0:
269,2,77404,1,0,0:0:0:0:
402,160,77576,2,0,L|395:282,1,107.999996704102
144,344,77919,6,0,L|137:236,1,107.999996704102
273,93,78261,1,0,0:0:0:0:
259,318,78433,1,0,0:0:0:0:
259,318,78519,1,0,0:0:0:0:
259,318,78604,1,0,0:0:0:0:
53,175,78776,1,0,0:0:0:0:
273,93,78947,2,0,L|381:87,1,107.999996704102
151,28,79290,5,0,0:0:0:0:
137,236,79461,1,0,0:0:0:0:
20,76,79633,1,0,0:0:0:0:
273,93,79804,1,0,0:0:0:0:
275,133,79889,1,0,0:0:0:0:
277,173,79975,1,0,0:0:0:0:
279,214,80061,1,0,0:0:0:0:
281,254,80146,1,0,0:0:0:0:
483,162,80319,2,0,L|375:168,1,107.999996704102
167,184,80661,5,0,0:0:0:0:
378,303,80833,1,0,0:0:0:0:
378,303,80919,1,0,0:0:0:0:
378,303,81004,2,0,L|281:254,1,107.999996704102
167,184,81347,5,0,0:0:0:0:
364,43,81519,1,0,0:0:0:0:
364,43,81605,1,0,0:0:0:0:
364,43,81690,2,0,L|273:101,1,107.999996704102
38,252,82033,5,0,0:0:0:0:
145,31,82204,1,0,0:0:0:0:
262,250,82376,1,0,0:0:0:0:
28,119,82547,1,0,0:0:0:0:
28,119,82633,1,0,0:0:0:0:
28,119,82719,1,0,0:0:0:0:
272,101,82890,1,0,0:0:0:0:
141,311,83061,2,0,L|143:202,1,107.999996704102
368,43,83404,6,0,L|370:151,1,107.999996704102
376,344,83747,1,0,0:0:0:0:
272,101,83919,1,0,0:0:0:0:
272,101,84004,1,0,0:0:0:0:
272,101,84090,1,0,0:0:0:0:
492,281,84261,1,0,0:0:0:0:
143,203,84433,1,0,0:0:0:0:
491,154,84604,1,0,0:0:0:0:
491,154,84690,1,0,0:0:0:0:
491,154,84776,5,0,0:0:0:0:
105,82,85119,5,0,0:0:0:0:
143,203,85290,1,0,0:0:0:0:
310,88,85633,5,0,0:0:0:0:
268,207,85804,1,0,0:0:0:0:
209,85,86147,5,0,0:0:0:0:
202,325,86490,5,0,0:0:0:0:
143,203,86661,1,0,0:0:0:0:
268,207,86833,1,0,0:0:0:0:
209,85,87176,5,0,0:0:0:0:
209,85,87347,1,0,0:0:0:0:
202,325,87519,5,0,0:0:0:0:
