osu file format v14

[General]
AudioFilename: Lift.mp3
AudioLeadIn: 0
PreviewTime: 54411
Countdown: 0
SampleSet: Soft
StackLeniency: 0.7
Mode: 0
LetterboxInBreaks: 1
WidescreenStoryboard: 1

[Editor]
DistanceSpacing: 1
BeatDivisor: 2
GridSize: 8
TimelineZoom: 1

[Metadata]
Title:Lift
TitleUnicode:Lift
Artist:Feint
ArtistUnicode:Feint
Creator:AxE Galaxy
Version:Easy
Source:
Tags:
BeatmapID:891238
BeatmapSetID:410717

[Difficulty]
HPDrainRate:3
CircleSize:2.8
OverallDifficulty:3.5
ApproachRate:7
SliderMultiplier:0.93
SliderTickRate:2

[Events]
//Background and Video events
0,0,"pic.png",0,0
//Break Periods
//Storyboard Layer 0 (Background)
//Storyboard Layer 1 (Fail)
//Storyboard Layer 2 (Pass)
//Storyboard Layer 3 (Foreground)
//Storyboard Sound Samples

[TimingPoints]
258,307.692307692308,4,2,0,5,1,0

[Colours]
Combo1 : 0,128,255
Combo2 : 255,128,64
Combo3 : 255,0,0
Combo4 : 128,128,255

[HitObjects]
256,192,17488,12,0,19334,0:0:0:0:
336,240,19950,6,0,P|256:272|176:216,1,186
264,176,20873,1,0,0:0:0:0:
192,112,21181,2,0,P|272:80|352:136,1,186
352,224,22104,1,0,0:0:0:0:
256,216,22411,6,0,B|120:200|120:200|80:232,1,186
56,320,23334,1,0,0:0:0:0:
120,384,23642,2,0,B|144:344|144:344|144:296,1,93
81,230,24258,2,0,B|57:190|57:190|57:142,1,93
152,144,24873,38,0,B|200:152|240:128|240:128|336:160,1,186
384,232,25796,1,0,0:0:0:0:
338,312,26104,2,0,P|290:232|336:152,1,186
408,104,27027,1,0,0:0:0:0:
328,56,27334,6,0,L|184:40,2,139.5
408,16,28565,2,0,B|424:64|400:104|400:104|400:152|440:192,1,186
512,248,29488,1,0,0:0:0:0:
448,320,29796,38,0,P|360:344|304:280,1,186
320,192,30719,1,0,0:0:0:0:
320,192,31027,2,0,B|224:176|224:240|136:224,1,186
64,168,31950,1,0,0:0:0:0:
104,80,32258,6,0,P|136:48|184:40,1,93
264,88,32873,2,0,P|232:120|184:128,1,93
104,168,33488,2,0,B|128:208|128:208|218:223|218:223|256:256,1,186
176,304,34411,1,0,0:0:0:0:
256,344,34719,38,0,P|328:304|328:208,1,186
256,152,35642,1,0,0:0:0:0:
200,80,35950,2,0,B|216:40|255:9|255:9|296:40|319:81,1,186
352,168,36873,1,0,0:0:0:0:
256,192,37181,12,0,39027,0:0:0:0:
256,296,39642,5,0,0:0:0:0:
304,216,39950,1,0,0:0:0:0:
208,216,40258,1,0,0:0:0:0:
256,136,40565,1,0,0:0:0:0:
352,136,40873,1,0,0:0:0:0:
168,136,41488,1,0,0:0:0:0:
304,264,42104,38,0,B|392:280|392:280|448:264,2,139.5
208,264,43334,2,0,B|120:280|120:280|64:264,2,139.5
256,184,44565,5,0,0:0:0:0:
256,88,44873,1,0,0:0:0:0:
304,0,45181,1,0,0:0:0:0:
208,0,45488,1,0,0:0:0:0:
160,80,45796,1,0,0:0:0:0:
344,80,46411,1,0,0:0:0:0:
160,80,47027,38,0,B|144:120|144:120|200:208,1,139.5
256,328,47950,1,0,0:0:0:0:
352,304,48258,2,0,B|368:264|368:264|312:176,1,139.5
256,56,49181,1,0,0:0:0:0:
176,104,49488,6,0,P|208:136|256:144,1,93
336,104,50104,2,0,P|352:56|336:8,1,93
256,56,50719,2,0,L|256:200,2,139.5
176,104,51950,2,0,B|160:152|160:152|168:200,1,93
208,280,52565,1,0,0:0:0:0:
304,280,52873,1,0,0:0:0:0:
345,193,53181,2,0,B|352:152|352:152|336:104,1,93
256,56,53796,1,0,0:0:0:0:
256,152,54104,1,0,0:0:0:0:
224,240,54411,38,0,P|176:200|168:120,1,139.5
120,104,55027,2,0,L|24:120,1,93
48,208,55642,1,0,0:0:0:0:
136,320,56104,1,0,0:0:0:0:
184,320,56258,2,0,P|232:304|256:264,1,93
272,176,56873,2,0,L|304:80,1,93
392,88,57488,2,0,L|328:280,1,186
240,288,58411,1,0,0:0:0:0:
208,200,58719,1,0,0:0:0:0:
176,112,59027,1,0,0:0:0:0:
176,112,59334,38,0,L|272:88,1,93
304,112,59796,1,0,0:0:0:0:
328,152,59950,2,0,P|328:240|248:288,1,186
168,248,60873,1,0,0:0:0:0:
168,152,61181,2,0,P|216:160|248:200,1,93
288,272,61796,38,0,P|352:304|416:280,1,139.5
440,248,62411,1,0,0:0:0:0:
456,160,62719,1,0,0:0:0:0:
376,104,63027,2,0,L|264:96,1,93
280,192,63642,2,0,L|392:184,1,93
376,280,64258,6,0,L|256:272,1,93
240,280,64719,1,0,0:0:0:0:
208,248,64873,2,0,P|144:192|40:224,1,186
120,280,65796,1,0,0:0:0:0:
192,336,66104,2,0,P|240:336|280:304,1,93
312,224,66719,37,0,0:0:0:0:
184,176,67181,1,0,0:0:0:0:
200,136,67334,2,0,B|192:88|192:88|160:40,1,93
88,96,67950,2,0,B|48:120|48:120|24:168,1,93
112,208,68565,2,0,B|152:232|152:232|200:240,1,93
288,232,69181,6,0,P|344:192|352:120,1,139.5
328,88,69796,1,0,0:0:0:0:
248,136,70104,1,0,0:0:0:0:
200,216,70411,2,0,P|200:264|232:304,1,93
256,336,70873,2,0,L|112:352,1,139.5
40,304,71642,37,0,0:0:0:0:
88,224,71950,2,0,B|112:200|112:200|136:200|176:184,1,93
248,136,72565,1,0,0:0:0:0:
232,40,72873,2,0,P|192:56|160:104,1,93
169,186,73488,2,0,P|208:224|264:224,1,93
328,184,74104,6,0,L|368:320,1,139.5
336,352,74719,2,0,P|288:360|240:336,1,93
192,272,75334,1,0,0:0:0:0:
192,272,75642,2,0,L|96:264,1,93
80,176,76258,1,0,0:0:0:0:
80,176,76565,38,0,P|120:112|192:104,1,139.5
224,120,77181,2,0,L|320:104,1,93
400,136,77796,1,0,0:0:0:0:
432,224,78104,1,0,0:0:0:0:
368,288,78411,1,0,0:0:0:0:
272,280,78719,1,0,0:0:0:0:
256,192,79027,21,0,0:0:0:0:
