osu file format v14

[General]
AudioFilename: audio.mp3
AudioLeadIn: 0
PreviewTime: 66200
Countdown: 0
SampleSet: Soft
StackLeniency: 0.4
Mode: 0
LetterboxInBreaks: 0
WidescreenStoryboard: 1

[Editor]
Bookmarks: 22150,44132,66200,88269,110338
DistanceSpacing: 0.7
BeatDivisor: 4
GridSize: 16
TimelineZoom: 1.5

[Metadata]
Title:Laurence (VIP) (Cut Ver.)
TitleUnicode:Laurence (VIP) (Cut Ver.)
Artist:Feint
ArtistUnicode:Feint
Creator:Zer0-
Version:hypercyte's Expert
Source:
Tags:hypercute hypercyte drum n bass dnb remix melodic liquid electronic instrumental EDM: Every Day Matters Compilation
BeatmapID:2744579
BeatmapSetID:691328

[Difficulty]
HPDrainRate:6
CircleSize:4.4
OverallDifficulty:8.2
ApproachRate:9.2
SliderMultiplier:1.64
SliderTickRate:1

[Events]
//Background and Video events
0,0,"wubnbass.jpg",0,0
//Break Periods
2,38901,40200
//Storyboard Layer 0 (Background)
//Storyboard Layer 1 (Fail)
//Storyboard Layer 2 (Pass)
//Storyboard Layer 3 (Foreground)
//Storyboard Layer 4 (Overlay)
//Storyboard Sound Samples

[TimingPoints]
4219,344.827586206897,4,2,1,50,1,0
21805,-100,4,2,1,5,0,0
22150,-294.117647058824,4,2,1,25,0,0
24132,-294.117647058824,4,2,1,5,0,0
24219,-294.117647058824,4,2,1,25,0,0
26201,-294.117647058824,4,2,1,5,0,0
26287,-294.117647058824,4,2,1,25,0,0
28615,-294.117647058824,4,2,1,5,0,0
28701,-294.117647058824,4,2,1,25,0,0
43874,-100,4,2,1,5,0,0
44132,344.827586206897,4,2,1,50,1,0
44132,-100,4,2,1,50,0,0
63442,-333.333333333333,4,2,1,50,0,0
65856,-100,4,2,2,50,0,0
66200,-71.4285714285714,4,2,2,70,0,0

[Colours]
Combo1 : 223,244,199
Combo2 : 198,227,241

[HitObjects]
256,192,19391,12,0,21805,0:0:0:0:
122,110,22150,6,0,B|193:80|237:163|218:181|238:235|272:267|338:226|349:178|314:148,1,320.620001956909,2|0,0:0|0:0,0:0:0:0:
280,86,24219,2,0,P|420:36|410:157,1,320.620001956909,2|0,0:0|0:0,0:0:0:0:
355,203,26287,2,0,B|267:168|229:257|297:264|214:307|131:292|111:240|107:188|127:153|154:131|184:128,1,376.380002297241,2|0,0:0|0:0,0:0:0:0:
227,73,28701,5,2,0:0:0:0:
258,83,28874,1,2,0:0:0:0:
268,114,29046,1,2,0:0:0:0:
143,309,29736,1,2,0:0:0:0:
221,382,30425,1,2,0:0:0:0:
227,73,31460,5,2,0:0:0:0:
258,83,31633,1,2,0:0:0:0:
268,114,31805,1,2,0:0:0:0:
143,309,32494,1,2,0:0:0:0:
512,384,33183,1,2,0:0:0:0:
256,112,35943,5,2,0:0:0:0:
512,0,38701,1,2,0:0:0:0:
256,192,40770,12,0,43874,0:0:0:0:
131,118,44132,6,0,P|228:146|313:171,1,164,6|0,1:2|0:0,0:0:0:0:
113,114,44649,2,0,P|104:69|151:44,1,82,10|0,0:0|0:0,0:0:0:0:
217,36,44994,1,0,0:0:0:0:
313,253,45166,2,0,P|379:227|450:205,1,123,10|0,0:0|0:0,0:0:0:0:
443,217,45511,5,10,0:0:0:0:
387,57,45856,1,10,0:0:0:0:
217,36,46200,1,8,0:0:0:0:
86,208,46545,6,0,P|132:188|152:252,1,123,10|0,0:0|0:0,0:0:0:0:
167,244,46890,6,0,P|155:189|120:178,1,82,10|0,0:0|0:0,0:0:0:0:
133,375,47235,1,2,0:3:0:0:
61,350,47407,2,0,P|122:337|225:316,1,164,8|2,0:0|0:3,0:0:0:0:
279,182,47925,2,0,B|287:200|287:200|400:236,1,123,10|0,0:0|0:0,0:0:0:0:
388,243,48269,5,10,0:0:0:0:
359,85,48614,1,10,0:0:0:0:
207,29,48959,1,8,0:0:0:0:
70,98,49304,1,8,0:0:0:0:
203,43,49649,6,0,P|281:65|371:112,1,164,10|0,0:0|0:0,0:0:0:0:
186,48,50166,2,0,B|160:80|160:80|181:121,1,82,10|0,0:0|0:0,0:0:0:0:
257,89,50511,1,0,0:0:0:0:
470,29,50683,2,0,P|512:76|469:144,1,123,10|0,0:0|0:0,0:0:0:0:
483,125,51028,5,10,0:0:0:0:
257,89,51373,1,10,0:0:0:0:
113,183,51718,1,8,0:0:0:0:
75,351,52063,2,0,P|128:334|195:314,1,123,10|0,0:0|0:0,0:0:0:0:
69,343,52407,6,0,P|136:320|167:310,1,82,10|0,0:0|0:0,0:0:0:0:
340,367,52752,1,2,0:3:0:0:
394,305,52925,2,0,P|381:241|280:241,1,164,8|2,0:0|0:3,0:0:0:0:
480,358,53442,2,0,P|493:300|513:201,1,123,10|0,0:0|0:0,0:0:0:0:
505,227,53787,5,10,0:0:0:0:
326,97,54132,1,10,0:0:0:0:
177,216,54476,1,10,0:0:0:0:
7,137,54821,1,10,0:0:0:0:
343,198,55166,6,0,P|503:226|533:233,1,164,6|0,1:2|0:0,0:0:0:0:
328,185,55683,2,0,P|269:200|221:214,1,82,8|0,0:0|1:2,0:0:0:0:
383,267,56028,1,8,0:0:0:0:
156,131,56200,1,8,0:0:0:0:
108,193,56373,5,2,0:0:0:0:
125,209,56459,1,2,0:0:0:0:
149,211,56545,1,10,1:2:0:0:
266,118,56718,1,2,0:0:0:0:
400,141,56890,1,10,0:0:0:0:
466,258,57235,1,8,1:2:0:0:
404,365,57580,1,8,0:0:0:0:
174,264,57925,6,0,P|127:275|90:283,1,82,10|0,1:2|0:0,0:0:0:0:
201,110,58269,2,0,P|212:157|220:194,1,82,10|8,0:0|0:0,0:0:0:0:
334,304,58614,1,0,1:2:0:0:
434,275,58787,1,8,0:0:0:0:
407,168,58959,1,8,0:0:0:0:
138,350,59304,5,10,1:2:0:0:
71,189,59649,1,10,0:0:0:0:
182,40,59994,1,8,1:2:0:0:
379,61,60338,1,8,0:0:0:0:
475,292,60683,6,0,P|424:309|359:247,1,123,10|0,1:2|0:0,0:0:0:0:
366,261,61028,1,0,1:2:0:0:
483,168,61200,2,0,P|512:131|501:90,1,82,8|0,0:0|1:2,0:0:0:0:
396,44,61545,1,8,0:0:0:0:
121,158,61718,1,8,1:2:0:0:
72,83,61890,5,2,0:0:0:0:
91,68,61976,1,2,0:0:0:0:
115,70,62063,1,10,1:2:0:0:
229,144,62235,1,2,0:0:0:0:
202,271,62407,1,10,1:2:0:0:
335,362,62752,1,8,1:2:0:0:
462,292,63097,6,0,P|443:227|430:155,1,123,8|0,1:2|0:0,0:0:0:0:
454,304,63442,5,10,1:2:0:0:
492,376,63787,1,2,0:0:0:0:
289,307,64821,5,10,0:0:0:0:
251,379,65166,1,10,0:0:0:0:
65,201,65511,1,8,0:0:0:0:
73,303,65683,5,0,1:2:0:0:
90,274,65769,1,0,1:2:0:0:
124,269,65856,1,8,0:0:0:0:
0,278,66028,1,0,1:2:0:0:
289,307,66200,6,0,P|352:295|479:279,1,172.199994744873,6|0,1:2|0:0,0:0:0:0:
389,320,66545,1,8,0:0:0:0:
309,214,66718,2,0,B|288:178|310:129|352:113|380:149|412:124|434:59|381:20,1,229.599992993164,0|0,0:0|1:2,0:0:0:0:
424,241,67235,2,0,P|432:207|408:173,1,57.3999982482911,8|0,0:0|0:0,0:0:0:0:
302,108,67407,5,2,0:0:0:0:
267,102,67494,1,2,0:0:0:0:
236,117,67580,1,2,1:2:0:0:
136,219,67752,1,2,0:0:0:0:
163,352,67925,2,0,P|219:328|221:206,1,172.199994744873,10|0,0:0|0:0,0:0:0:0:
136,219,68269,2,0,P|139:279|220:300,1,114.799996496582,0|0,0:0|1:2,0:0:0:0:
374,269,68614,2,0,P|403:173|435:86,1,172.199994744873,8|0,0:0|0:0,0:0:0:0:
436,96,68959,6,0,P|491:125|474:188,1,114.799996496582,2|0,1:2|0:0,0:0:0:0:
272,242,69304,2,0,P|201:247|34:268,1,229.599992993164,10|0,0:0|0:0,0:0:0:0:
346,278,69821,1,0,1:2:0:0:
262,228,69994,2,0,P|274:148|328:139,1,114.799996496582,8|0,0:0|0:0,0:0:0:0:
509,11,70338,5,2,0:0:0:0:
473,86,70511,1,0,1:2:0:0:
478,275,70683,2,0,B|515:232|497:174|444:151|433:186|379:156|358:90|398:43,1,286.999991241455,10|0,0:0|0:0,0:0:0:0:
409,50,71200,5,0,1:2:0:0:
399,161,71373,1,8,0:0:0:0:
330,243,71545,1,0,0:0:0:0:
151,312,71718,6,0,P|87:262|97:180,1,172.199994744873,2|0,1:2|0:0,0:0:0:0:
60,270,72063,1,8,0:0:0:0:
329,242,72235,2,0,P|318:135|214:109,1,229.599992993164,0|0,0:0|1:2,0:0:0:0:
151,312,72752,2,0,P|176:328|208:325,1,57.3999982482911,8|0,0:0|0:0,0:0:0:0:
255,236,72925,5,2,0:0:0:0:
248,201,73011,1,2,0:0:0:0:
218,183,73097,1,2,1:2:0:0:
65,201,73269,1,2,0:0:0:0:
29,373,73442,6,0,P|110:382|150:311,1,172.199994744873,10|0,0:0|0:0,0:0:0:0:
37,286,73787,2,0,P|30:343|79:368,1,114.799996496582,0|0,0:0|1:2,0:0:0:0:
262,196,74132,2,0,B|319:190|336:247|315:256|346:305|408:286,1,172.199994744873,8|0,0:0|0:0,0:0:0:0:
400,287,74476,6,0,P|437:237|406:193,1,114.799996496582,2|0,1:2|0:0,0:0:0:0:
266,37,74821,2,0,B|200:9|165:66|178:86|138:144|72:109,1,229.599992993164,10|0,0:0|0:0,0:0:0:0:
304,160,75338,1,0,1:2:0:0:
381,169,75511,2,0,P|467:183|511:192,1,114.799996496582,8|0,0:0|0:0,0:0:0:0:
43,163,75856,5,10,0:0:0:0:
87,67,76028,1,0,1:2:0:0:
192,65,76200,1,2,1:2:0:0:
264,307,76373,5,8,0:0:0:0:
202,220,76545,1,0,1:2:0:0:
253,128,76717,1,0,1:2:0:0:
495,189,76890,5,8,0:0:0:0:
388,199,77062,1,0,1:2:0:0:
202,220,77235,6,0,P|107:232|5:248,1,172.199994744873,2|0,1:2|0:0,0:0:0:0:
103,203,77580,1,8,0:0:0:0:
214,334,77752,2,0,B|276:361|313:288|303:267|339:227|405:245,1,229.599992993164,0|0,0:0|1:2,0:0:0:0:
415,381,78269,2,0,P|397:369|390:334,1,57.3999982482911,8|0,0:0|0:0,0:0:0:0:
482,256,78442,5,2,0:0:0:0:
488,222,78528,1,2,0:0:0:0:
466,195,78614,1,2,1:2:0:0:
327,153,78787,1,2,0:0:0:0:
203,256,78959,6,0,P|190:323|274:363,1,172.199994744873,10|0,0:0|0:0,0:0:0:0:
296,281,79304,2,0,P|240:249|202:279,1,114.799996496582,0|0,0:0|1:2,0:0:0:0:
53,378,79649,2,0,P|39:301|18:172,1,172.199994744873,8|0,0:0|0:0,0:0:0:0:
22,195,79994,6,0,P|88:193|105:249,1,114.799996496582,2|0,1:2|0:0,0:0:0:0:
275,384,80338,2,0,P|365:351|364:208,1,229.599992993164,10|0,0:0|0:0,0:0:0:0:
207,327,80856,1,0,1:2:0:0:
256,266,81028,2,0,P|255:205|203:182,1,114.799996496582,8|0,0:0|0:0,0:0:0:0:
79,305,81373,5,2,0:0:0:0:
151,274,81545,1,0,1:2:0:0:
370,175,81718,2,0,B|323:141|267:164|249:219|285:227|260:283|196:310|149:272,1,286.999991241455,10|0,0:0|0:0,0:0:0:0:
158,262,82235,1,2,1:2:0:0:
253,204,82407,1,10,0:0:0:0:
271,88,82580,1,2,0:0:0:0:
132,3,82752,6,0,P|45:67|62:144,1,172.199994744873,2|0,1:2|0:0,0:0:0:0:
36,31,83097,1,8,0:0:0:0:
155,91,83269,2,0,P|242:82|393:67,1,229.599992993164,0|0,0:0|1:2,0:0:0:0:
272,6,83787,2,0,P|247:19|243:58,1,57.3999982482911,8|0,0:0|0:0,0:0:0:0:
367,152,83959,5,2,0:0:0:0:
382,182,84045,1,2,0:0:0:0:
370,214,84132,1,2,1:2:0:0:
247,292,84304,1,2,0:0:0:0:
90,206,84476,2,0,P|76:139|162:92,1,172.199994744873,10|0,0:0|0:0,0:0:0:0:
184,177,84821,2,0,P|146:213|90:184,1,114.799996496582,0|0,0:0|1:2,0:0:0:0:
316,52,85166,2,0,P|395:79|394:185,1,172.199994744873,8|0,0:0|0:0,0:0:0:0:
409,158,85511,6,0,P|362:177|323:126,1,114.799996496582,2|0,1:2|0:0,0:0:0:0:
154,4,85856,2,0,P|76:51|103:177,1,229.599992993164,10|0,0:0|0:0,0:0:0:0:
290,253,86373,1,0,1:2:0:0:
410,74,86545,2,0,P|487:110|468:222,1,172.199994744873,8|0,0:0|0:0,0:0:0:0:
494,189,86890,6,0,P|448:190|422:155,1,57.3999982482911,2|0,0:0|0:0,0:0:0:0:
305,72,87063,1,0,1:2:0:0:
265,68,87149,1,0,1:2:0:0:
246,103,87235,2,0,P|260:173|279:320,1,172.199994744873,10|0,0:0|0:0,0:0:0:0:
298,184,87580,5,0,0:0:0:0:
163,290,87752,1,0,1:2:0:0:
122,291,87838,1,0,1:2:0:0:
95,260,87925,1,8,0:0:0:0:
161,210,88097,1,0,1:2:0:0:
310,354,88269,6,0,P|430:326|490:314,1,172.199994744873,6|0,1:2|0:0,0:0:0:0:
413,357,88614,1,8,0:0:0:0:
474,236,88787,2,0,B|495:200|473:151|431:135|403:171|371:146|349:81|402:42,1,229.599992993164,2|0,0:0|1:2,0:0:0:0:
499,0,89304,2,0,P|522:55|468:95,1,114.799996496582,10|0,0:0|0:0,0:0:0:0:
274,36,89649,5,2,1:2:0:0:
158,43,89821,1,2,0:0:0:0:
35,97,89994,2,0,P|143:113|259:158,1,229.599992993164,10|0,0:0|0:0,0:0:0:0:
328,227,90511,1,0,1:2:0:0:
152,248,90683,2,0,P|65:269|16:288,1,114.799996496582,10|0,0:0|0:0,0:0:0:0:
345,330,91028,6,0,P|494:364|547:381,1,172.199994744873,2|0,1:2|0:0,0:0:0:0:
419,368,91373,1,8,0:0:0:0:
381,185,91545,1,2,0:0:0:0:
398,106,91718,1,2,0:0:0:0:
455,49,91890,1,2,1:2:0:0:
359,194,92063,2,0,P|247:180|136:173,1,172.199994744873,10|0,0:0|0:0,0:0:0:0:
262,151,92407,1,2,0:0:0:0:
262,151,92580,1,0,1:2:0:0:
184,340,92752,6,0,B|205:304|183:255|141:239|113:275|81:250|59:185|112:146,1,229.599992993164,10|0,0:0|0:0,0:0:0:0:
348,23,93269,1,2,1:2:0:0:
300,131,93442,1,10,0:0:0:0:
280,238,93614,1,2,0:0:0:0:
315,382,93787,6,0,P|309:267|279:192,1,172.199994744873,2|0,1:2|0:0,0:0:0:0:
345,300,94132,1,8,0:0:0:0:
157,343,94304,2,0,P|85:320|86:148,1,229.599992993164,2|0,0:0|1:2,0:0:0:0:
136,98,94821,2,0,P|216:133|213:164,1,114.799996496582,10|0,0:0|0:0,0:0:0:0:
271,363,95166,5,2,1:2:0:0:
362,299,95338,1,2,0:0:0:0:
463,270,95511,2,0,P|365:254|218:229,1,229.599992993164,10|0,0:0|0:0,0:0:0:0:
138,217,96028,1,0,1:2:0:0:
305,51,96200,2,0,P|360:81|347:156,1,114.799996496582,10|0,0:0|0:0,0:0:0:0:
92,382,96545,6,0,P|121:284|145:182,1,172.199994744873,2|0,1:2|0:0,0:0:0:0:
50,247,96890,2,0,P|2:172|110:81,1,229.599992993164,10|0,0:0|0:0,0:0:0:0:
309,114,97407,1,0,1:2:0:0:
355,182,97580,2,0,P|348:242|294:260,1,114.799996496582,8|0,0:0|0:0,0:0:0:0:
96,62,97925,5,10,0:0:0:0:
201,88,98097,1,0,1:2:0:0:
309,114,98269,1,2,1:2:0:0:
50,247,98442,5,8,0:0:0:0:
125,169,98614,1,0,1:2:0:0:
201,88,98786,1,0,1:2:0:0:
188,380,98959,5,8,0:0:0:0:
157,276,99131,1,0,1:2:0:0:
309,114,99304,6,0,P|395:139|400:228,1,172.199994744873,2|0,1:2|0:0,0:0:0:0:
413,127,99649,1,8,0:0:0:0:
252,198,99821,2,0,P|139:190|-14:182,1,229.599992993164,2|0,0:0|1:2,0:0:0:0:
125,350,100338,2,0,P|82:328|96:257,1,114.799996496582,10|0,0:0|0:0,0:0:0:0:
281,92,100683,5,2,1:2:0:0:
393,115,100856,1,2,0:0:0:0:
508,169,101028,2,0,P|421:229|436:341,1,229.599992993164,10|0,0:0|0:0,0:0:0:0:
512,370,101545,1,0,1:2:0:0:
434,181,101718,2,0,P|416:112|391:31,1,114.799996496582,10|0,0:0|0:0,0:0:0:0:
276,268,102063,6,0,B|258:261|258:261|109:296,1,172.199994744873,2|0,1:2|0:0,0:0:0:0:
197,314,102407,1,8,0:0:0:0:
221,159,102580,1,2,0:0:0:0:
189,85,102752,1,2,0:0:0:0:
113,56,102925,1,2,1:2:0:0:
235,174,103097,2,0,B|286:195|324:146|295:134|332:94|377:108,1,172.199994744873,10|0,0:0|0:0,0:0:0:0:
443,75,103442,2,0,B|464:94|464:94|444:127,1,57.3999982482911,2|0,0:0|0:0,0:0:0:0:
512,159,103614,1,0,1:2:0:0:
281,284,103787,6,0,P|192:261|21:233,1,229.599992993164,10|0,0:0|0:0,0:0:0:0:
195,296,104304,1,2,1:2:0:0:
301,210,104476,1,8,0:0:0:0:
425,179,104649,1,0,0:0:0:0:
186,144,104821,6,0,P|119:99|151:0,1,172.199994744873,2|0,1:2|0:0,0:0:0:0:
81,97,105166,1,8,0:0:0:0:
262,53,105338,2,0,B|330:68|330:68|383:80|350:87|412:99|412:99|487:118,1,229.599992993164,2|0,0:0|1:2,0:0:0:0:
322,161,105856,2,0,P|276:210|294:260,1,114.799996496582,10|0,0:0|0:0,0:0:0:0:
447,377,106200,5,2,1:2:0:0:
486,265,106373,1,2,0:0:0:0:
477,142,106545,2,0,P|445:76|296:-2,1,229.599992993164,10|0,0:0|0:0,0:0:0:0:
229,45,107063,1,0,1:2:0:0:
46,218,107235,2,0,P|118:139|208:118,1,172.199994744873,10|0,0:0|0:0,0:0:0:0:
177,119,107580,6,0,P|212:170|193:224,1,114.799996496582,2|0,1:2|0:0,0:0:0:0:
353,384,107925,2,0,P|371:265|398:87,1,286.999991241455,10|0,0:0|0:0,0:0:0:0:
410,88,108442,1,0,1:2:0:0:
472,219,108614,2,0,P|458:271|394:275,1,114.799996496582,10|0,0:0|0:0,0:0:0:0:
223,125,108959,6,0,P|185:132|143:136,1,57.3999982482911,2|0,0:0|0:0,0:0:0:0:
77,187,109132,1,0,1:2:0:0:
51,217,109218,1,0,1:2:0:0:
57,256,109304,2,0,P|126:249|247:250,1,172.199994744873,10|0,0:0|0:0,0:0:0:0:
165,281,109649,5,0,0:0:0:0:
223,125,109821,5,0,1:2:0:0:
218,85,109907,1,0,1:2:0:0:
194,52,109994,1,8,0:0:0:0:
104,4,110166,5,0,1:2:0:0:
0,0,110338,5,6,1:2:0:0:
