osu file format v14

[General]
AudioFilename: audio.mp3
AudioLeadIn: 0
PreviewTime: 66200
Countdown: 0
SampleSet: Soft
StackLeniency: 0.7
Mode: 0
LetterboxInBreaks: 0
WidescreenStoryboard: 0

[Editor]
Bookmarks: 22150,44132,66200,88269,110338
DistanceSpacing: 1.2
BeatDivisor: 4
GridSize: 4
TimelineZoom: 1.5

[Metadata]
Title:Laurence (VIP) (Cut Ver.)
TitleUnicode:Laurence (VIP) (Cut Ver.)
Artist:Feint
ArtistUnicode:Feint
Creator:Zer0-
Version:Insane
Source:
Tags:hypercute hypercyte drum n bass dnb remix melodic liquid electronic instrumental EDM: Every Day Matters Compilation
BeatmapID:1462996
BeatmapSetID:691328

[Difficulty]
HPDrainRate:5.5
CircleSize:4
OverallDifficulty:8
ApproachRate:9
SliderMultiplier:1.4
SliderTickRate:1

[Events]
//Background and Video events
0,0,"wubnbass.jpg",0,0
//Break Periods
//Storyboard Layer 0 (Background)
//Storyboard Layer 1 (Fail)
//Storyboard Layer 2 (Pass)
//Storyboard Layer 3 (Foreground)
//Storyboard Layer 4 (Overlay)
//Storyboard Sound Samples

[TimingPoints]
4219,344.827586206897,4,2,1,50,1,0
21805,-100,4,2,1,5,0,0
22150,-250,4,2,1,25,0,0
43874,-100,4,2,1,5,0,0
44132,344.827586206897,4,2,1,50,1,0
44132,-100,4,2,1,50,0,0
65856,-100,4,2,2,50,0,0
66200,-83.3333333333333,4,2,2,70,0,0

[Colours]
Combo1 : 223,244,199
Combo2 : 198,227,241

[HitObjects]
256,192,19391,12,0,21805,0:0:0:0:
353,147,22150,6,0,B|325:124|317:79|366:37|423:44|483:101|451:201|399:229,1,308,2|0,0:0|0:0,0:0:0:0:
293,270,24219,6,0,B|153:307|152:146|5:202,1,308,2|0,0:0|0:0,0:0:0:0:
26,353,26287,6,0,P|105:316|22:290,1,224,2|0,0:0|0:0,0:0:0:0:
23,290,28701,5,2,0:0:0:0:
18,279,28874,1,2,0:0:0:0:
13,268,29046,1,2,0:0:0:0:
67,176,29736,1,2,0:0:0:0:
13,84,30425,1,2,0:0:0:0:
13,84,31460,5,2,0:0:0:0:
24,89,31633,1,2,0:0:0:0:
35,94,31805,1,2,0:0:0:0:
127,40,32494,1,2,0:0:0:0:
219,94,33183,1,2,0:0:0:0:
219,94,35943,6,0,B|179:106|135:29|198:-49|345:-14|332:91|322:194|460:173,1,420,2|0,0:0|0:0,0:0:0:0:
506,86,38701,6,0,P|465:6|431:89,1,224,2|0,0:0|0:0,0:0:0:0:
256,192,40770,12,0,43874,0:0:0:0:
111,165,44132,6,0,P|126:98|95:37,1,140,6|0,1:2|0:0,0:0:0:0:
195,301,44649,2,0,P|179:234|210:173,1,140,10|0,0:0|0:0,0:0:0:0:
281,246,45167,6,0,P|342:277|408:261,2,140,10|10|10,0:0|0:0|0:0,0:0:0:0:
354,173,46201,1,8,0:0:0:0:
369,155,46546,1,10,0:0:0:0:
281,246,46890,6,0,L|211:248,1,70,10|0,0:0|0:0,0:0:0:0:
119,184,47236,1,2,0:3:0:0:
119,184,47408,1,8,0:0:0:0:
215,140,47753,1,2,0:3:0:0:
215,140,47925,2,0,P|227:107|223:72,1,70,10|0,0:0|0:0,0:0:0:0:
211,248,48270,6,0,P|233:274|265:287,1,70,10|0,0:0|0:0,0:0:0:0:
136,206,48615,2,0,P|124:238|128:273,1,70,10|0,0:0|0:0,0:0:0:0:
61,154,48960,1,8,0:0:0:0:
61,154,49132,2,0,P|68:86|34:27,1,140,2|0,0:0|0:0,0:0:0:0:
149,111,49650,6,0,P|212:137|279:121,1,140,10|0,0:0|0:0,0:0:0:0:
135,205,50167,2,0,P|68:188|5:216,1,140,10|0,0:0|0:0,0:0:0:0:
194,272,50684,6,0,P|166:208|183:141,2,140,10|10|10,0:0|0:0|0:0,0:0:0:0:
280,197,51719,1,8,0:0:0:0:
303,192,52063,1,10,0:0:0:0:
194,272,52408,6,0,L|191:341,1,70,10|0,0:0|0:0,0:0:0:0:
276,278,52753,1,2,0:3:0:0:
276,278,52925,1,8,0:0:0:0:
183,141,53270,1,2,0:3:0:0:
183,141,53443,2,0,P|149:135|115:140,1,70,10|0,0:0|0:0,0:0:0:0:
280,197,53787,6,0,P|314:203|348:198,1,70,10|0,0:0|0:0,0:0:0:0:
408,279,54132,2,0,P|430:252|443:220,1,70,10|0,0:0|0:0,0:0:0:0:
446,129,54477,2,0,P|387:96|321:113,1,140,10|10,0:0|0:0,0:0:0:0:
369,315,55166,6,0,P|346:250|376:188,1,140,6|0,1:2|0:0,0:0:0:0:
442,258,55684,1,8,0:0:0:0:
442,258,55856,2,0,L|456:327,1,70,0|8,1:2|0:0,0:0:0:0:
495,186,56201,2,0,L|509:117,1,70,8|2,0:0|0:0,0:0:0:0:
367,44,56546,5,10,1:2:0:0:
394,114,56719,1,2,0:0:0:0:
375,188,56891,2,0,P|341:194|307:189,1,70,10|0,0:0|0:0,0:0:0:0:
176,133,57236,2,0,P|210:126|244:131,1,70,8|0,1:2|0:0,0:0:0:0:
244,248,57581,2,0,P|209:254|175:249,1,70,8|0,0:0|0:0,0:0:0:0:
176,133,57925,6,0,P|185:65|143:11,1,140,10|10,1:2|0:0,0:0:0:0:
97,91,58443,1,8,0:0:0:0:
97,91,58615,2,0,L|27:103,1,70,0|8,1:2|0:0,0:0:0:0:
176,133,58960,2,0,L|246:145,1,70,8|0,0:0|0:0,0:0:0:0:
88,200,59304,5,10,1:2:0:0:
301,55,59649,1,10,0:0:0:0:
219,365,59994,1,8,1:2:0:0:
432,220,60339,1,8,0:0:0:0:
18,278,60684,6,0,P|82:301|148:283,1,140,10|0,1:2|1:2,0:0:0:0:
211,217,61201,1,8,0:0:0:0:
211,217,61373,2,0,P|233:243|240:277,1,70,0|8,1:2|0:0,0:0:0:0:
330,129,61718,2,0,P|307:156|301:190,1,70,8|2,1:2|0:0,0:0:0:0:
386,192,62063,5,10,1:2:0:0:
301,52,62236,1,2,0:0:0:0:
179,142,62408,2,0,L|109:146,1,70,10|0,1:2|0:0,0:0:0:0:
280,221,62753,2,0,L|210:216,1,70,8|0,1:2|0:0,0:0:0:0:
381,142,63098,2,0,L|311:146,1,70,8|0,1:2|0:0,0:0:0:0:
446,336,63442,6,0,P|425:270|458:210,1,140,10|2,1:2|0:0,0:0:0:0:
446,336,63960,1,8,0:0:0:0:
446,336,64305,1,8,0:0:0:0:
354,321,64477,1,8,0:0:0:0:
446,336,64822,5,10,0:0:0:0:
381,142,65167,1,10,0:0:0:0:
246,296,65511,2,0,L|202:290,1,35,8|0,0:0|0:0,0:0:0:0:
122,278,65684,1,0,1:2:0:0:
122,278,65770,1,0,1:2:0:0:
122,278,65856,1,8,0:0:0:0:
308,222,66028,1,0,1:2:0:0:
98,176,66201,6,0,P|32:224|24:305,1,167.999994873047,6|8,1:2|0:0,0:0:0:0:
46,105,66719,2,0,P|29:66|27:25,1,83.9999974365235
122,278,67063,1,0,1:2:0:0:
133,94,67236,2,0,L|216:102,1,83.9999974365235,8|2,0:0|0:0,0:0:0:0:
223,112,67494,1,2,0:0:0:0:
230,122,67581,5,2,1:2:0:0:
306,241,67752,1,2,0:0:0:0:
372,115,67925,2,0,P|379:74|373:33,1,83.9999974365235,10|0,0:0|0:0,0:0:0:0:
230,122,68270,1,0,0:0:0:0:
401,211,68443,1,0,1:2:0:0:
207,295,68615,2,0,P|145:281|84:290,1,125.999996154785,8|0,0:0|0:0,0:0:0:0:
59,301,68960,6,0,L|62:211,1,83.9999974365235,2|0,1:2|0:0,0:0:0:0:
21,105,69304,2,0,B|63:89|106:105|106:105|148:122|185:106,1,167.999994873047,10|0,0:0|0:0,0:0:0:0:
149,27,69822,1,0,1:2:0:0:
214,185,69994,2,0,P|220:226|209:266,1,83.9999974365235,8|0,0:0|0:0,0:0:0:0:
111,307,70339,6,0,P|104:265|115:225,1,83.9999974365235,2|0,0:0|1:2,0:0:0:0:
269,123,70684,2,0,L|447:126,1,167.999994873047,10|0,0:0|0:0,0:0:0:0:
485,42,71201,1,0,1:2:0:0:
379,212,71374,2,0,P|350:267|359:328,1,125.999996154785,8|0,0:0|0:0,0:0:0:0:
368,347,71719,6,0,P|289:329|220:374,1,167.999994873047,2|8,1:2|0:0,0:0:0:0:
255,250,72236,2,0,P|266:209|260:168,1,83.9999974365235
175,201,72581,1,0,1:2:0:0:
317,100,72752,2,0,L|400:111,1,83.9999974365235,8|2,0:0|0:0,0:0:0:0:
408,120,73012,1,2,0:0:0:0:
415,130,73098,5,2,1:2:0:0:
357,12,73269,1,2,0:0:0:0:
260,168,73442,2,0,P|219:176|177:170,1,83.9999974365235,10|0,0:0|0:0,0:0:0:0:
72,120,73788,1,0,0:0:0:0:
217,71,73960,1,0,1:2:0:0:
117,242,74132,2,0,L|107:367,1,125.999996154785,8|0,0:0|0:0,0:0:0:0:
126,365,74477,6,0,P|166:354|206:363,1,83.9999974365235,2|0,1:2|0:0,0:0:0:0:
322,384,74822,2,0,P|295:306|328:231,1,167.999994873047,10|0,0:0|0:0,0:0:0:0:
403,312,75339,1,0,1:2:0:0:
243,196,75512,2,0,P|262:136|251:75,1,125.999996154785,8|0,0:0|0:0,0:0:0:0:
242,66,75856,5,10,0:0:0:0:
75,169,76029,1,0,1:2:0:0:
115,70,76201,1,2,1:2:0:0:
133,267,76374,1,8,0:0:0:0:
0,114,76546,1,0,1:2:0:0:
0,248,76719,1,0,1:2:0:0:
176,149,76891,1,8,0:0:0:0:
46,350,77063,1,0,1:2:0:0:
286,363,77236,6,0,L|459:363,1,167.999994873047,2|8,1:2|0:0,0:0:0:0:
286,279,77753,2,0,P|254:252|236:214,1,83.9999974365235
331,192,78098,1,0,1:2:0:0:
163,97,78269,2,0,P|155:138|131:171,1,83.9999974365235,8|2,0:0|0:0,0:0:0:0:
122,180,78529,1,2,0:0:0:0:
110,186,78615,5,2,1:2:0:0:
107,34,78788,1,2,0:0:0:0:
265,122,78960,2,0,P|305:130|346:121,1,83.9999974365235,10|0,0:0|0:0,0:0:0:0:
436,37,79305,1,0,0:0:0:0:
305,20,79477,1,0,1:2:0:0:
419,313,79650,2,0,P|414:251|448:199,1,125.999996154785,8|0,0:0|0:0,0:0:0:0:
465,188,79994,6,0,L|381:195,1,83.9999974365235,2|0,1:2|0:0,0:0:0:0:
233,258,80339,2,0,B|218:216|234:173|234:173|251:129|238:93,1,167.999994873047,10|0,0:0|0:0,0:0:0:0:
150,121,80856,1,0,1:2:0:0:
318,46,81029,2,0,P|292:13|253:0,1,83.9999974365235,8|0,0:0|0:0,0:0:0:0:
149,120,81374,6,0,P|142:79|158:41,1,83.9999974365235,2|0,0:0|1:2,0:0:0:0:
114,210,81719,2,0,P|139:287|102:360,1,167.999994873047,10|0,0:0|0:0,0:0:0:0:
36,276,82236,1,0,1:2:0:0:
214,344,82408,2,0,L|343:346,1,125.999996154785,8|0,0:0|0:0,0:0:0:0:
351,351,82753,6,0,P|318:276|361:198,1,167.999994873047,2|8,1:2|0:0,0:0:0:0:
441,117,83270,2,0,P|400:124|359:110,1,83.9999974365235
407,38,83615,1,0,1:2:0:0:
496,182,83788,2,0,L|487:265,1,83.9999974365235,8|2,0:0|0:0,0:0:0:0:
487,278,84046,1,2,0:0:0:0:
487,290,84132,5,2,1:2:0:0:
353,203,84305,1,2,0:0:0:0:
211,279,84477,2,0,P|226:241|221:192,1,83.9999974365235,10|0,0:0|0:0,0:0:0:0:
180,80,84822,1,0,0:0:0:0:
310,104,84994,1,0,1:2:0:0:
138,224,85167,2,0,P|75:224|24:259,1,125.999996154785,8|0,0:0|0:0,0:0:0:0:
11,268,85512,6,0,L|13:184,1,83.9999974365235,2|0,1:2|0:0,0:0:0:0:
180,80,85856,2,0,P|101:99|37:48,1,167.999994873047,10|0,0:0|0:0,0:0:0:0:
122,12,86374,1,0,1:2:0:0:
204,162,86546,2,0,P|215:202|205:242,1,83.9999974365235,8|0,0:0|0:0,0:0:0:0:
83,335,86891,6,0,P|71:294|81:254,1,83.9999974365235,2|0,0:0|1:2,0:0:0:0:
88,244,87150,1,0,1:2:0:0:
97,235,87236,2,0,B|114:195|100:153|100:153|81:105|96:70,1,167.999994873047,10|0,0:0|0:0,0:0:0:0:
17,195,87753,1,0,1:2:0:0:
10,205,87839,1,0,1:2:0:0:
2,215,87925,1,8,0:0:0:0:
178,107,88098,1,0,1:2:0:0:
206,332,88270,6,0,P|183:254|222:182,1,167.999994873047,6|8,1:2|0:0,0:0:0:0:
368,270,88788,2,0,P|327:276|286:266,1,83.9999974365235,2|0,0:0|0:0,0:0:0:0:
447,211,89132,1,0,1:2:0:0:
447,337,89305,2,0,L|447:211,1,125.999996154785,10|0,0:0|0:0,0:0:0:0:
444,196,89650,6,0,P|405:183|364:191,1,83.9999974365235,2|0,1:2|0:0,0:0:0:0:
206,260,89994,2,0,P|245:273|286:265,1,83.9999974365235,10|0,0:0|0:0,0:0:0:0:
256,180,90339,1,0,0:0:0:0:
114,209,90512,1,0,1:2:0:0:
168,358,90684,2,0,P|115:325|55:337,1,125.999996154785,10|0,0:0|0:0,0:0:0:0:
39,347,91029,6,0,L|37:253,1,83.9999974365235,2|0,1:2|0:0,0:0:0:0:
117,41,91374,2,0,L|113:208,1,167.999994873047,8|0,0:0|0:0,0:0:0:0:
37,263,91891,1,0,1:2:0:0:
198,153,92063,2,0,P|239:145|279:157,1,83.9999974365235,10|0,0:0|0:0,0:0:0:0:
211,313,92407,6,0,P|231:276|233:234,1,83.9999974365235,2|0,0:0|1:2,0:0:0:0:
341,375,92753,2,0,P|316:299|362:227,1,167.999994873047,10|0,0:0|0:0,0:0:0:0:
409,311,93270,1,2,1:2:0:0:
400,155,93443,1,8,0:0:0:0:
359,228,93615,1,0,0:0:0:0:
491,197,93787,6,0,B|506:159|491:113|491:113|476:67|495:26,1,167.999994873047,2|8,1:2|0:0,0:0:0:0:
400,155,94305,2,0,P|358:155|319:138,1,83.9999974365235,2|0,0:0|0:0,0:0:0:0:
380,67,94650,1,0,1:2:0:0:
267,214,94822,2,0,P|250:252|250:293,1,83.9999974365235,10|0,0:0|0:0,0:0:0:0:
280,380,95167,5,2,1:2:0:0:
163,308,95339,1,0,0:0:0:0:
337,272,95512,2,0,P|378:264|420:270,1,83.9999974365235,10|0,0:0|0:0,0:0:0:0:
163,308,95856,1,0,0:0:0:0:
267,214,96029,1,0,1:2:0:0:
85,253,96200,2,0,P|44:244|2:250,1,83.9999974365235,10|0,0:0|0:0,0:0:0:0:
130,173,96545,6,0,P|190:192|250:176,1,125.999996154785,2|0,1:2|0:0,0:0:0:0:
265,169,96890,2,0,P|235:93|270:15,1,167.999994873047,10|0,0:0|0:0,0:0:0:0:
350,96,97408,1,0,1:2:0:0:
148,69,97581,2,0,P|86:72|44:116,1,125.999996154785,8|0,0:0|0:0,0:0:0:0:
36,130,97925,5,10,0:0:0:0:
158,234,98098,1,0,1:2:0:0:
121,150,98270,1,2,1:2:0:0:
70,328,98443,1,8,0:0:0:0:
247,304,98615,1,0,1:2:0:0:
171,359,98788,1,0,1:2:0:0:
262,198,98960,1,8,0:0:0:0:
355,357,99132,1,0,1:2:0:0:
447,197,99305,6,0,B|461:162|448:113|448:113|432:69|449:20,1,167.999994873047,2|8,1:2|0:0,0:0:0:0:
352,91,99822,2,0,P|311:99|269:87,1,83.9999974365235,2|0,0:0|0:0,0:0:0:0:
314,8,100167,1,0,1:2:0:0:
370,171,100339,2,0,L|361:254,1,83.9999974365235,10|0,0:0|0:0,0:0:0:0:
453,368,100683,6,0,L|444:284,1,83.9999974365235,2|0,1:2|0:0,0:0:0:0:
192,327,101029,2,0,L|359:344,1,167.999994873047,10|0,0:0|0:0,0:0:0:0:
444,284,101546,1,0,1:2:0:0:
285,221,101719,2,0,P|280:180|294:141,1,83.9999974365235,10|0,0:0|0:0,0:0:0:0:
192,196,102063,6,0,P|158:221|117:229,1,83.9999974365235,2|0,1:2|0:0,0:0:0:0:
120,133,102408,2,0,P|122:77|30:17,1,167.999994873047,8|0,0:0|0:0,0:0:0:0:
40,103,102925,1,0,1:2:0:0:
199,52,103098,2,0,P|259:71|320:56,1,125.999996154785,10|0,0:0|0:0,0:0:0:0:
335,48,103443,5,2,0:0:0:0:
475,83,103615,1,0,1:2:0:0:
373,186,103788,2,0,P|356:265|407:329,1,167.999994873047,10|0,0:0|0:0,0:0:0:0:
450,244,104305,1,2,1:2:0:0:
278,307,104477,2,0,P|217:299|171:339,1,125.999996154785,8|0,0:0|0:0,0:0:0:0:
162,352,104822,6,0,L|163:184,1,167.999994873047,2|8,1:2|0:0,0:0:0:0:
78,250,105339,2,0,P|36:253|0:235,1,83.9999974365235,2|0,0:0|0:0,0:0:0:0:
57,167,105684,1,0,1:2:0:0:
247,264,105856,2,0,L|350:262,1,83.9999974365235,10|0,0:0|0:0,0:0:0:0:
213,168,106201,5,2,1:2:0:0:
163,286,106374,1,0,0:0:0:0:
303,185,106546,2,0,P|285:105|212:70,1,167.999994873047,10|0,0:0|0:0,0:0:0:0:
213,168,107063,1,0,1:2:0:0:
386,200,107236,2,0,L|511:194,1,125.999996154785,10|0,0:0|0:0,0:0:0:0:
502,210,107581,6,0,P|510:251|503:292,1,83.9999974365235,2|0,1:2|0:0,0:0:0:0:
373,180,107925,2,0,P|368:99|421:36,1,167.999994873047,10|0,0:0|0:0,0:0:0:0:
462,132,108443,1,0,1:2:0:0:
294,229,108615,2,0,P|280:267|286:309,1,83.9999974365235,10|0,0:0|0:0,0:0:0:0:
368,280,108960,5,2,0:0:0:0:
206,198,109132,1,0,1:2:0:0:
193,201,109219,1,0,1:2:0:0:
180,205,109305,2,0,B|164:166|181:123|181:123|197:86|182:40,1,167.999994873047,10|0,0:0|0:0,0:0:0:0:
105,82,109822,1,0,1:2:0:0:
105,82,109908,1,0,1:2:0:0:
105,82,109994,1,8,0:0:0:0:
271,171,110166,1,0,1:2:0:0:
46,248,110338,5,6,1:2:0:0:
