osu file format v14

[General]
AudioFilename: audio.mp3
AudioLeadIn: 0
PreviewTime: 66200
Countdown: 0
SampleSet: Soft
StackLeniency: 0.7
Mode: 0
LetterboxInBreaks: 0
WidescreenStoryboard: 1

[Editor]
Bookmarks: 22150,44132,66200,88269,110338
DistanceSpacing: 0.7
BeatDivisor: 4
GridSize: 4
TimelineZoom: 1.5

[Metadata]
Title:Laurence (VIP) (Cut Ver.)
TitleUnicode:Laurence (VIP) (Cut Ver.)
Artist:Feint
ArtistUnicode:Feint
Creator:Zer0-
Version:Hard
Source:
Tags:hypercute hypercyte drum n bass dnb remix melodic liquid electronic instrumental EDM: Every Day Matters Compilation
BeatmapID:2743813
BeatmapSetID:691328

[Difficulty]
HPDrainRate:5
CircleSize:3.7
OverallDifficulty:6.5
ApproachRate:7.5
SliderMultiplier:1.3
SliderTickRate:1

[Events]
//Background and Video events
0,0,"wubnbass.jpg",0,0
//Break Periods
//Storyboard Layer 0 (Background)
//Storyboard Layer 1 (Fail)
//Storyboard Layer 2 (Pass)
//Storyboard Layer 3 (Foreground)
//Storyboard Layer 4 (Overlay)
//Storyboard Sound Samples

[TimingPoints]
4219,344.827586206897,4,2,1,50,1,0
21805,-250,4,2,1,5,0,0
22150,-250,4,2,1,25,0,0
43874,-100,4,2,1,5,0,0
44132,344.827586206897,4,2,1,50,1,0
44132,-100,4,2,1,50,0,0
65856,-100,4,2,2,50,0,0
66200,-100,4,2,2,70,0,0

[Colours]
Combo1 : 223,244,199
Combo2 : 198,227,241

[HitObjects]
333,78,22150,6,0,P|287:102|408:153,2,312,2|2|2,0:0|0:0|0:0,0:0:0:0:
333,78,28701,6,0,L|338:49,2,26,2|2|2,0:0|0:0|0:0,0:0:0:0:
313,155,29736,1,2,0:0:0:0:
292,232,30425,1,2,0:0:0:0:
292,232,31460,6,0,L|320:237,2,26,2|2|2,0:0|0:0|0:0,0:0:0:0:
215,212,32495,1,2,0:0:0:0:
138,191,33184,1,2,0:0:0:0:
138,191,35943,6,0,P|116:79|223:179,1,364,2|0,0:0|0:0,0:0:0:0:
298,227,38701,6,0,P|310:307|350:236,1,208,2|0,0:0|0:0,0:0:0:0:
256,192,40770,12,0,43529,0:0:0:0:
401,112,44132,6,0,P|347:145|283:141,1,130,6|0,1:2|0:0,0:0:0:0:
215,180,44649,2,0,P|160:146|96:150,1,130,10|0,0:0|0:0,0:0:0:0:
19,162,45166,2,0,B|23:215|23:215|37:239|37:239|43:297,2,130,10|10|10,0:0|0:0|0:0,0:0:0:0:
19,162,46200,1,8,0:0:0:0:
19,162,46545,1,10,0:0:0:0:
155,87,46890,6,0,P|209:123|273:128,1,130,10|2,0:0|0:3,0:0:0:0:
316,193,47407,2,0,P|369:157|433:152,1,130,8|2,0:0|0:3,0:0:0:0:
489,207,47925,2,0,P|488:239|473:267,1,65,10|0,0:0|0:0,0:0:0:0:
413,317,48269,2,0,P|385:333|352:333,1,65,10|0,0:0|0:0,0:0:0:0:
278,304,48614,2,0,P|215:297|162:331,1,130,10|8,0:0|0:0,0:0:0:0:
83,329,49132,2,0,P|70:300|72:264,1,65,2|0,0:0|0:0,0:0:0:0:
103,196,49476,1,0,0:0:0:0:
103,196,49649,6,0,B|99:145|99:145|87:127|87:127|80:70,1,130,10|0,0:0|0:0,0:0:0:0:
140,19,50166,2,0,P|198:46|261:37,1,130,10|0,0:0|0:0,0:0:0:0:
325,82,50683,2,0,B|417:60|417:60|447:78,2,130,10|10|10,0:0|0:0|0:0,0:0:0:0:
325,82,51718,1,8,0:0:0:0:
325,82,52063,1,10,0:0:0:0:
184,148,52407,6,0,B|158:196|158:196|183:266,1,130,10|2,0:0|0:3,0:0:0:0:
255,299,52925,2,0,B|303:273|303:273|373:298,1,130,8|2,0:0|0:3,0:0:0:0:
441,339,53442,1,10,0:0:0:0:
489,190,53787,1,10,0:0:0:0:
368,90,54132,1,10,0:0:0:0:
222,145,54476,1,10,0:0:0:0:
84,70,54821,1,10,0:0:0:0:
11,208,55166,6,0,P|77:206|121:256,1,130,6|0,1:2|0:0,0:0:0:0:
91,324,55683,1,8,0:0:0:0:
91,324,55856,2,0,P|63:310|45:283,1,65,0|8,1:2|0:0,0:0:0:0:
11,208,56200,2,0,P|9:175|23:147,1,65,8|2,0:0|0:0,0:0:0:0:
78,91,56545,1,10,1:2:0:0:
78,91,56718,1,2,0:0:0:0:
143,132,56890,2,0,L|269:103,1,130,10|8,0:0|1:2,0:0:0:0:
269,103,57580,2,0,L|332:88,1,65,8|0,0:0|0:0,0:0:0:0:
408,72,57925,6,0,P|408:105|394:134,1,65,10|0,1:2|0:0,0:0:0:0:
344,193,58269,2,0,L|370:327,1,130,10|0,0:0|1:2,0:0:0:0:
298,355,58787,1,8,0:0:0:0:
298,355,58959,2,0,P|266:357|236:346,1,65,8|0,0:0|0:0,0:0:0:0:
156,355,59304,2,0,P|124:353|94:364,1,65,10|0,1:2|0:0,0:0:0:0:
21,332,59649,2,0,L|28:191,1,130,10|8,0:0|1:2,0:0:0:0:
100,173,60166,2,0,L|96:102,1,65,0|8,0:0|0:0,0:0:0:0:
55,41,60511,1,0,0:0:0:0:
55,41,60683,6,0,P|109:76|177:51,1,130,10|0,1:2|1:2,0:0:0:0:
250,56,61200,1,8,0:0:0:0:
250,56,61373,2,0,L|256:120,1,65,0|8,1:2|0:0,0:0:0:0:
316,170,61718,2,0,L|310:234,1,65,8|2,1:2|0:0,0:0:0:0:
250,285,62063,2,0,P|273:306|305:312,1,65,10|2,1:2|0:0,0:0:0:0:
370,355,62407,2,0,P|400:345|421:320,1,65,10|0,1:2|0:0,0:0:0:0:
480,269,62752,2,0,P|466:241|460:209,1,65,8|0,1:2|0:0,0:0:0:0:
405,153,63097,2,0,P|419:124|425:92,1,65,8|0,1:2|0:0,0:0:0:0:
470,28,63442,5,10,1:2:0:0:
470,28,63787,1,2,0:0:0:0:
218,105,64821,2,0,P|158:78|92:108,2,130,10|10|8,0:0|0:0|0:0,0:0:0:0:
270,176,65683,1,0,1:2:0:0:
270,176,65769,1,0,1:2:0:0:
270,176,65856,1,8,0:0:0:0:
231,243,66028,1,0,1:2:0:0:
289,312,66200,6,0,B|339:301|339:301|359:308|359:308|415:296,1,130,6|8,1:2|0:0,0:0:0:0:
481,232,66718,2,0,L|485:167,1,65
497,76,67063,1,0,1:2:0:0:
412,110,67235,2,0,P|381:116|349:112,1,65,8|2,0:0|0:0,0:0:0:0:
271,65,67580,1,2,1:2:0:0:
271,65,67752,1,2,0:0:0:0:
208,131,67925,2,0,L|222:260,1,130,10|0,0:0|0:0,0:0:0:0:
165,331,68442,1,0,1:2:0:0:
86,283,68614,2,0,P|54:286|24:299,1,65,8|0,0:0|0:0,0:0:0:0:
10,209,68959,6,0,L|14:144,1,65,2|0,1:2|0:0,0:0:0:0:
16,52,69304,2,0,P|74:81|138:75,1,130,10|0,0:0|0:0,0:0:0:0:
221,40,69821,1,0,1:2:0:0:
312,40,69994,2,0,P|324:69|327:102,1,65,8|0,0:0|0:0,0:0:0:0:
404,149,70338,2,0,P|391:178|388:211,1,65,2|0,0:0|1:2,0:0:0:0:
455,273,70683,2,0,P|397:300|334:283,1,130,10|0,0:0|0:0,0:0:0:0:
267,231,71200,1,0,1:2:0:0:
180,201,71373,2,0,P|175:232|182:264,1,65,8|0,0:0|0:0,0:0:0:0:
267,231,71718,6,0,L|286:87,1,130,2|8,1:2|0:0,0:0:0:0:
202,61,72235,2,0,P|169:63|140:50,1,65
54,18,72580,1,0,1:2:0:0:
6,96,72752,2,0,L|13:176,1,65,8|2,0:0|0:0,0:0:0:0:
53,242,73097,1,2,1:2:0:0:
53,242,73269,1,2,0:0:0:0:
132,287,73442,2,0,P|172:266|264:265,1,130,10|0,0:0|0:0,0:0:0:0:
335,306,73959,1,0,1:2:0:0:
424,285,74132,2,0,P|434:315|433:347,1,65,8|0,0:0|0:0,0:0:0:0:
506,162,74476,6,0,P|481:183|450:191,1,65,2|0,1:2|0:0,0:0:0:0:
361,211,74821,2,0,P|336:189|238:176,1,130,10|0,0:0|0:0,0:0:0:0:
156,205,75338,1,0,1:2:0:0:
94,135,75511,2,0,P|85:105|85:72,1,65,8|0,0:0|0:0,0:0:0:0:
151,9,75856,5,10,0:0:0:0:
240,26,76028,1,0,1:2:0:0:
182,96,76200,1,2,1:2:0:0:
341,44,76373,5,8,0:0:0:0:
370,129,76545,1,0,1:2:0:0:
281,114,76717,1,0,1:2:0:0:
405,225,76891,5,8,0:0:0:0:
346,293,77063,1,0,1:2:0:0:
284,359,77235,6,0,B|234:346|234:346|209:353|209:353|158:339,1,130,2|8,1:2|0:0,0:0:0:0:
79,293,77752,2,0,L|72:228,1,65
31,147,78097,1,0,1:2:0:0:
109,100,78269,2,0,P|137:114|169:119,1,65,8|2,0:0|0:0,0:0:0:0:
255,86,78614,1,2,1:2:0:0:
255,86,78787,1,2,0:0:0:0:
307,159,78959,2,0,P|351:114|415:106,1,130,10|0,0:0|0:0,0:0:0:0:
483,167,79476,1,0,1:2:0:0:
399,205,79649,2,0,P|386:234|387:266,1,65,8|0,0:0|0:0,0:0:0:0:
462,318,79994,6,0,P|474:288|473:256,1,65,2|0,1:2|0:0,0:0:0:0:
399,205,80338,2,0,L|247:220,1,130,10|0,0:0|0:0,0:0:0:0:
178,228,80856,1,0,1:2:0:0:
126,302,81028,2,0,L|118:378,1,65,8|0,0:0|0:0,0:0:0:0:
210,371,81373,2,0,P|238:356|270:350,1,65,2|0,0:0|1:2,0:0:0:0:
337,289,81718,2,0,P|365:304|476:299,1,130,10|0,0:0|0:0,0:0:0:0:
506,226,82235,1,0,1:2:0:0:
458,148,82407,2,0,P|459:115|472:86,1,65,8|0,0:0|0:0,0:0:0:0:
392,41,82752,6,0,B|344:36|344:36|316:21|316:21|266:19,1,130,2|8,1:2|0:0,0:0:0:0:
176,2,83269,2,0,P|173:34|183:64,1,65
250,126,83614,1,0,1:2:0:0:
178,182,83787,2,0,L|93:163,1,65,8|2,0:0|0:0,0:0:0:0:
47,113,84132,1,2,1:2:0:0:
47,113,84304,1,2,0:0:0:0:
4,193,84476,2,0,L|18:322,1,130,10|0,0:0|0:0,0:0:0:0:
91,377,84994,1,0,1:2:0:0:
150,308,85166,2,0,P|182:307|211:320,1,65,8|0,0:0|0:0,0:0:0:0:
322,202,85511,6,0,P|296:221|280:249,1,65,2|0,1:2|0:0,0:0:0:0:
308,336,85856,2,0,P|369:351|427:323,1,130,10|0,0:0|0:0,0:0:0:0:
494,261,86373,1,0,1:2:0:0:
440,186,86545,2,0,P|432:155|434:123,1,65,8|0,0:0|0:0,0:0:0:0:
464,37,86890,5,2,0:0:0:0:
385,12,87063,1,0,1:2:0:0:
385,12,87149,1,0,1:2:0:0:
385,12,87235,2,0,B|325:5|324:64|264:59,1,130,10|0,0:0|0:0,0:0:0:0:
189,40,87752,1,0,1:2:0:0:
189,40,87838,1,0,1:2:0:0:
189,40,87925,1,8,0:0:0:0:
117,96,88097,1,0,1:2:0:0:
51,159,88269,6,0,P|106:189|166:171,1,130,6|8,1:2|0:0,0:0:0:0:
239,227,88787,2,0,P|270:217|302:220,1,65,2|0,0:0|0:0,0:0:0:0:
377,271,89132,1,0,1:2:0:0:
443,209,89304,2,0,L|450:144,1,65,10|0,0:0|0:0,0:0:0:0:
411,62,89649,2,0,P|383:79|368:107,1,65,2|0,1:2|0:0,0:0:0:0:
286,147,89994,2,0,L|157:126,1,130,10|0,0:0|0:0,0:0:0:0:
67,112,90511,1,0,1:2:0:0:
19,189,90683,2,0,L|28:259,1,65,10|0,0:0|0:0,0:0:0:0:
75,330,91028,6,0,P|104:315|136:310,1,65,2|0,1:2|0:0,0:0:0:0:
216,268,91373,2,0,P|264:290|352:285,1,130,8|0,0:0|0:0,0:0:0:0:
383,208,91890,1,0,1:2:0:0:
291,200,92063,2,0,P|260:189|238:165,1,65,10|0,0:0|0:0,0:0:0:0:
175,108,92407,1,2,0:0:0:0:
175,108,92580,1,0,1:2:0:0:
84,106,92752,2,0,L|105:243,1,130,10|0,0:0|0:0,0:0:0:0:
73,320,93269,1,2,1:2:0:0:
152,364,93442,2,0,P|163:333|162:301,1,65,8|0,0:0|0:0,0:0:0:0:
217,228,93787,6,0,P|280:236|340:212,1,130,2|8,1:2|0:0,0:0:0:0:
411,155,94304,2,0,L|418:90,1,65,2|0,0:0|0:0,0:0:0:0:
340,42,94649,1,0,1:2:0:0:
263,90,94821,2,0,P|231:88|200:77,1,65,10|0,0:0|0:0,0:0:0:0:
116,53,95166,1,2,1:2:0:0:
116,53,95338,1,0,0:0:0:0:
43,107,95511,2,0,L|70:244,1,130,10|0,0:0|0:0,0:0:0:0:
41,321,96028,1,0,1:2:0:0:
119,365,96200,2,0,P|149:355|181:350,1,65,10|0,0:0|0:0,0:0:0:0:
260,252,96545,6,0,P|227:247|197:236,1,65,2|0,1:2|0:0,0:0:0:0:
134,171,96890,2,0,B|136:131|136:131|149:104|149:104|152:44,1,130,10|0,0:0|0:0,0:0:0:0:
242,29,97407,1,0,1:2:0:0:
313,85,97580,2,0,P|344:93|376:89,1,65,8|0,0:0|0:0,0:0:0:0:
506,125,97925,5,10,0:0:0:0:
489,214,98097,1,0,1:2:0:0:
419,156,98269,1,2,1:2:0:0:
471,315,98442,5,8,0:0:0:0:
386,344,98614,1,0,1:2:0:0:
401,255,98786,1,0,1:2:0:0:
290,379,98960,5,8,0:0:0:0:
222,320,99132,1,0,1:2:0:0:
133,338,99304,6,0,B|115:304|115:304|131:212,1,130,2|8,1:2|0:0,0:0:0:0:
49,171,99821,2,0,P|64:142|91:125,1,65,2|0,0:0|0:0,0:0:0:0:
182,133,100166,1,0,1:2:0:0:
255,186,100338,2,0,L|244:256,1,65,10|0,0:0|0:0,0:0:0:0:
310,314,100683,2,0,P|342:311|370:296,1,65,2|0,1:2|0:0,0:0:0:0:
447,246,101028,2,0,P|428:184|445:122,1,130,10|0,0:0|0:0,0:0:0:0:
508,57,101545,1,0,1:2:0:0:
426,15,101718,2,0,L|351:30,1,65,10|0,0:0|0:0,0:0:0:0:
300,94,102063,6,0,L|225:79,1,65,2|0,1:2|0:0,0:0:0:0:
162,25,102407,2,0,P|100:36|65:92,1,130,8|0,0:0|0:0,0:0:0:0:
65,180,102925,1,0,1:2:0:0:
155,172,103097,2,0,P|156:139|146:108,1,65,10|0,0:0|0:0,0:0:0:0:
65,88,103442,1,2,0:0:0:0:
65,88,103614,1,0,1:2:0:0:
162,25,103787,6,0,L|303:43,1,130,10|0,0:0|0:0,0:0:0:0:
380,25,104304,1,2,1:2:0:0:
422,105,104476,2,0,L|409:171,1,65,8|0,0:0|0:0,0:0:0:0:
338,226,104821,2,0,P|398:208|453:239,1,130,2|8,1:2|0:0,0:0:0:0:
500,317,105338,2,0,L|487:386,1,65,2|0,0:0|0:0,0:0:0:0:
396,374,105683,1,0,1:2:0:0:
322,320,105856,2,0,P|289:320|260:333,1,65,10|0,0:0|0:0,0:0:0:0:
178,373,106200,5,2,1:2:0:0:
178,373,106373,1,0,0:0:0:0:
105,318,106545,2,0,P|99:255|148:216,1,130,10|0,0:0|0:0,0:0:0:0:
239,226,107063,1,0,1:2:0:0:
309,169,107235,2,0,L|314:104,1,65,10|0,0:0|0:0,0:0:0:0:
512,116,107580,6,0,P|480:122|452:138,1,65,2|0,1:2|0:0,0:0:0:0:
390,206,107925,2,0,L|400:335,1,130,10|0,0:0|0:0,0:0:0:0:
487,365,108442,1,0,1:2:0:0:
501,275,108614,2,0,L|506:210,1,65,10|0,0:0|0:0,0:0:0:0:
512,116,108959,5,2,0:0:0:0:
446,68,109132,1,0,1:2:0:0:
446,68,109218,1,0,1:2:0:0:
446,68,109304,2,0,B|397:66|397:66|374:54|374:54|317:51,1,130,10|0,0:0|0:0,0:0:0:0:
246,103,109821,1,0,1:2:0:0:
246,103,109907,1,0,1:2:0:0:
246,103,109994,1,8,0:0:0:0:
159,76,110166,1,0,1:2:0:0:
71,50,110338,1,6,1:2:0:0:
