osu file format v14

[General]
AudioFilename: audio.mp3
AudioLeadIn: 0
PreviewTime: 66201
Countdown: 1
SampleSet: Soft
StackLeniency: 0.7
Mode: 0
LetterboxInBreaks: 0
WidescreenStoryboard: 1

[Editor]
DistanceSpacing: 2.5
BeatDivisor: 4
GridSize: 32
TimelineZoom: 1.8

[Metadata]
Title:Laurence
TitleUnicode:Laurence
Artist:Feint
ArtistUnicode:Feint
Creator:Karanos
Version:Dreams
Source:
Tags:
BeatmapID:1512702
BeatmapSetID:710098

[Difficulty]
HPDrainRate:6.5
CircleSize:4
OverallDifficulty:8
ApproachRate:9
SliderMultiplier:2.2
SliderTickRate:1

[Events]
//Background and Video events
0,0,"child-tree-lake-boats-sky-clouds-colorful-mood-digital-art-a.jpg",0,0
//Break Periods
//Storyboard Layer 0 (Background)
//Storyboard Layer 1 (Fail)
//Storyboard Layer 2 (Pass)
//Storyboard Layer 3 (Foreground)
//Storyboard Sound Samples

[TimingPoints]
188,344.827209302326,4,1,1,25,1,0
2256,-166.666666666667,4,1,1,25,0,0
22256,-166.666666666667,4,1,1,45,0,0
38808,-200,4,1,1,45,0,0
44260,344.827209302326,4,2,2,35,1,0
44260,-166.666666666667,4,2,2,35,0,0
45962,344.827209302326,4,2,2,35,1,0
45962,-166.666666666667,4,2,2,35,0,0
55272,-200,4,2,2,35,0,0
55961,-166.666666666667,4,2,2,35,0,0
56651,-142.857142857143,4,2,2,35,0,0
57341,-125,4,2,2,35,0,0
58030,-111.111111111111,4,2,2,35,0,0
58720,-100,4,2,2,35,0,0
59410,-90.9090909090909,4,2,2,35,0,0
60099,-83.3333333333333,4,2,2,35,0,0
60789,-133.333333333333,4,1,1,35,0,0
61134,-117.647058823529,4,1,1,35,0,0
61479,-105.263157894737,4,1,1,35,0,0
61824,-95.2380952380951,4,1,1,35,0,0
62168,-86.9565217391304,4,1,1,35,0,0
62513,-80,4,1,1,35,0,0
62858,-74.0740740740741,4,1,1,35,0,0
63203,-68.9655172413793,4,1,1,35,0,0
64927,-133.333333333333,4,1,1,20,0,0
66309,344.827209302326,4,1,1,20,1,0
66309,-90.9090909090909,4,1,1,70,0,1
109239,-83.3333333333333,4,1,1,70,0,1
110446,344.827209302326,4,2,2,45,1,0
110446,-133.333333333333,4,2,2,45,0,0
113204,-133.333333333333,4,2,2,30,0,0
118721,-133.333333333333,4,2,2,15,0,0
121480,-133.333333333333,4,2,2,5,0,0

[HitObjects]
40,111,44260,6,0,P|27:160|46:256,1,131.99999597168,2|0,0:0|0:0,0:0:0:0:
38,239,44777,2,0,P|26:175|39:111,1,131.99999597168,2|0,0:0|0:0,0:0:0:0:
40,111,45294,2,0,P|27:160|46:256,1,131.99999597168,2|0,0:0|0:0,0:0:0:0:
403,309,45962,6,0,L|441:241,1,65.9999979858399,2|0,0:0|0:0,0:0:0:0:
435,251,46306,2,0,L|403:309,1,65.9999979858399,2|0,0:0|0:0,0:0:0:0:
435,251,46651,2,0,L|402:308,1,65.9999979858399,2|0,0:0|0:0,0:0:0:0:
346,73,46996,6,0,L|211:75,1,131.99999597168,2|0,0:0|0:0,0:0:0:0:
214,74,47513,2,0,L|346:73,1,131.99999597168,2|0,0:0|0:0,0:0:0:0:
346,73,48030,2,0,L|214:74,1,131.99999597168,2|0,0:0|0:0,0:0:0:0:
202,348,48720,6,0,P|245:314|252:292,1,65.9999979858399,2|0,0:0|0:0,0:0:0:0:
248,305,49065,2,0,P|230:332|202:347,1,65.9999979858399,2|0,0:0|0:0,0:0:0:0:
248,305,49410,2,0,P|230:332|202:347,1,65.9999979858399,2|0,0:0|0:0,0:0:0:0:
338,203,49755,6,0,P|288:165|234:207,1,131.99999597168,2|0,0:0|0:0,0:0:0:0:
236,198,50272,2,0,P|288:165|337:202,1,131.99999597168,2|0,0:0|0:0,0:0:0:0:
337,202,50789,2,0,P|288:165|236:198,1,131.99999597168,2|0,0:0|0:0,0:0:0:0:
436,14,51479,6,0,L|431:80,1,65.9999979858399,2|0,0:0|0:0,0:0:0:0:
431,80,51824,2,0,L|436:14,1,65.9999979858399,2|0,0:0|0:0,0:0:0:0:
431,80,52168,2,0,L|436:14,1,65.9999979858399,2|0,0:0|0:0,0:0:0:0:
491,205,52513,6,0,P|514:267|498:338,1,131.99999597168,2|0,0:0|0:0,0:0:0:0:
502,330,53030,2,0,P|513:266|491:205,1,131.99999597168,2|0,0:0|0:0,0:0:0:0:
491,205,53548,2,0,P|514:267|498:338,1,131.99999597168,2|0,0:0|0:0,0:0:0:0:
106,304,54237,6,0,L|34:305,1,65.9999979858399,2|0,0:0|0:0,0:0:0:0:
40,304,54582,2,0,L|106:304,1,65.9999979858399,2|0,0:0|0:0,0:0:0:0:
40,304,54927,2,0,L|106:304,1,65.9999979858399,2|0,0:0|0:0,0:0:0:0:
240,206,55272,6,0,L|201:382,1,165,2|0,0:0|0:0,0:0:0:0:
204,367,55961,2,0,L|249:167,1,197.99999395752,2|0,0:0|0:0,0:0:0:0:
456,74,56651,6,0,P|498:151|485:303,1,230.99999295044,2|0,0:0|0:0,0:0:0:0:
490,290,57341,2,0,P|504:177|419:39,1,264,2|0,0:0|0:0,0:0:0:0:
168,121,58030,6,0,B|-19:110|-19:110|87:81,1,296.99999093628,2|0,0:0|0:0,0:0:0:0:
85,81,58720,2,0,B|-19:110|-19:110|207:124,1,330,2|0,0:0|0:0,0:0:0:0:
387,317,59410,6,0,P|211:359|20:263,1,363.000011077881,2|0,0:0|0:0,0:0:0:0:
48,290,60099,2,0,P|213:359|424:292,1,395.99998791504,2|0,0:0|0:0,0:0:0:0:
203,168,60789,6,0,L|174:260,1,82.5000031471254,2|0,0:0|0:0,0:0:0:0:
178,246,61134,2,0,L|209:143,1,93.500001783371,2|0,0:0|0:0,0:0:0:0:
484,129,61479,6,0,L|439:25,1,104.499997209549,2|0,0:0|0:0,0:0:0:0:
442,33,61824,2,0,L|496:151,1,115.49999647522,2|0,0:0|0:0,0:0:0:0:
232,368,62168,6,0,P|297:381|381:366,1,126.500002412796,2|0,0:0|0:0,0:0:0:0:
356,374,62513,2,0,P|293:380|211:359,1,137.5,2|0,0:0|0:0,0:0:0:0:
33,42,62858,6,0,L|134:179,1,148.500000566483,2|0,0:0|0:0,0:0:0:0:
121,161,63203,2,0,L|19:23,1,159.500004867554,2|0,0:0|0:0,0:0:0:0:
506,28,63548,5,0,0:0:0:0:
187,383,63893,1,0,0:0:0:0:
187,383,64927,5,0,0:0:0:0:
506,28,65272,1,0,0:0:0:0:
124,192,65789,5,0,0:0:0:0:
88,211,65875,1,0,0:0:0:0:
58,239,65961,1,8,0:0:0:0:
205,128,66134,1,0,0:0:0:0:
303,83,66309,6,0,P|352:141|428:152,1,121.000003692627
165,233,66653,2,0,P|116:291|-53:297,1,242.000007385254,8|0,0:0|0:0,0:0:0:0:
47,75,67171,1,0,0:0:0:0:
258,191,67343,2,0,L|374:277,1,121.000003692627,8|0,0:0|0:0,0:0:0:0:
355,263,67602,1,0,0:0:0:0:
355,263,67688,5,0,0:0:0:0:
410,28,67860,1,0,0:0:0:0:
464,264,68033,1,8,0:0:0:0:
310,78,68205,1,0,0:0:0:0:
254,313,68377,2,0,P|206:358|134:368,1,121.000003692627
50,150,68722,2,0,L|8:295,1,121.000003692627,8|0,0:0|0:0,0:0:0:0:
132,52,69067,6,0,P|91:31|17:44,1,121.000003692627
238,148,69412,2,0,P|279:169|462:106,1,242.000007385254,8|0,0:0|0:0,0:0:0:0:
224,40,69929,1,0,0:0:0:0:
202,281,70102,1,8,0:0:0:0:
441,253,70274,1,0,0:0:0:0:
231,372,70446,6,0,P|166:370|107:343,1,121.000003692627
51,114,70791,2,0,L|-9:357,1,242.000007385254,8|0,0:0|0:0,0:0:0:0:
180,195,71308,6,0,L|209:66,1,121.000003692627,0|8,0:0|0:0,0:0:0:0:
380,246,71653,1,0,0:0:0:0:
154,335,71826,6,0,P|220:356|286:349,1,121.000003692627
409,153,72171,2,0,P|352:133|170:182,1,242.000007385254,8|0,0:0|0:0,0:0:0:0:
394,289,72688,1,0,0:0:0:0:
422,49,72860,1,8,0:0:0:0:
180,173,73033,5,0,0:0:0:0:
180,173,73119,1,0,0:0:0:0:
180,173,73205,1,0,0:0:0:0:
26,359,73377,1,0,0:0:0:0:
42,115,73550,1,8,0:0:0:0:
264,211,73722,1,0,0:0:0:0:
129,8,73895,1,0,0:0:0:0:
364,60,74067,5,0,0:0:0:0:
295,292,74240,1,8,0:0:0:0:
507,178,74412,1,0,0:0:0:0:
266,201,74584,2,0,P|193:224|169:274,1,121.000003692627
291,329,74929,2,0,P|172:368|49:329,1,242.000007385254,8|0,0:0|0:0,0:0:0:0:
16,149,75446,1,0,0:0:0:0:
245,70,75619,1,8,0:0:0:0:
107,268,75791,1,0,0:0:0:0:
315,143,75964,5,8,0:0:0:0:
315,143,76136,1,0,0:0:0:0:
315,143,76308,1,0,0:0:0:0:
472,327,76481,1,8,0:0:0:0:
472,327,76653,1,0,0:0:0:0:
472,327,76826,1,0,0:0:0:0:
315,143,76998,1,8,0:0:0:0:
315,143,77171,1,0,0:0:0:0:
155,324,77343,6,0,P|100:334|20:301,1,121.000003692627
172,112,77688,2,0,L|309:328,1,242.000007385254,8|0,0:0|0:0,0:0:0:0:
351,78,78205,1,0,0:0:0:0:
469,288,78377,2,0,L|407:178,1,121.000003692627,8|0,0:0|0:0,0:0:0:0:
409,182,78636,1,0,0:0:0:0:
409,182,78722,5,0,0:0:0:0:
183,271,78895,1,0,0:0:0:0:
81,51,79067,1,8,0:0:0:0:
310,129,79240,1,0,0:0:0:0:
82,210,79412,1,0,0:0:0:0:
308,292,79584,1,0,0:0:0:0:
73,354,79757,1,8,0:0:0:0:
269,215,79929,1,0,0:0:0:0:
397,8,80102,6,0,P|440:63|455:135,1,121.000003692627
470,352,80446,2,0,L|355:123,1,242.000007385254,8|0,0:0|0:0,0:0:0:0:
196,316,80964,1,0,0:0:0:0:
218,75,81136,1,8,0:0:0:0:
18,210,81308,1,0,0:0:0:0:
146,4,81481,6,0,P|180:84|146:140,1,121.000003692627
450,62,81826,2,0,B|279:70|279:70|360:105,1,242.000007385254,8|0,0:0|0:0,0:0:0:0:
509,275,82343,1,0,0:0:0:0:
272,321,82515,1,8,0:0:0:0:
72,182,82688,1,0,0:0:0:0:
309,224,82860,6,0,P|239:228|182:269,1,121.000003692627
87,36,83205,2,0,L|56:294,1,242.000007385254,8|0,0:0|0:0,0:0:0:0:
225,100,83722,1,0,0:0:0:0:
454,180,83895,1,8,0:0:0:0:
225,100,84067,5,0,0:0:0:0:
285,105,84153,1,0,0:0:0:0:
333,139,84239,1,0,0:0:0:0:
254,233,84412,1,0,0:0:0:0:
374,23,84584,1,8,0:0:0:0:
375,265,84757,1,0,0:0:0:0:
169,138,84929,2,0,P|65:144|84:272,1,242.000007385254,0|8,0:0|0:0,0:0:0:0:
496,34,85619,6,0,P|445:65|353:55,1,121.000003692627
186,207,85964,2,0,P|299:249|441:204,1,242.000007385254,8|0,0:0|0:0,0:0:0:0:
210,89,86481,1,0,0:0:0:0:
232,329,86653,2,0,P|301:317|393:361,1,121.000003692627,8|0,0:0|0:0,0:0:0:0:
111,281,86998,1,0,0:0:0:0:
139,39,87171,5,0,0:0:0:0:
198,31,87257,1,0,0:0:0:0:
257,44,87343,1,8,0:0:0:0:
473,152,87515,1,0,0:0:0:0:
257,44,87688,1,0,0:0:0:0:
473,152,87860,1,0,0:0:0:0:
503,203,87946,1,0,0:0:0:0:
510,263,88032,1,8,0:0:0:0:
381,57,88205,1,0,0:0:0:0:
420,295,88377,6,0,P|368:337|284:323,1,121.000003692627
94,238,88722,2,0,L|338:172,1,242.000007385254,8|0,0:0|0:0,0:0:0:0:
104,76,89240,1,0,0:0:0:0:
341,35,89412,2,0,P|416:51|482:95,1,121.000003692627,8|0,0:0|0:0,0:0:0:0:
502,310,89757,5,0,0:0:0:0:
264,354,89929,1,0,0:0:0:0:
211,116,90102,1,8,0:0:0:0:
84,321,90274,1,0,0:0:0:0:
316,257,90446,1,0,0:0:0:0:
93,158,90619,1,0,0:0:0:0:
326,96,90791,2,0,P|392:121|435:187,1,121.000003692627,8|0,0:0|0:0,0:0:0:0:
285,358,91136,6,0,P|214:377|140:358,1,121.000003692627
76,145,91481,2,0,P|30:240|116:351,1,242.000007385254,8|0,0:0|0:0,0:0:0:0:
308,221,91998,1,0,0:0:0:0:
158,111,92171,2,0,P|105:65|34:73,1,121.000003692627,8|0,0:0|0:0,0:0:0:0:
196,260,92515,5,0,0:0:0:0:
426,184,92688,1,0,0:0:0:0:
280,376,92860,1,8,0:0:0:0:
281,133,93033,1,0,0:0:0:0:
396,344,93205,1,0,0:0:0:0:
402,102,93377,1,0,0:0:0:0:
508,320,93550,2,0,L|447:198,1,121.000003692627,8|0,0:0|0:0,0:0:0:0:
212,239,93895,6,0,L|263:375,1,121.000003692627
65,200,94240,2,0,B|200:138|200:138|93:129,1,242.000007385254,8|0,0:0|0:0,0:0:0:0:
328,31,94757,1,0,0:0:0:0:
408,257,94929,2,0,P|419:329|401:380,1,121.000003692627,8|0,0:0|0:0,0:0:0:0:
445,135,95274,5,0,0:0:0:0:
234,253,95446,1,0,0:0:0:0:
201,12,95619,1,8,0:0:0:0:
83,222,95791,1,0,0:0:0:0:
302,118,95964,1,0,0:0:0:0:
62,88,96136,1,0,0:0:0:0:
180,298,96308,2,0,P|233:344|289:345,1,121.000003692627,8|0,0:0|0:0,0:0:0:0:
417,145,96653,6,0,L|492:276,1,121.000003692627
425,12,96998,2,0,P|328:32|280:174,1,242.000007385254,8|0,0:0|0:0,0:0:0:0:
123,343,97515,1,0,0:0:0:0:
359,286,97688,2,0,L|202:273,1,121.000003692627,8|0,0:0|0:0,0:0:0:0:
0,239,98033,5,8,0:0:0:0:
186,86,98205,1,0,0:0:0:0:
231,322,98377,1,0,0:0:0:0:
129,101,98550,1,8,0:0:0:0:
355,184,98722,1,0,0:0:0:0:
116,158,98895,1,0,0:0:0:0:
308,12,99067,1,8,0:0:0:0:
150,208,99239,1,0,0:0:0:0:
358,83,99412,6,0,P|429:91|504:144,1,121.000003692627
511,353,99757,2,0,P|406:372|262:296,1,242.000007385254,8|0,0:0|0:0,0:0:0:0:
511,231,100274,1,0,0:0:0:0:
273,186,100446,2,0,L|130:170,1,121.000003692627,8|0,0:0|0:0,0:0:0:0:
23,378,100791,5,0,0:0:0:0:
40,135,100964,1,0,0:0:0:0:
210,305,101136,1,8,0:0:0:0:
219,63,101308,1,0,0:0:0:0:
107,278,101481,1,0,0:0:0:0:
323,171,101653,1,0,0:0:0:0:
101,71,101826,2,0,P|28:57|-40:83,1,121.000003692627,8|0,0:0|0:0,0:0:0:0:
220,12,102171,6,0,L|264:136,1,121.000003692627
470,244,102515,2,0,L|393:12,1,242.000007385254,8|0,0:0|0:0,0:0:0:0:
314,245,103033,1,0,0:0:0:0:
260,126,103205,2,0,L|220:12,1,121.000003692627,8|0,0:0|0:0,0:0:0:0:
68,201,103550,5,0,0:0:0:0:
279,317,103722,1,0,0:0:0:0:
36,319,103895,1,8,0:0:0:0:
250,207,104067,2,0,P|350:238|390:370,1,242.000007385254
404,116,104584,1,8,0:0:0:0:
502,337,104757,1,0,0:0:0:0:
261,316,104929,6,0,P|167:297|133:241,1,121.000003692627
31,71,105274,2,0,B|113:14|202:28|202:28|124:102,1,242.000007385254,8|0,0:0|0:0,0:0:0:0:
400,75,105791,1,0,0:0:0:0:
186,190,105964,2,0,P|106:207|50:198,1,121.000003692627,8|0,0:0|0:0,0:0:0:0:
287,102,106308,5,0,0:0:0:0:
413,309,106481,1,0,0:0:0:0:
394,72,106653,1,8,0:0:0:0:
292,292,106826,1,0,0:0:0:0:
492,144,106998,1,0,0:0:0:0:
256,204,107171,5,0,0:0:0:0:
488,269,107343,2,0,P|516:335|516:391,1,121.000003692627,8|0,0:0|0:0,0:0:0:0:
274,380,107688,6,0,P|236:317|237:243,1,121.000003692627
71,88,108033,2,0,B|35:256|35:256|106:195,1,242.000007385254,8|0,0:0|0:0,0:0:0:0:
235,18,108550,1,0,0:0:0:0:
443,139,108722,2,0,P|499:212|526:273,1,121.000003692627,8|0,0:0|0:0,0:0:0:0:
71,88,109067,5,0,0:0:0:0:
404,299,109239,1,0,0:0:0:0:
457,338,109325,1,0,0:0:0:0:
510,377,109411,1,8,0:0:0:0:
88,212,109584,1,0,0:0:0:0:
421,53,109757,5,0,0:0:0:0:
88,212,109929,1,0,0:0:0:0:
40,256,110015,1,0,0:0:0:0:
24,319,110101,1,8,0:0:0:0:
404,299,110274,1,0,0:0:0:0:
314,68,110446,6,0,P|228:60|154:111,1,165.000006294251,2|0,0:0|0:0,0:0:0:0:
163,99,110963,2,0,P|233:58|314:68,1,165.000006294251,2|0,0:0|0:0,0:0:0:0:
314,68,111480,2,0,P|228:60|154:111,1,165.000006294251,2|0,0:0|0:0,0:0:0:0:
329,283,112170,6,0,L|300:187,1,82.5000031471254,2|0,0:0|0:0,0:0:0:0:
305,204,112514,2,0,L|329:283,1,82.5000031471254,2|0,0:0|0:0,0:0:0:0:
305,204,112860,2,0,L|329:283,1,82.5000031471254,2|0,0:0|0:0,0:0:0:0:
99,192,113204,6,0,L|134:359,1,165.000006294251,2|0,0:0|0:0,0:0:0:0:
132,353,113721,2,0,L|99:192,1,165.000006294251,2|0,0:0|0:0,0:0:0:0:
99,192,114239,2,0,L|134:359,1,165.000006294251,2|0,0:0|0:0,0:0:0:0:
469,114,114928,6,0,P|440:67|400:59,1,82.5000031471254,2|0,0:0|0:0,0:0:0:0:
416,58,115273,2,0,P|452:77|469:114,1,82.5000031471254,2|0,0:0|0:0,0:0:0:0:
416,58,115618,2,0,P|452:77|469:114,1,82.5000031471254,2|0,0:0|0:0,0:0:0:0:
475,320,115963,6,0,B|431:350|431:350|339:272,1,165.000006294251,2|0,0:0|0:0,0:0:0:0:
345,277,116480,2,0,B|431:350|431:350|475:320,1,165.000006294251,2|0,0:0|0:0,0:0:0:0:
475,320,116997,2,0,B|431:350|431:350|339:272,1,165.000006294251,2|0,0:0|0:0,0:0:0:0:
22,18,117687,6,0,B|19:64|19:64|35:121,1,82.5000031471254,2|0,0:0|0:0,0:0:0:0:
28,99,118032,2,0,B|19:64|19:64|22:18,1,82.5000031471254,2|0,0:0|0:0,0:0:0:0:
28,99,118377,2,0,B|19:64|19:64|22:18,1,82.5000031471254,2|0,0:0|0:0,0:0:0:0:
223,58,118721,6,0,B|286:48|342:82|342:82|324:31,1,165.000006294251,2|0,0:0|0:0,0:0:0:0:
328,43,119239,2,2,B|342:82|342:82|286:48|223:58,1,165.000006294251,2|0,0:0|0:0,0:0:0:0:
223,58,119756,2,0,B|286:48|342:82|342:82|324:31,1,165.000006294251,2|0,0:0|0:0,0:0:0:0:
8,304,120445,6,2,P|62:313|109:304,1,82.5000031471254,2|0,0:0|0:0,0:0:0:0:
89,309,120790,2,0,P|48:312|8:304,1,82.5000031471254,2|0,0:0|0:0,0:0:0:0:
89,309,121135,2,0,P|48:312|8:304,1,82.5000031471254,2|0,0:0|0:0,0:0:0:0:
352,256,121480,5,2,0:0:0:0:
