osu file format v14

[General]
AudioFilename: audio.mp3
AudioLeadIn: 0
PreviewTime: 66201
Countdown: 1
SampleSet: None
StackLeniency: 0.7
Mode: 0
LetterboxInBreaks: 0
WidescreenStoryboard: 1

[Editor]
DistanceSpacing: 2
BeatDivisor: 4
GridSize: 32
TimelineZoom: 1.8

[Metadata]
Title:Laurence
TitleUnicode:Laurence
Artist:Feint
ArtistUnicode:Feint
Creator:Karanos
Version:Sky
Source:
Tags:
BeatmapID:1534402
BeatmapSetID:710098

[Difficulty]
HPDrainRate:6
CircleSize:3.5
OverallDifficulty:7.5
ApproachRate:8.7
SliderMultiplier:1.6
SliderTickRate:1

[Events]
//Background and Video events
0,0,"child-tree-lake-boats-sky-clouds-colorful-mood-digital-art-a.jpg",0,0
//Break Periods
//Storyboard Layer 0 (Background)
//Storyboard Layer 1 (Fail)
//Storyboard Layer 2 (Pass)
//Storyboard Layer 3 (Foreground)
//Storyboard Sound Samples

[TimingPoints]
188,344.827209302326,4,1,1,25,1,0
2256,-166.666666666667,4,1,1,25,0,0
22256,-166.666666666667,4,1,1,45,0,0
38808,-200,4,1,1,45,0,0
44260,344.827209302326,4,2,2,35,1,0
44260,-166.666666666667,4,2,2,35,0,0
45962,344.827209302326,4,2,2,35,1,0
45962,-166.666666666667,4,2,2,35,0,0
60789,-133.333333333333,4,1,1,35,0,0
64927,-133.333333333333,4,1,1,20,0,0
66309,344.827209302326,4,1,1,20,1,0
66309,-90.9090909090909,4,1,1,70,0,1
110446,344.827209302326,4,2,2,45,1,0
110446,-133.333333333333,4,2,2,45,0,0
113204,-133.333333333333,4,2,2,30,0,0
118721,-133.333333333333,4,2,2,15,0,0
121480,-133.333333333333,4,2,2,5,0,0

[HitObjects]
32,32,44260,6,0,L|0:128,1,95.9999970703126,2|0,0:0|0:0,0:0:0:0:
128,128,44777,2,0,L|160:224,1,95.9999970703126,2|0,0:0|0:0,0:0:0:0:
288,224,45294,2,0,L|256:320,1,95.9999970703126,2|0,0:0|0:0,0:0:0:0:
452,216,45962,6,0,L|419:156,1,47.9999985351563,2|0,0:0|0:0,0:0:0:0:
368,64,46306,2,0,L|341:122,1,47.9999985351563,2|0,0:0|0:0,0:0:0:0:
265,214,46651,2,0,L|312:227,1,47.9999985351563,2|0,0:0|0:0,0:0:0:0:
252,338,46996,6,0,P|219:358|152:358,1,95.9999970703126,2|0,0:0|0:0,0:0:0:0:
112,246,47513,2,0,L|67:343,1,95.9999970703126,2|0,0:0|0:0,0:0:0:0:
24,217,48030,2,0,L|72:120,1,95.9999970703126,2|0,0:0|0:0,0:0:0:0:
298,35,48720,6,0,L|235:27,1,47.9999985351563,2|0,0:0|0:0,0:0:0:0:
361,87,49065,2,0,L|428:100,1,47.9999985351563,2|0,0:0|0:0,0:0:0:0:
293,147,49410,2,0,L|236:138,1,47.9999985351563,2|0,0:0|0:0,0:0:0:0:
278,260,49755,6,0,L|254:363,1,95.9999970703126,2|0,0:0|0:0,0:0:0:0:
379,331,50272,2,0,P|438:327|474:297,1,95.9999970703126,2|0,0:0|0:0,0:0:0:0:
510,188,50789,2,0,L|415:193,1,95.9999970703126,2|0,0:0|0:0,0:0:0:0:
228,24,51479,6,0,P|212:54|215:89,1,47.9999985351563,2|0,0:0|0:0,0:0:0:0:
110,142,51824,2,0,P|120:163|139:178,1,47.9999985351563,2|0,0:0|0:0,0:0:0:0:
140,303,52168,2,0,P|163:304|186:296,1,47.9999985351563,2|0,0:0|0:0,0:0:0:0:
290,226,52513,6,0,L|333:320,1,95.9999970703126,2|0,0:0|0:0,0:0:0:0:
420,226,53030,2,0,P|479:205|502:165,1,95.9999970703126,2|0,0:0|0:0,0:0:0:0:
392,109,53548,2,0,P|351:75|297:70,1,95.9999970703126,2|0,0:0|0:0,0:0:0:0:
82,170,54237,6,0,L|46:123,1,47.9999985351563,2|0,0:0|0:0,0:0:0:0:
165,78,54582,2,0,L|119:116,1,47.9999985351563,2|0,0:0|0:0,0:0:0:0:
222,190,54927,2,0,L|188:151,1,47.9999985351563,2|0,0:0|0:0,0:0:0:0:
132,264,55272,6,0,P|91:291|-18:272,1,143.999995605469,2|0,0:0|0:0,0:0:0:0:
74,184,55961,2,0,P|136:151|206:163,1,143.999995605469,2|0,0:0|0:0,0:0:0:0:
285,66,56651,6,0,L|324:212,1,143.999995605469,2|0,0:0|0:0,0:0:0:0:
444,179,57341,2,0,L|405:325,1,143.999995605469,2|0,0:0|0:0,0:0:0:0:
83,254,58030,6,0,P|159:255|207:201,1,143.999995605469,2|0,0:0|0:0,0:0:0:0:
183,85,58720,2,0,P|259:84|307:138,1,143.999995605469,2|0,0:0|0:0,0:0:0:0:
345,247,59410,6,0,L|406:107,1,143.999995605469,2|0,0:0|0:0,0:0:0:0:
492,201,60099,2,0,L|437:348,1,143.999995605469,2|0,0:0|0:0,0:0:0:0:
285,331,60789,6,0,P|251:333|205:315,1,60.0000022888184,2|0,0:0|0:0,0:0:0:0:
87,254,61134,2,0,P|56:230|41:184,1,60.0000022888184,2|0,0:0|0:0,0:0:0:0:
101,65,61479,6,0,L|183:88,1,60.0000022888184,2|0,0:0|0:0,0:0:0:0:
312,109,61824,2,0,L|384:126,1,60.0000022888184,2|0,0:0|0:0,0:0:0:0:
471,241,62168,6,0,L|395:228,1,60.0000022888184,2|0,0:0|0:0,0:0:0:0:
257,203,62513,2,0,L|188:187,1,60.0000022888184,2|0,0:0|0:0,0:0:0:0:
252,336,62858,6,0,L|328:353,1,60.0000022888184,2|0,0:0|0:0,0:0:0:0:
464,377,63203,2,0,L|533:388,1,60.0000022888184,2|0,0:0|0:0,0:0:0:0:
438,255,63548,5,0,0:0:0:0:
131,196,63893,1,0,0:0:0:0:
7,80,64927,5,0,0:0:0:0:
311,12,65272,1,0,0:0:0:0:
346,188,65789,5,0,0:0:0:0:
346,188,65875,1,0,0:0:0:0:
346,188,65961,1,8,0:0:0:0:
192,218,66134,1,0,0:0:0:0:
17,371,66309,6,0,P|80:368|112:358,1,88.000002685547
222,305,66653,2,0,L|33:266,1,176.000005371094,8|0,0:0|0:0,0:0:0:0:
27,138,67171,1,0,0:0:0:0:
158,138,67343,2,0,P|236:142|266:120,1,88.000002685547,8|0,0:0|0:0,0:0:0:0:
327,37,67688,5,0,0:0:0:0:
384,155,67860,1,0,0:0:0:0:
338,279,68033,2,0,P|282:331|173:334,1,176.000005371094,8|0,0:0|0:0,0:0:0:0:
74,267,68550,1,0,0:0:0:0:
22,145,68722,2,0,P|7:89|11:44,1,88.000002685547,8|0,0:0|0:0,0:0:0:0:
138,83,69067,6,0,L|245:75,1,88.000002685547
196,205,69412,2,0,P|229:280|327:272,1,176.000005371094,8|0,0:0|0:0,0:0:0:0:
344,153,69929,1,0,0:0:0:0:
402,271,70102,2,0,L|451:361,1,88.000002685547,8|0,0:0|0:0,0:0:0:0:
483,204,70446,5,0,0:0:0:0:
417,68,70619,1,0,0:0:0:0:
302,163,70791,2,0,P|242:200|206:195,1,88.000002685547,8|0,0:0|0:0,0:0:0:0:
128,86,71136,2,0,L|99:190,1,88.000002685547
227,84,71481,2,0,L|252:-8,1,88.000002685547,8|0,0:0|0:0,0:0:0:0:
380,77,71826,6,0,P|434:97|485:87,1,88.000002685547
445,241,72171,2,0,L|376:67,1,176.000005371094,8|0,0:0|0:0,0:0:0:0:
323,216,72688,1,0,0:0:0:0:
184,272,72860,2,0,P|142:287|68:275,1,88.000002685547,8|0,0:0|0:0,0:0:0:0:
19,158,73205,5,0,0:0:0:0:
123,51,73377,1,0,0:0:0:0:
127,201,73550,1,8,0:0:0:0:
123,51,73722,1,0,0:0:0:0:
238,147,73895,2,0,B|320:170|363:174|363:174|323:129,1,176.000005371094,0|8,0:0|0:0,0:0:0:0:
425,327,74584,6,0,P|371:329|323:319,1,88.000002685547
238,210,74929,2,0,L|203:383,1,176.000005371094,8|0,0:0|0:0,0:0:0:0:
119,258,75446,1,0,0:0:0:0:
34,381,75619,2,0,L|10:291,1,88.000002685547,8|0,0:0|0:0,0:0:0:0:
25,146,75964,5,8,0:0:0:0:
128,38,76136,1,0,0:0:0:0:
248,126,76308,1,0,0:0:0:0:
95,150,76481,5,8,0:0:0:0:
213,59,76653,1,0,0:0:0:0:
324,159,76826,1,0,0:0:0:0:
191,226,76998,5,8,0:0:0:0:
278,104,77171,1,0,0:0:0:0:
395,195,77343,6,0,B|472:191|496:115|496:115|431:145,1,176.000005371094,0|8,0:0|0:0,0:0:0:0:
471,292,77860,1,0,0:0:0:0:
325,329,78033,1,0,0:0:0:0:
395,195,78205,5,0,0:0:0:0:
401,344,78377,1,8,0:0:0:0:
258,296,78550,5,0,0:0:0:0:
187,164,78722,1,0,0:0:0:0:
87,276,78895,1,0,0:0:0:0:
227,227,79067,2,0,P|278:188|301:77,1,176.000005371094,8|0,0:0|0:0,0:0:0:0:
435,14,79584,1,0,0:0:0:0:
476,161,79757,2,0,L|506:268,1,88.000002685547,8|0,0:0|0:0,0:0:0:0:
367,338,80102,6,0,L|340:249,1,88.000002685547
202,306,80446,2,0,B|141:284|141:284|122:243|122:243|32:210,1,176.000005371094,8|0,0:0|0:0,0:0:0:0:
69,70,80964,1,0,0:0:0:0:
210,118,81136,2,0,L|305:149,1,88.000002685547,8|0,0:0|0:0,0:0:0:0:
406,45,81481,5,0,0:0:0:0:
439,190,81653,1,0,0:0:0:0:
323,285,81826,2,0,B|279:310|205:269|205:269|238:323,1,176.000005371094,8|0,0:0|0:0,0:0:0:0:
132,200,82343,1,0,0:0:0:0:
69,334,82515,2,0,L|9:232,1,88.000002685547,8|0,0:0|0:0,0:0:0:0:
18,109,82860,6,0,P|69:111|128:86,1,88.000002685547
222,7,83205,2,0,L|268:178,1,176.000005371094,8|0,0:0|0:0,0:0:0:0:
330,40,83722,1,0,0:0:0:0:
454,124,83895,2,0,L|422:30,1,88.000002685547,8|0,0:0|0:0,0:0:0:0:
388,192,84240,5,0,0:0:0:0:
487,294,84412,1,0,0:0:0:0:
342,335,84584,1,8,0:0:0:0:
388,192,84757,1,0,0:0:0:0:
265,277,84929,1,0,0:0:0:0:
228,131,85102,1,0,0:0:0:0:
122,236,85274,1,8,0:0:0:0:
267,201,85446,1,0,0:0:0:0:
154,300,85619,6,0,P|86:319|40:302,1,88.000002685547
94,166,85964,2,0,P|86:110|138:-1,1,176.000005371094,8|0,0:0|0:0,0:0:0:0:
243,106,86481,1,0,0:0:0:0:
391,93,86653,2,0,P|444:80|477:39,1,88.000002685547,8|0,0:0|0:0,0:0:0:0:
469,207,86998,1,0,0:0:0:0:
348,297,87171,5,0,0:0:0:0:
348,297,87257,1,0,0:0:0:0:
348,297,87343,1,8,0:0:0:0:
57,225,87861,5,0,0:0:0:0:
57,225,87947,1,0,0:0:0:0:
57,225,88033,1,8,0:0:0:0:
114,87,88205,1,0,0:0:0:0:
260,57,88377,6,0,P|320:31|359:29,1,88.000002685547
372,175,88722,2,0,B|411:263|411:263|469:258|482:215,1,176.000005371094,8|0,0:0|0:0,0:0:0:0:
427,368,89240,1,0,0:0:0:0:
293,302,89412,2,0,P|224:264|205:239,1,88.000002685547,8|0,0:0|0:0,0:0:0:0:
134,133,89757,5,0,0:0:0:0:
114,280,89929,1,0,0:0:0:0:
5,176,90102,1,8,0:0:0:0:
148,216,90274,1,0,0:0:0:0:
66,71,90446,1,0,0:0:0:0:
74,220,90619,1,0,0:0:0:0:
172,108,90791,2,0,P|222:111|265:83,1,88.000002685547,8|0,0:0|0:0,0:0:0:0:
378,9,91136,6,0,L|434:107,1,88.000002685547
345,213,91481,2,0,P|428:239|526:198,1,176.000005371094,8|0,0:0|0:0,0:0:0:0:
433,342,91998,1,0,0:0:0:0:
290,295,92171,2,0,P|242:272|208:235,1,88.000002685547,8|0,0:0|0:0,0:0:0:0:
137,121,92515,5,0,0:0:0:0:
109,268,92688,1,0,0:0:0:0:
16,151,92860,2,0,P|22:98|49:40,1,88.000002685547,8|0,0:0|0:0,0:0:0:0:
171,6,93205,5,0,0:0:0:0:
307,65,93377,1,0,0:0:0:0:
201,172,93550,2,0,P|247:189|300:179,1,88.000002685547,8|0,0:0|0:0,0:0:0:0:
420,249,93895,6,0,P|374:266|321:256,1,88.000002685547
186,278,94240,2,0,L|350:357,1,176.000005371094,8|0,0:0|0:0,0:0:0:0:
488,310,94757,1,0,0:0:0:0:
479,161,94929,2,0,L|386:119,1,88.000002685547,8|0,0:0|0:0,0:0:0:0:
294,16,95274,5,0,0:0:0:0:
230,151,95446,1,0,0:0:0:0:
108,63,95619,1,8,0:0:0:0:
258,82,95791,1,0,0:0:0:0:
133,165,95964,1,0,0:0:0:0:
192,26,96136,1,0,0:0:0:0:
217,173,96308,1,8,0:0:0:0:
74,125,96481,1,0,0:0:0:0:
145,256,96653,6,0,P|183:298|223:308,1,88.000002685547
361,312,96998,2,0,P|406:305|469:180,1,176.000005371094,8|0,0:0|0:0,0:0:0:0:
470,52,97515,1,0,0:0:0:0:
321,73,97688,2,0,P|275:106|249:173,1,88.000002685547,8|0,0:0|0:0,0:0:0:0:
214,277,98033,5,8,0:0:0:0:
117,173,98205,1,0,0:0:0:0:
47,305,98377,1,0,0:0:0:0:
117,173,98550,5,8,0:0:0:0:
35,40,98722,1,0,0:0:0:0:
185,37,98895,1,0,0:0:0:0:
117,173,99067,5,8,0:0:0:0:
266,179,99239,1,0,0:0:0:0:
189,307,99412,6,0,P|265:336|298:328,1,88.000002685547
364,219,99757,2,0,L|427:393,1,176.000005371094,8|0,0:0|0:0,0:0:0:0:
493,251,100274,1,0,0:0:0:0:
437,112,100446,2,0,L|394:19,1,88.000002685547,8|0,0:0|0:0,0:0:0:0:
342,170,100791,5,0,0:0:0:0:
272,36,100964,1,0,0:0:0:0:
207,174,101136,1,8,0:0:0:0:
333,91,101308,1,0,0:0:0:0:
182,85,101481,1,0,0:0:0:0:
273,202,101653,1,0,0:0:0:0:
182,85,101826,1,8,0:0:0:0:
333,91,101998,1,0,0:0:0:0:
207,174,102171,6,0,P|148:213|108:211,1,88.000002685547
13,304,102515,2,0,P|-16:214|5:122,1,176.000005371094,8|0,0:0|0:0,0:0:0:0:
93,18,103033,1,0,0:0:0:0:
207,174,103205,2,0,L|255:288,1,88.000002685547,8|0,0:0|0:0,0:0:0:0:
383,301,103550,5,0,0:0:0:0:
412,154,103722,1,0,0:0:0:0:
497,277,103895,1,8,0:0:0:0:
354,233,104067,1,0,0:0:0:0:
321,87,104239,1,0,0:0:0:0:
412,154,104412,1,0,0:0:0:0:
263,166,104584,1,8,0:0:0:0:
390,87,104757,1,0,0:0:0:0:
243,59,104929,6,0,P|172:39|130:54,1,88.000002685547
170,191,105274,2,0,P|236:226|348:211,1,176.000005371094,8|0,0:0|0:0,0:0:0:0:
448,119,105791,1,0,0:0:0:0:
457,268,105964,2,0,L|468:373,1,88.000002685547,8|0,0:0|0:0,0:0:0:0:
321,319,106308,5,0,0:0:0:0:
179,269,106481,1,0,0:0:0:0:
50,344,106653,1,8,0:0:0:0:
73,195,106826,1,0,0:0:0:0:
123,335,106998,1,0,0:0:0:0:
259,271,107171,1,0,0:0:0:0:
109,262,107343,1,8,0:0:0:0:
210,371,107515,1,0,0:0:0:0:
280,238,107688,6,0,P|334:174|336:153,1,88.000002685547
193,121,108033,2,0,P|120:85|23:119,1,176.000005371094,8|0,0:0|0:0,0:0:0:0:
193,121,108550,1,0,0:0:0:0:
309,27,108722,1,8,0:0:0:0:
334,173,108895,1,0,0:0:0:0:
477,131,109067,6,0,P|485:207|475:250,1,88.000002685547
471,268,109326,1,0,0:0:0:0:
456,309,109412,1,8,0:0:0:0:
26,178,109929,5,0,0:0:0:0:
62,153,110015,1,0,0:0:0:0:
92,120,110101,1,8,0:0:0:0:
190,8,110274,1,0,0:0:0:0:
408,83,110446,6,0,P|416:146|391:208,1,120.000004577637,2|0,0:0|0:0,0:0:0:0:
307,150,110963,2,0,L|332:288,1,120.000004577637,2|0,0:0|0:0,0:0:0:0:
251,335,111480,2,0,L|225:200,1,120.000004577637,2|0,0:0|0:0,0:0:0:0:
67,344,112170,6,0,L|0:363,1,60.0000022888184,2|0,0:0|0:0,0:0:0:0:
57,270,112514,2,0,L|-10:289,1,60.0000022888184,2|0,0:0|0:0,0:0:0:0:
57,193,112859,2,0,L|-10:212,1,60.0000022888184,2|0,0:0|0:0,0:0:0:0:
15,108,113204,6,0,P|38:46|91:4,1,120.000004577637,2|0,0:0|0:0,0:0:0:0:
124,101,113721,2,0,P|147:163|200:205,1,120.000004577637,2|0,0:0|0:0,0:0:0:0:
288,213,114239,2,0,P|265:151|212:109,1,120.000004577637,2|0,0:0|0:0,0:0:0:0:
259,317,114928,6,0,L|334:310,1,60.0000022888184,2|0,0:0|0:0,0:0:0:0:
415,239,115273,2,0,L|341:244,1,60.0000022888184,2|0,0:0|0:0,0:0:0:0:
445,163,115618,2,0,L|526:157,1,60.0000022888184,2|0,0:0|0:0,0:0:0:0:
448,51,115963,6,0,P|394:28|321:37,1,120.000004577637,2|0,0:0|0:0,0:0:0:0:
234,100,116480,2,0,L|369:123,1,120.000004577637,2|0,0:0|0:0,0:0:0:0:
260,198,116997,2,0,L|129:177,1,120.000004577637,2|0,0:0|0:0,0:0:0:0:
382,176,117687,6,0,L|371:261,1,60.0000022888184,2|0,0:0|0:0,0:0:0:0:
489,269,118032,2,0,L|479:347,1,60.0000022888184,2|0,0:0|0:0,0:0:0:0:
362,312,118377,2,0,L|350:373,1,60.0000022888184,2|0,0:0|0:0,0:0:0:0:
238,327,118721,6,0,P|160:318|100:284,1,120.000004577637,2|0,0:0|0:0,0:0:0:0:
107,180,119239,2,0,L|30:295,1,120.000004577637,2|0,0:0|0:0,0:0:0:0:
21,160,119756,2,0,L|94:56,1,120.000004577637,2|0,0:0|0:0,0:0:0:0:
329,69,120445,6,0,L|258:58,1,60.0000022888184,2|0,0:0|0:0,0:0:0:0:
321,168,120790,2,0,L|249:157,1,60.0000022888184,2|0,0:0|0:0,0:0:0:0:
308,270,121135,2,0,L|240:260,1,60.0000022888184,2|0,0:0|0:0,0:0:0:0:
256,192,121480,12,0,132514,0:0:0:0:
