osu file format v14

[General]
AudioFilename: audio.mp3
AudioLeadIn: 0
PreviewTime: 66201
Countdown: 1
SampleSet: Soft
StackLeniency: 0.7
Mode: 0
LetterboxInBreaks: 0
WidescreenStoryboard: 0

[Editor]
DistanceSpacing: 2.5
BeatDivisor: 4
GridSize: 32
TimelineZoom: 1.8

[Metadata]
Title:Laurence
TitleUnicode:Laurence
Artist:Feint
ArtistUnicode:Feint
Creator:Karanos
Version:Insane
Source:
Tags:
BeatmapID:1501060
BeatmapSetID:710098

[Difficulty]
HPDrainRate:6
CircleSize:4
OverallDifficulty:8
ApproachRate:9
SliderMultiplier:1.8
SliderTickRate:1

[Events]
//Background and Video events
0,0,"child-tree-lake-boats-sky-clouds-colorful-mood-digital-art-a.jpg",0,0
//Break Periods
2,39008,43660
//Storyboard Layer 0 (Background)
//Storyboard Layer 1 (Fail)
//Storyboard Layer 2 (Pass)
//Storyboard Layer 3 (Foreground)
//Storyboard Sound Samples

[TimingPoints]
188,344.827209302326,4,1,1,25,1,0
2256,-166.666666666667,4,1,1,25,0,0
22256,-166.666666666667,4,1,1,45,0,0
38808,-200,4,1,1,45,0,0
44260,344.827209302326,4,2,2,35,1,0
44260,-166.666666666667,4,2,2,35,0,0
45962,344.827209302326,4,2,2,35,1,0
45962,-166.666666666667,4,2,2,35,0,0
60789,-133.333333333333,4,1,1,35,0,0
64927,-133.333333333333,4,1,1,20,0,0
66309,344.827209302326,4,1,1,20,1,0
66309,-90.9090909090909,4,1,1,70,0,1
110446,344.827209302326,4,2,2,45,1,0
110446,-133.333333333333,4,2,2,45,0,0
113204,-133.333333333333,4,2,2,30,0,0
118721,-133.333333333333,4,2,2,15,0,0
121480,-133.333333333333,4,2,2,5,0,0

[HitObjects]
322,89,188,5,0,0:0:0:0:
53,233,2256,6,0,B|144:199|144:199|451:312|453:59|172:28|272:340,1,647.99998022461
134,169,6739,5,0,0:0:0:0:
177,237,6912,1,0,0:0:0:0:
248,275,7084,2,0,B|317:293|392:278|392:278|329:240,1,215.999993408203
62,59,8463,5,0,0:0:0:0:
458,62,9498,5,0,0:0:0:0:
397,116,9670,1,0,0:0:0:0:
315,117,9843,2,0,B|249:102|167:120|167:120|251:158,1,215.999993408203
480,350,11222,1,0,0:0:0:0:
26,125,13981,6,0,B|87:177|222:130|222:130|241:210|191:237|138:238|105:212|106:171|106:116|117:66|139:34|188:19|240:20|291:47|291:47|285:96|340:127,1,755.999976928712
469,311,16739,6,0,B|442:226|352:180|352:180|326:299|326:299|245:222|206:210|183:220|170:233|159:253|149:272|135:292|150:321|175:341|209:356|260:346|273:304|272:243|270:175|250:138|216:108|180:182|136:176|109:94|145:44|193:17|262:53|240:112,1,971.999970336915
0,128,22256,6,0,B|96:224|224:96|224:96|256:224|256:224|352:96|480:192,1,647.99998022461
86,266,26394,6,0,B|146:307|207:263|207:263|323:310|323:310|279:261|265:237|244:202|294:77|399:124|439:213|399:310,1,647.99998022461
429,71,28808,5,0,0:0:0:0:
459,174,28981,1,0,0:0:0:0:
352,150,29153,2,0,P|320:212|372:298,1,161.999995056153
178,239,29843,2,0,P|210:301|158:387,1,161.999995056153
90,91,30533,6,0,B|117:74|167:88|167:88|187:72|197:65|207:63|225:63|235:68|246:79|258:94|262:113|253:141|232:152|216:151|191:143|173:131,1,269.999991760254
355,90,31567,5,0,0:0:0:0:
447,145,31739,1,0,0:0:0:0:
369,220,31912,2,0,B|314:239|256:237|256:237|290:200,1,161.999995056153
181,188,32601,2,0,L|160:364,1,161.999995056153
454,36,33291,6,0,B|366:92|429:201|429:201|506:222|506:222|527:313|492:350|432:364|382:356|367:308|358:296|343:277|305:269|260:276|260:276|245:333|156:349,1,755.999976928712
10,75,36050,6,0,B|21:143|94:157|94:157|125:90|125:90|201:94|255:105|283:88|293:56|303:-11|251:-15|212:-15|166:-15|122:17|199:166|358:218,1,755.999976928712
106,342,38808,5,0,0:0:0:0:
390,63,44260,6,0,P|408:114|400:179,1,107.999996704102,2|0,0:0|0:0,0:0:0:0:
358,267,44777,2,0,L|471:248,1,107.999996704102,2|0,0:0|0:0,0:0:0:0:
270,345,45294,2,0,L|382:354,1,107.999996704102,2|0,0:0|0:0,0:0:0:0:
191,262,45963,6,0,L|180:319,1,53.9999983520508,2|0,0:0|0:0,0:0:0:0:
246,167,46307,2,0,L|270:229,1,53.9999983520508,2|0,0:0|0:0,0:0:0:0:
187,75,46652,2,0,L|168:141,1,53.9999983520508,2|0,0:0|0:0,0:0:0:0:
366,75,46996,6,0,P|429:94|453:152,1,107.999996704102,2|0,0:0|0:0,0:0:0:0:
429,287,47536,2,0,P|492:268|516:210,1,107.999996704102,2|0,0:0|0:0,0:0:0:0:
356,190,48053,2,0,P|293:209|269:267,1,107.999996704102,2|0,0:0|0:0,0:0:0:0:
149,156,48720,6,0,L|134:212,1,53.9999983520508,2|0,0:0|0:0,0:0:0:0:
244,87,49065,2,0,L|276:148,1,53.9999983520508,2|0,0:0|0:0,0:0:0:0:
153,20,49410,2,0,L|122:85,1,53.9999983520508,2|0,0:0|0:0,0:0:0:0:
394,226,49755,6,0,P|429:195|430:125,1,107.999996704102,2|0,0:0|0:0,0:0:0:0:
336,7,50272,2,0,L|443:27,1,107.999996704102,2|0,0:0|0:0,0:0:0:0:
293,92,50789,2,0,L|178:78,1,107.999996704102,2|0,0:0|0:0,0:0:0:0:
79,196,51479,6,0,L|136:206,1,53.9999983520508,2|0,0:0|0:0,0:0:0:0:
231,334,51824,2,0,L|156:355,1,53.9999983520508,2|0,0:0|0:0,0:0:0:0:
340,236,52168,2,0,L|400:251,1,53.9999983520508,2|0,0:0|0:0,0:0:0:0:
490,378,52513,6,0,P|435:352|375:365,1,107.999996704102,2|0,0:0|0:0,0:0:0:0:
263,255,53030,2,0,P|320:265|376:238,1,107.999996704102,2|0,0:0|0:0,0:0:0:0:
499,153,53548,2,0,L|504:266,1,107.999996704102,2|0,0:0|0:0,0:0:0:0:
258,48,54237,6,0,L|305:109,1,53.9999983520508,2|0,0:0|0:0,0:0:0:0:
135,139,54582,2,0,L|188:105,1,53.9999983520508,2|0,0:0|0:0,0:0:0:0:
250,256,54927,2,0,L|212:207,1,53.9999983520508,2|0,0:0|0:0,0:0:0:0:
379,213,55272,6,0,P|428:178|350:159,1,161.999995056153,2|0,0:0|0:0,0:0:0:0:
319,300,55962,2,0,B|291:327|234:298|234:298|177:270|167:286,1,161.999995056153,2|0,0:0|0:0,0:0:0:0:
126,153,56651,2,0,B|86:257|86:257|58:207,1,161.999995056153,2|0,0:0|0:0,0:0:0:0:
79,51,57341,2,0,P|173:33|235:72,1,161.999995056153,2|0,0:0|0:0,0:0:0:0:
385,31,58030,2,0,B|413:116|413:116|385:201,1,161.999995056153,2|0,0:0|0:0,0:0:0:0:
269,293,58720,2,0,B|326:337|375:337|375:337|351:290,1,161.999995056153,2|0,0:0|0:0,0:0:0:0:
236,184,59410,2,0,P|172:205|149:291,1,161.999995056153,2|0,0:0|0:0,0:0:0:0:
36,171,60099,2,0,P|100:150|123:64,1,161.999995056153,2|0,0:0|0:0,0:0:0:0:
324,36,60789,6,0,L|352:97,1,67.5000025749208,2|0,0:0|0:0,0:0:0:0:
206,131,61134,2,0,L|269:97,1,67.5000025749208,2|0,0:0|0:0,0:0:0:0:
202,233,61479,2,0,L|289:227,1,67.5000025749208,2|0,0:0|0:0,0:0:0:0:
139,302,61824,2,0,L|217:345,1,67.5000025749208,2|0,0:0|0:0,0:0:0:0:
459,233,62168,6,0,L|442:305,1,67.5000025749208,2|0,0:0|0:0,0:0:0:0:
386,117,62513,2,0,L|349:182,1,67.5000025749208,2|0,0:0|0:0,0:0:0:0:
180,255,62858,2,0,L|218:193,1,67.5000025749208,2|0,0:0|0:0,0:0:0:0:
75,325,63203,2,0,L|80:238,1,67.5000025749208,2|0,0:0|0:0,0:0:0:0:
352,96,63548,5,0,0:0:0:0:
384,96,63893,1,0,0:0:0:0:
288,320,64927,5,0,0:0:0:0:
256,320,65272,1,0,0:0:0:0:
96,128,65789,5,0,0:0:0:0:
128,135,65875,1,0,0:0:0:0:
161,142,65961,1,0,0:0:0:0:
256,160,66134,1,0,0:0:0:0:
448,352,66309,6,0,L|416:256,1,99.0000030212403
256,160,66653,2,0,L|288:256,1,99.0000030212403,8|0,0:0|0:0,0:0:0:0:
88,250,66998,5,0,0:0:0:0:
151,62,67170,1,0,0:0:0:0:
222,247,67343,1,8,0:0:0:0:
48,151,67515,1,0,0:0:0:0:
92,170,67601,1,0,0:0:0:0:
141,169,67687,1,0,0:0:0:0:
26,330,67860,1,0,0:0:0:0:
223,318,68032,5,8,0:0:0:0:
318,144,68205,2,0,L|360:251,1,99.0000030212403
162,185,68550,2,0,L|120:78,1,99.0000030212403,0|8,0:0|0:0,0:0:0:0:
18,260,68895,1,0,0:0:0:0:
47,64,69067,6,0,P|93:26|154:14,1,99.0000030212403
319,74,69412,2,0,P|273:112|212:124,1,99.0000030212403,8|0,0:0|0:0,0:0:0:0:
430,165,69757,2,0,P|476:203|537:215,1,99.0000030212403
324,272,70101,1,8,0:0:0:0:
236,123,70274,1,0,0:0:0:0:
86,252,70446,5,0,0:0:0:0:
40,58,70619,1,0,0:0:0:0:
194,181,70791,1,8,0:0:0:0:
5,239,70963,1,0,0:0:0:0:
151,104,71136,1,0,0:0:0:0:
171,300,71308,1,0,0:0:0:0:
357,230,71481,1,8,0:0:0:0:
161,201,71653,1,0,0:0:0:0:
376,32,71826,6,0,P|447:74|479:121,1,99.0000030212403
261,212,72170,2,0,P|332:170|364:123,1,99.0000030212403,8|0,0:0|0:0,0:0:0:0:
218,2,72515,2,0,P|147:44|115:91,1,99.0000030212403
70,243,72860,1,8,0:0:0:0:
266,220,73032,1,0,0:0:0:0:
315,216,73118,1,0,0:0:0:0:
359,195,73204,1,0,0:0:0:0:
407,3,73377,5,0,0:0:0:0:
490,183,73550,1,8,0:0:0:0:
300,126,73722,1,0,0:0:0:0:
287,324,73895,2,0,P|366:327|397:306,1,99.0000030212403
210,218,74239,2,0,P|131:215|100:236,1,99.0000030212403,8|0,0:0|0:0,0:0:0:0:
224,57,74584,6,0,L|313:161,1,99.0000030212403
470,52,74929,2,0,L|340:52,1,99.0000030212403,8|0,0:0|0:0,0:0:0:0:
344,248,75274,5,0,0:0:0:0:
495,121,75446,1,0,0:0:0:0:
461,316,75619,1,8,0:0:0:0:
364,143,75791,1,0,0:0:0:0:
135,307,75963,5,8,0:0:0:0:
211,119,76136,1,0,0:0:0:0:
325,277,76308,1,0,0:0:0:0:
211,119,76481,1,8,0:0:0:0:
325,277,76653,1,0,0:0:0:0:
135,307,76826,1,0,0:0:0:0:
325,277,76998,1,8,0:0:0:0:
211,119,77170,1,0,0:0:0:0:
30,202,77343,6,0,P|64:247|125:251,1,99.0000030212403
136,59,77688,2,0,P|102:14|41:10,1,99.0000030212403,8|0,0:0|0:0,0:0:0:0:
188,157,78032,5,0,0:0:0:0:
343,33,78205,1,0,0:0:0:0:
379,227,78377,1,8,0:0:0:0:
261,66,78550,1,0,0:0:0:0:
281,112,78636,1,0,0:0:0:0:
301,157,78722,1,0,0:0:0:0:
104,185,78895,5,0,0:0:0:0:
277,279,79067,1,8,0:0:0:0:
88,337,79239,1,0,0:0:0:0:
205,176,79412,1,0,0:0:0:0:
327,330,79584,1,0,0:0:0:0:
135,275,79757,1,8,0:0:0:0:
306,176,79929,1,0,0:0:0:0:
380,358,80101,6,0,P|448:300|458:260,1,99.0000030212403
256,251,80446,2,0,P|188:193|178:153,1,99.0000030212403,8|0,0:0|0:0,0:0:0:0:
0,113,80791,2,0,P|68:171|78:211,1,99.0000030212403
64,327,81136,1,8,0:0:0:0:
185,186,81308,1,0,0:0:0:0:
315,335,81481,6,0,L|417:298,1,99.0000030212403
507,129,81826,2,0,L|405:92,1,99.0000030212403,8|0,0:0|0:0,0:0:0:0:
228,162,82170,2,0,L|330:199,1,99.0000030212403
187,48,82515,1,8,0:0:0:0:
112,232,82688,1,0,0:0:0:0:
300,289,82860,6,0,P|376:304|425:285,1,99.0000030212403
200,335,83205,2,0,L|228:204,1,99.0000030212403,8|0,0:0|0:0,0:0:0:0:
74,103,83550,2,0,L|46:234,1,99.0000030212403
182,48,83895,1,8,0:0:0:0:
338,84,84067,5,0,0:0:0:0:
366,123,84153,1,0,0:0:0:0:
369,172,84239,1,0,0:0:0:0:
217,300,84412,5,0,0:0:0:0:
414,285,84584,1,8,0:0:0:0:
269,148,84757,1,0,0:0:0:0:
315,340,84929,1,0,0:0:0:0:
174,201,85101,1,0,0:0:0:0:
51,357,85274,1,8,0:0:0:0:
232,279,85446,1,0,0:0:0:0:
95,134,85619,6,0,L|93:254,1,99.0000030212403
150,43,85963,2,0,P|101:26|18:56,1,99.0000030212403,8|0,0:0|0:0,0:0:0:0:
208,159,86308,2,0,L|293:58,1,99.0000030212403
291,280,86653,1,8,0:0:0:0:
425,133,86826,1,0,0:0:0:0:
487,320,86998,1,0,0:0:0:0:
336,191,87170,5,0,0:0:0:0:
336,191,87257,1,0,0:0:0:0:
336,191,87343,1,8,0:0:0:0:
402,377,87515,2,0,L|297:368,1,99.0000030212403
156,229,87860,5,0,0:0:0:0:
114,202,87946,1,0,0:0:0:0:
90,159,88032,1,8,0:0:0:0:
72,50,88205,1,0,0:0:0:0:
261,105,88377,6,0,P|319:142|382:141,1,99.0000030212403
507,45,88722,2,0,L|403:45,1,99.0000030212403,8|0,0:0|0:0,0:0:0:0:
350,235,89067,2,0,L|462:235,1,99.0000030212403
275,331,89412,1,8,0:0:0:0:
155,173,89584,1,0,0:0:0:0:
32,352,89757,5,0,0:0:0:0:
224,256,89929,1,0,0:0:0:0:
32,160,90101,1,8,0:0:0:0:
224,96,90274,1,0,0:0:0:0:
128,288,90446,1,0,0:0:0:0:
96,96,90619,1,0,0:0:0:0:
288,192,90791,1,8,0:0:0:0:
64,224,90963,1,0,0:0:0:0:
191,46,91136,6,0,P|246:73|312:74,1,99.0000030212403
462,201,91481,2,0,P|407:228|341:229,1,99.0000030212403,8|0,0:0|0:0,0:0:0:0:
169,146,91826,1,0,0:0:0:0:
277,333,91998,1,0,0:0:0:0:
63,292,92170,1,8,0:0:0:0:
262,203,92343,1,0,0:0:0:0:
141,22,92515,6,0,L|269:22,1,99.0000030212403
98,188,92860,2,0,L|-30:188,1,99.0000030212403,8|0,0:0|0:0,0:0:0:0:
191,292,93205,1,0,0:0:0:0:
323,119,93377,1,0,0:0:0:0:
419,315,93550,1,8,0:0:0:0:
241,189,93722,1,0,0:0:0:0:
451,130,93895,6,0,P|496:205|496:252,1,99.0000030212403
456,1,94239,2,0,P|371:22|337:55,1,99.0000030212403,8|0,0:0|0:0,0:0:0:0:
196,169,94584,2,0,L|314:231,1,99.0000030212403
147,44,94929,1,8,0:0:0:0:
90,253,95101,1,0,0:0:0:0:
261,117,95274,5,0,0:0:0:0:
373,303,95446,1,0,0:0:0:0:
448,98,95619,2,0,P|470:160|352:187,1,198.000006042481,8|0,0:0|0:0,0:0:0:0:
182,90,96136,6,0,L|220:199,1,99.0000030212403,0|8,0:0|0:0,0:0:0:0:
35,308,96481,2,0,P|126:321|167:291,1,99.0000030212403
38,120,96826,2,0,L|0:11,1,99.0000030212403,0|8,0:0|0:0,0:0:0:0:
222,38,97170,5,0,0:0:0:0:
341,220,97343,1,0,0:0:0:0:
125,192,97515,1,0,0:0:0:0:
320,93,97688,1,8,0:0:0:0:
322,310,97860,1,0,0:0:0:0:
448,96,98032,5,8,0:0:0:0:
416,288,98205,1,0,0:0:0:0:
448,96,98377,1,0,0:0:0:0:
288,160,98550,5,8,0:0:0:0:
512,224,98722,1,0,0:0:0:0:
288,160,98894,1,0,0:0:0:0:
160,288,99067,5,8,0:0:0:0:
224,64,99239,1,0,0:0:0:0:
160,288,99412,6,0,P|224:320|256:320,1,99.0000030212403
103,158,99757,2,0,P|39:126|7:126,1,99.0000030212403,8|0,0:0|0:0,0:0:0:0:
48,339,100101,2,0,L|41:227,1,99.0000030212403
258,209,100446,1,8,0:0:0:0:
181,4,100619,1,0,0:0:0:0:
367,114,100791,6,0,L|426:220,1,99.0000030212403
255,51,101136,1,8,0:0:0:0:
266,307,101308,1,0,0:0:0:0:
143,126,101481,1,0,0:0:0:0:
342,212,101653,1,0,0:0:0:0:
137,288,101826,1,8,0:0:0:0:
257,107,101998,1,0,0:0:0:0:
289,321,102170,6,0,P|352:312|401:268,1,99.0000030212403
194,179,102515,2,0,P|131:188|82:232,1,99.0000030212403,8|0,0:0|0:0,0:0:0:0:
247,43,102860,2,0,L|328:139,1,99.0000030212403
495,2,103205,1,8,0:0:0:0:
439,211,103377,1,0,0:0:0:0:
241,116,103550,5,0,0:0:0:0:
301,324,103722,1,0,0:0:0:0:
98,245,103894,1,8,0:0:0:0:
303,170,104067,1,0,0:0:0:0:
180,349,104239,1,0,0:0:0:0:
169,130,104412,1,0,0:0:0:0:
3,271,104584,1,8,0:0:0:0:
221,259,104757,1,0,0:0:0:0:
74,98,104929,6,0,P|134:75|206:82,1,99.0000030212403
385,92,105274,2,0,P|325:115|253:108,1,99.0000030212403,8|0,0:0|0:0,0:0:0:0:
234,327,105619,1,0,0:0:0:0:
437,250,105791,1,0,0:0:0:0:
232,175,105963,1,8,0:0:0:0:
376,338,106136,1,0,0:0:0:0:
389,121,106308,1,0,0:0:0:0:
216,254,106481,1,0,0:0:0:0:
431,278,106653,1,8,0:0:0:0:
256,146,106826,1,0,0:0:0:0:
67,253,106998,6,0,P|120:292|163:298,1,99.0000030212403
349,204,107343,2,0,L|393:324,1,99.0000030212403,8|0,0:0|0:0,0:0:0:0:
215,156,107688,2,0,L|171:36,1,99.0000030212403
397,81,108032,1,8,0:0:0:0:
275,262,108205,5,0,0:0:0:0:
480,331,108377,1,0,0:0:0:0:
392,130,108550,1,0,0:0:0:0:
332,338,108722,1,8,0:0:0:0:
214,155,108894,1,0,0:0:0:0:
414,241,109067,1,0,0:0:0:0:
197,256,109239,1,0,0:0:0:0:
148,257,109325,1,0,0:0:0:0:
105,280,109411,1,8,0:0:0:0:
236,62,109584,2,0,L|295:179,1,99.0000030212403
441,102,109929,1,0,0:0:0:0:
461,146,110015,1,0,0:0:0:0:
456,195,110101,1,8,0:0:0:0:
351,3,110274,1,0,0:0:0:0:
104,167,110446,6,0,P|134:235|211:253,1,135.000005149842,2|0,0:0|0:0,0:0:0:0:
394,185,110963,2,0,L|331:340,1,135.000005149842,2|0,0:0|0:0,0:0:0:0:
212,114,111481,2,0,L|246:39,1,67.5000025749208,2|0,0:0|0:0,0:0:0:0:
379,20,111826,2,0,L|413:95,1,67.5000025749208,2|0,0:0|0:0,0:0:0:0:
300,191,112170,2,0,L|379:161,1,67.5000025749208,2|0,0:0|0:0,0:0:0:0:
149,307,112515,6,0,P|195:336|279:322,1,135.000005149842,2|0,0:0|0:0,0:0:0:0:
51,124,113205,6,0,P|102:94|179:106,1,135.000005149842,2|0,0:0|0:0,0:0:0:0:
307,170,113722,2,0,P|339:107|318:48,1,135.000005149842,2|0,0:0|0:0,0:0:0:0:
468,43,114239,2,0,L|490:194,1,135.000005149842,2|0,0:0|0:0,0:0:0:0:
367,265,114929,6,0,L|441:285,1,67.5000025749208,2|0,0:0|0:0,0:0:0:0:
291,235,115273,2,0,L|271:321,1,67.5000025749208,2|0,0:0|0:0,0:0:0:0:
303,154,115618,2,2,L|218:140,1,67.5000025749208
119,235,115963,6,0,P|66:195|51:116,1,135.000005149842,2|0,0:0|0:0,0:0:0:0:
152,22,116481,2,2,L|-2:14,1,135.000005149842
195,111,116998,2,0,L|349:103,1,135.000005149842,2|0,0:0|0:0,0:0:0:0:
446,269,117688,6,0,L|430:194,1,67.5000025749208,2|0,0:0|0:0,0:0:0:0:
345,255,118032,2,0,L|361:332,1,67.5000025749208,2|0,0:0|0:0,0:0:0:0:
258,301,118377,2,0,L|247:231,1,67.5000025749208,2|0,0:0|0:0,0:0:0:0:
159,285,118722,6,0,P|112:269|75:184,1,135.000005149842,2|0,0:0|0:0,0:0:0:0:
108,65,119239,2,0,P|155:81|192:166,1,135.000005149842,2|0,0:0|0:0,0:0:0:0:
321,197,119757,2,0,P|274:213|237:298,1,135.000005149842,2|0,0:0|0:0,0:0:0:0:
455,127,120446,6,0,L|364:111,1,67.5000025749208,2|0,0:0|0:0,0:0:0:0:
361,246,120791,2,0,L|445:233,1,67.5000025749208,2|0,0:0|0:0,0:0:0:0:
466,365,121136,2,0,L|389:352,1,67.5000025749208,2|0,0:0|0:0,0:0:0:0:
256,192,121481,12,0,132515,0:0:0:0:
