osu file format v14

[General]
AudioFilename: audio.mp3
AudioLeadIn: 0
PreviewTime: 66201
Countdown: 1
SampleSet: None
StackLeniency: 0.7
Mode: 0
LetterboxInBreaks: 0
WidescreenStoryboard: 1

[Editor]
DistanceSpacing: 2.6
BeatDivisor: 4
GridSize: 32
TimelineZoom: 1.8

[Metadata]
Title:Laurence
TitleUnicode:Laurence
Artist:Feint
ArtistUnicode:Feint
Creator:Karanos
Version:Extra
Source:
Tags:
BeatmapID:1509721
BeatmapSetID:710098

[Difficulty]
HPDrainRate:6.5
CircleSize:4.2
OverallDifficulty:8.5
ApproachRate:9.1
SliderMultiplier:1.6
SliderTickRate:1

[Events]
//Background and Video events
0,0,"child-tree-lake-boats-sky-clouds-colorful-mood-digital-art-a.jpg",0,0
//Break Periods
//Storyboard Layer 0 (Background)
//Storyboard Layer 1 (Fail)
//Storyboard Layer 2 (Pass)
//Storyboard Layer 3 (Foreground)
//Storyboard Sound Samples

[TimingPoints]
188,344.827209302326,4,1,1,25,1,0
2256,-166.666666666667,4,1,1,25,0,0
22256,-166.666666666667,4,1,1,45,0,0
38808,-200,4,1,1,45,0,0
44260,344.827209302326,4,2,2,35,1,0
44260,-166.666666666667,4,2,2,35,0,0
45962,344.827209302326,4,2,2,35,1,0
45962,-166.666666666667,4,2,2,35,0,0
60789,-133.333333333333,4,1,1,35,0,0
64927,-133.333333333333,4,1,1,20,0,0
66309,344.827209302326,4,1,1,20,1,0
66309,-90.9090909090909,4,1,1,70,0,1
110446,344.827209302326,4,2,2,45,1,0
110446,-133.333333333333,4,2,2,45,0,0
113204,-133.333333333333,4,2,2,30,0,0
118721,-133.333333333333,4,2,2,15,0,0
121480,-133.333333333333,4,2,2,5,0,0

[HitObjects]
52,102,44260,6,0,P|82:128|91:193,1,95.9999970703126,2|0,0:0|0:0,0:0:0:0:
162,308,44777,2,0,L|189:206,1,95.9999970703126,2|0,0:0|0:0,0:0:0:0:
278,103,45294,2,0,L|305:205,1,95.9999970703126,2|0,0:0|0:0,0:0:0:0:
508,20,45962,6,0,L|488:85,1,47.9999985351563,2|0,0:0|0:0,0:0:0:0:
384,158,46306,2,0,L|364:223,1,47.9999985351563,2|0,0:0|0:0,0:0:0:0:
262,300,46651,2,0,L|242:365,1,47.9999985351563,2|0,0:0|0:0,0:0:0:0:
389,317,46996,6,0,L|494:288,1,95.9999970703126,2|0,0:0|0:0,0:0:0:0:
390,179,47513,2,0,B|380:125|380:125|342:82,1,95.9999970703126,2|0,0:0|0:0,0:0:0:0:
236,179,48030,2,0,P|180:183|133:207,1,95.9999970703126,2|0,0:0|0:0,0:0:0:0:
368,381,48720,6,0,L|336:321,1,47.9999985351563,2|0,0:0|0:0,0:0:0:0:
209,289,49065,2,0,L|178:342,1,47.9999985351563,2|0,0:0|0:0,0:0:0:0:
41,311,49410,2,0,L|1:253,1,47.9999985351563,2|0,0:0|0:0,0:0:0:0:
52,132,49755,6,0,B|82:103|82:103|114:87|150:92,1,95.9999970703126,2|0,0:0|0:0,0:0:0:0:
261,22,50272,2,0,L|305:120,1,95.9999970703126,2|0,0:0|0:0,0:0:0:0:
409,204,50789,2,0,L|453:106,1,95.9999970703126,2|0,0:0|0:0,0:0:0:0:
275,348,51479,6,0,L|216:343,1,47.9999985351563,2|0,0:0|0:0,0:0:0:0:
364,299,51824,2,0,L|423:294,1,47.9999985351563,2|0,0:0|0:0,0:0:0:0:
283,230,52168,2,0,L|224:225,1,47.9999985351563,2|0,0:0|0:0,0:0:0:0:
152,107,52513,6,0,P|112:115|70:153,1,95.9999970703126,2|0,0:0|0:0,0:0:0:0:
80,294,53030,2,0,L|176:254,1,95.9999970703126,2|0,0:0|0:0,0:0:0:0:
297,189,53548,2,0,L|201:149,1,95.9999970703126,2|0,0:0|0:0,0:0:0:0:
480,64,54237,6,0,L|480:130,1,47.9999985351563,2|0,0:0|0:0,0:0:0:0:
384,224,54582,2,0,L|384:158,1,47.9999985351563,2|0,0:0|0:0,0:0:0:0:
288,288,54927,2,0,L|288:354,1,47.9999985351563,2|0,0:0|0:0,0:0:0:0:
256,224,55272,6,0,L|97:224,1,143.999995605469,2|0,0:0|0:0,0:0:0:0:
256,160,55961,2,0,L|415:160,1,143.999995605469,2|0,0:0|0:0,0:0:0:0:
224,256,56651,2,0,L|65:256,1,143.999995605469,2|0,0:0|0:0,0:0:0:0:
288,128,57341,2,0,L|447:128,1,143.999995605469,2|0,0:0|0:0,0:0:0:0:
192,288,58030,2,0,L|33:288,1,143.999995605469,2|0,0:0|0:0,0:0:0:0:
320,96,58720,2,0,L|479:96,1,143.999995605469,2|0,0:0|0:0,0:0:0:0:
160,320,59410,2,0,L|1:320,1,143.999995605469,2|0,0:0|0:0,0:0:0:0:
352,64,60099,2,0,L|511:64,1,143.999995605469,2|0,0:0|0:0,0:0:0:0:
288,224,60789,6,0,L|288:288,1,60.0000022888184,2|0,0:0|0:0,0:0:0:0:
224,160,61134,2,0,L|224:96,1,60.0000022888184,2|0,0:0|0:0,0:0:0:0:
320,256,61479,2,0,L|320:320,1,60.0000022888184,2|0,0:0|0:0,0:0:0:0:
192,128,61824,2,0,L|192:64,1,60.0000022888184,2|0,0:0|0:0,0:0:0:0:
352,288,62168,2,0,L|352:352,1,60.0000022888184,2|0,0:0|0:0,0:0:0:0:
160,96,62513,2,0,L|160:32,1,60.0000022888184,2|0,0:0|0:0,0:0:0:0:
384,320,62858,2,0,L|384:384,1,60.0000022888184,2|0,0:0|0:0,0:0:0:0:
128,64,63203,2,0,L|128:0,1,60.0000022888184,2|0,0:0|0:0,0:0:0:0:
256,192,63548,5,0,0:0:0:0:
256,192,63893,1,0,0:0:0:0:
256,192,64927,5,0,0:0:0:0:
256,192,65272,1,0,0:0:0:0:
83,192,65789,5,0,0:0:0:0:
112,187,65875,1,0,0:0:0:0:
137,171,65961,1,0,0:0:0:0:
189,62,66134,1,0,0:0:0:0:
350,138,66309,6,0,P|337:199|344:262,1,88.000002685547
163,249,66653,2,0,P|176:310|169:373,1,88.000002685547,8|0,0:0|0:0,0:0:0:0:
229,162,66998,5,0,0:0:0:0:
328,307,67171,1,0,0:0:0:0:
406,149,67343,1,8,0:0:0:0:
263,251,67515,1,0,0:0:0:0:
248,75,67688,1,0,0:0:0:0:
406,149,67860,1,0,0:0:0:0:
230,164,68033,6,0,P|169:161|132:149,1,88.000002685547,8|0,0:0|0:0,0:0:0:0:
61,309,68377,2,0,P|122:306|159:294,1,88.000002685547
316,246,68722,2,0,L|341:360,1,88.000002685547,8|0,0:0|0:0,0:0:0:0:
461,208,69067,6,0,L|435:110,1,88.000002685547
265,84,69412,2,0,P|345:21|443:47,1,176.000005371094,8|0,0:0|0:0,0:0:0:0:
336,187,69929,2,0,L|218:204,1,88.000002685547,0|8,0:0|0:0,0:0:0:0:
74,225,70274,1,0,0:0:0:0:
126,57,70446,6,0,P|156:117|161:157,1,88.000002685547
104,304,70791,1,8,0:0:0:0:
272,251,70964,2,0,B|369:238|369:238|460:261,1,176.000005371094
471,82,71481,2,0,L|369:54,1,88.000002685547,8|0,0:0|0:0,0:0:0:0:
230,141,71826,5,0,0:0:0:0:
147,296,71998,1,0,0:0:0:0:
57,143,72171,1,8,0:0:0:0:
24,315,72343,1,0,0:0:0:0:
144,170,72515,1,0,0:0:0:0:
260,302,72688,1,0,0:0:0:0:
94,242,72860,1,8,0:0:0:0:
268,217,73033,5,0,0:0:0:0:
268,217,73119,1,0,0:0:0:0:
268,217,73205,2,0,P|326:220|383:209,2,88.000002685547,0|0|8,0:0|0:0|0:0,0:0:0:0:
391,91,73722,6,0,L|471:183,1,88.000002685547
276,116,74067,2,0,L|196:24,1,88.000002685547,0|8,0:0|0:0,0:0:0:0:
70,146,74412,1,0,0:0:0:0:
120,314,74584,6,0,P|184:320|235:302,1,88.000002685547
358,224,74929,2,0,B|407:352|407:352|358:332,1,176.000005371094,8|0,0:0|0:0,0:0:0:0:
228,204,75446,1,0,0:0:0:0:
397,109,75619,1,8,0:0:0:0:
220,30,75791,1,0,0:0:0:0:
72,89,75964,5,8,0:0:0:0:
151,332,76137,1,0,0:0:0:0:
183,120,76309,1,0,0:0:0:0:
40,301,76482,1,8,0:0:0:0:
253,232,76654,1,0,0:0:0:0:
0,179,76827,1,0,0:0:0:0:
151,332,76999,1,8,0:0:0:0:
72,89,77171,1,0,0:0:0:0:
265,146,77343,6,0,P|318:161|377:140,1,88.000002685547
493,298,77688,2,0,P|440:313|381:292,1,88.000002685547,8|0,0:0|0:0,0:0:0:0:
210,260,78033,2,0,L|236:355,1,88.000002685547
53,253,78377,5,8,0:0:0:0:
183,97,78550,1,0,0:0:0:0:
301,260,78722,1,0,0:0:0:0:
111,186,78895,1,0,0:0:0:0:
269,61,79067,1,8,0:0:0:0:
218,257,79240,1,0,0:0:0:0:
381,138,79412,6,0,L|416:243,1,88.000002685547
234,117,79757,2,0,L|203:22,1,88.000002685547,8|0,0:0|0:0,0:0:0:0:
33,139,80102,6,0,L|122:114,1,88.000002685547
212,293,80446,2,8,P|140:313|60:243,1,176.000005371094,8|0,0:0|0:0,0:0:0:0:
251,172,80964,1,0,0:0:0:0:
356,344,81136,1,8,0:0:0:0:
484,187,81308,1,0,0:0:0:0:
350,34,81481,6,0,L|361:140,1,88.000002685547
211,261,81826,2,0,B|175:204|223:156|223:156|166:131,1,176.000005371094,8|0,0:0|0:0,0:0:0:0:
5,9,82343,1,0,0:0:0:0:
41,207,82515,1,8,0:0:0:0:
147,34,82688,1,0,0:0:0:0:
309,154,82860,6,0,P|367:222|365:257,1,88.000002685547
182,304,83205,2,0,L|264:241,1,88.000002685547,8|0,0:0|0:0,0:0:0:0:
420,136,83550,2,0,L|338:73,1,88.000002685547
191,208,83895,1,8,0:0:0:0:
12,114,84067,5,0,0:0:0:0:
55,112,84153,1,0,0:0:0:0:
104,102,84240,2,0,P|151:85|186:52,1,88.000002685547
374,8,84584,2,0,L|426:121,1,88.000002685547,8|0,0:0|0:0,0:0:0:0:
339,277,84929,5,0,0:0:0:0:
500,153,85102,1,0,0:0:0:0:
482,354,85274,1,8,0:0:0:0:
385,176,85446,1,0,0:0:0:0:
248,326,85619,6,0,P|192:325|136:297,1,88.000002685547
109,118,85964,2,0,L|50:234,1,88.000002685547,8|0,0:0|0:0,0:0:0:0:
255,117,86308,2,0,L|215:38,1,88.000002685547
418,46,86653,1,8,0:0:0:0:
367,242,86826,1,0,0:0:0:0:
211,113,86998,1,0,0:0:0:0:
129,299,87171,5,0,0:0:0:0:
129,299,87257,1,0,0:0:0:0:
129,299,87343,1,8,0:0:0:0:
249,137,87515,1,0,0:0:0:0:
305,332,87688,1,0,0:0:0:0:
416,163,87860,5,0,0:0:0:0:
416,163,87946,1,0,0:0:0:0:
416,163,88033,1,8,0:0:0:0:
245,54,88205,1,0,0:0:0:0:
443,19,88377,6,0,P|486:63|503:107,1,88.000002685547
344,220,88722,2,0,B|389:243|389:243|450:255,1,88.000002685547,8|0,0:0|0:0,0:0:0:0:
206,182,89067,5,0,0:0:0:0:
26,324,89240,1,0,0:0:0:0:
44,96,89412,1,8,0:0:0:0:
168,287,89584,1,0,0:0:0:0:
204,60,89757,6,0,P|271:75|316:63,1,88.000002685547
488,186,90102,2,0,L|420:253,1,88.000002685547,8|0,0:0|0:0,0:0:0:0:
201,291,90446,2,0,L|283:215,1,88.000002685547
48,156,90791,1,8,0:0:0:0:
273,114,90964,1,0,0:0:0:0:
249,341,91136,6,0,P|302:335|333:306,1,88.000002685547
106,250,91481,2,0,L|53:329,1,88.000002685547,8|0,0:0|0:0,0:0:0:0:
257,210,91826,2,0,L|310:131,1,88.000002685547
495,7,92171,1,8,0:0:0:0:
486,235,92343,1,0,0:0:0:0:
268,304,92515,6,0,P|203:303|150:285,1,88.000002685547
58,103,92860,2,0,L|13:278,1,176.000005371094,8|0,0:0|0:0,0:0:0:0:
190,126,93377,1,0,0:0:0:0:
368,270,93550,1,8,0:0:0:0:
299,52,93722,1,0,0:0:0:0:
231,271,93895,6,0,P|272:329|325:340,1,88.000002685547
408,141,94240,2,0,L|341:225,1,88.000002685547,8|0,0:0|0:0,0:0:0:0:
127,174,94584,2,0,L|194:90,1,88.000002685547
167,334,94929,1,8,0:0:0:0:
17,160,95102,1,0,0:0:0:0:
245,154,95274,5,0,0:0:0:0:
342,360,95446,1,0,0:0:0:0:
425,145,95619,1,8,0:0:0:0:
235,272,95791,1,0,0:0:0:0:
463,290,95964,1,0,0:0:0:0:
359,86,96136,5,0,0:0:0:0:
152,183,96308,2,0,P|105:193|61:174,1,88.000002685547,8|0,0:0|0:0,0:0:0:0:
259,52,96653,2,0,L|287:171,1,88.000002685547
443,297,96998,2,0,L|471:178,1,88.000002685547,8|0,0:0|0:0,0:0:0:0:
242,275,97343,2,0,L|214:394,1,88.000002685547
22,246,97688,1,8,0:0:0:0:
230,152,97860,1,0,0:0:0:0:
32,160,98033,5,8,0:0:0:0:
192,0,98205,1,0,0:0:0:0:
256,224,98377,1,0,0:0:0:0:
192,0,98550,1,8,0:0:0:0:
32,160,98722,1,0,0:0:0:0:
256,224,98895,1,0,0:0:0:0:
32,160,99067,1,8,0:0:0:0:
192,0,99239,1,0,0:0:0:0:
378,133,99412,6,0,L|410:214,1,88.000002685547
189,279,99757,2,0,P|274:326|363:326,1,176.000005371094,8|0,0:0|0:0,0:0:0:0:
234,130,100274,2,0,L|122:130,1,88.000002685547,0|8,0:0|0:0,0:0:0:0:
346,17,100619,2,0,L|458:17,1,88.000002685547
371,237,100964,5,0,0:0:0:0:
506,53,101136,1,8,0:0:0:0:
484,280,101308,1,0,0:0:0:0:
369,81,101481,1,0,0:0:0:0:
281,291,101653,1,0,0:0:0:0:
464,153,101826,1,8,0:0:0:0:
238,117,101998,1,0,0:0:0:0:
56,257,102171,6,0,P|94:290|163:295,1,88.000002685547
112,71,102515,2,0,L|257:178,1,176.000005371094,8|0,0:0|0:0,0:0:0:0:
445,46,103033,5,0,0:0:0:0:
378,264,103205,1,8,0:0:0:0:
282,56,103377,1,0,0:0:0:0:
474,180,103550,5,0,0:0:0:0:
261,264,103722,1,0,0:0:0:0:
346,51,103895,1,8,0:0:0:0:
403,271,104067,1,0,0:0:0:0:
495,62,104239,1,0,0:0:0:0:
274,127,104412,1,0,0:0:0:0:
471,240,104584,1,8,0:0:0:0:
248,295,104757,1,0,0:0:0:0:
109,113,104929,6,0,P|92:188|111:225,1,88.000002685547
322,218,105274,2,0,P|339:293|297:391,1,176.000005371094,8|0,0:0|0:0,0:0:0:0:
487,245,105791,2,0,L|419:144,1,88.000002685547,0|8,0:0|0:0,0:0:0:0:
256,30,106136,2,0,L|188:131,1,88.000002685547
83,296,106481,5,0,0:0:0:0:
290,201,106653,1,8,0:0:0:0:
144,378,106826,1,0,0:0:0:0:
157,150,106998,1,0,0:0:0:0:
275,346,107171,1,0,0:0:0:0:
302,119,107343,1,8,0:0:0:0:
176,309,107515,1,0,0:0:0:0:
400,259,107688,6,0,P|447:245|472:205,1,88.000002685547
294,65,108033,2,0,L|266:263,1,176.000005371094,8|0,0:0|0:0,0:0:0:0:
81,107,108550,5,0,0:0:0:0:
153,323,108722,1,8,0:0:0:0:
198,97,108895,1,0,0:0:0:0:
43,265,109067,1,0,0:0:0:0:
271,258,109239,5,0,0:0:0:0:
271,258,109326,1,0,0:0:0:0:
271,258,109412,1,8,0:0:0:0:
85,125,109584,5,0,0:0:0:0:
309,79,109757,1,0,0:0:0:0:
437,267,109929,5,0,0:0:0:0:
437,267,110015,1,0,0:0:0:0:
437,267,110102,1,8,0:0:0:0:
220,338,110274,5,0,0:0:0:0:
98,94,110446,6,0,P|53:169|62:226,1,120.000004577637,2|0,0:0|0:0,0:0:0:0:
207,225,110963,2,0,P|252:300|243:357,1,120.000004577637,2|0,0:0|0:0,0:0:0:0:
406,311,111480,2,0,L|362:186,1,120.000004577637,2|0,0:0|0:0,0:0:0:0:
76,315,112170,6,0,L|137:303,1,60.0000022888184,2|0,0:0|0:0,0:0:0:0:
231,181,112514,2,0,L|205:249,1,60.0000022888184,2|0,0:0|0:0,0:0:0:0:
269,381,112859,2,0,L|218:322,1,60.0000022888184,2|0,0:0|0:0,0:0:0:0:
396,72,113204,6,0,P|392:117|325:158,1,120.000004577637,2|0,0:0|0:0,0:0:0:0:
214,57,113721,2,0,L|183:180,1,120.000004577637,2|0,0:0|0:0,0:0:0:0:
27,160,114239,2,0,L|58:283,1,120.000004577637,2|0,0:0|0:0,0:0:0:0:
365,321,114928,6,0,L|289:300,1,60.0000022888184,2|0,0:0|0:0,0:0:0:0:
382,167,115273,2,0,L|450:143,1,60.0000022888184,2|0,0:0|0:0,0:0:0:0:
347,19,115618,2,0,L|284:9,1,60.0000022888184,2|0,0:0|0:0,0:0:0:0:
216,148,115963,6,0,P|161:186|104:175,1,120.000004577637,2|0,0:0|0:0,0:0:0:0:
210,300,116480,2,0,P|265:338|322:327,1,120.000004577637,2|0,0:0|0:0,0:0:0:0:
386,191,116997,2,0,L|436:321,1,120.000004577637,2|0,0:0|0:0,0:0:0:0:
121,242,117687,6,0,L|56:254,1,60.0000022888184,2|0,0:0|0:0,0:0:0:0:
174,144,118032,2,0,L|109:156,1,60.0000022888184,2|0,0:0|0:0,0:0:0:0:
224,42,118377,2,0,L|159:54,1,60.0000022888184,2|0,0:0|0:0,0:0:0:0:
273,164,118721,6,0,P|323:207|398:201,1,120.000004577637,2|0,0:0|0:0,0:0:0:0:
361,52,119239,2,0,P|411:9|486:15,1,120.000004577637,2|0,0:0|0:0,0:0:0:0:
504,157,119756,2,0,L|457:283,1,120.000004577637,2|0,0:0|0:0,0:0:0:0:
152,306,120445,6,0,L|117:386,1,60.0000022888184,2|0,0:0|0:0,0:0:0:0:
42,229,120790,2,0,L|77:309,1,60.0000022888184,2|0,0:0|0:0,0:0:0:0:
158,157,121135,2,0,L|123:237,1,60.0000022888184,2|0,0:0|0:0,0:0:0:0:
256,192,121480,12,0,132514,0:0:0:0:
