osu file format v14

[General]
AudioFilename: audio.mp3
AudioLeadIn: 0
PreviewTime: 66201
Countdown: 1
SampleSet: None
StackLeniency: 0.7
Mode: 0
LetterboxInBreaks: 0
WidescreenStoryboard: 1

[Editor]
DistanceSpacing: 3
BeatDivisor: 4
GridSize: 32
TimelineZoom: 1.8

[Metadata]
Title:Laurence
TitleUnicode:Laurence
Artist:Feint
ArtistUnicode:Feint
Creator:Karanos
Version:Divine
Source:
Tags:
BeatmapID:1510886
BeatmapSetID:710098

[Difficulty]
HPDrainRate:7
CircleSize:3.8
OverallDifficulty:8.7
ApproachRate:9.2
SliderMultiplier:1.6
SliderTickRate:1

[Events]
//Background and Video events
0,0,"child-tree-lake-boats-sky-clouds-colorful-mood-digital-art-a.jpg",0,0
//Break Periods
2,39008,43690
//Storyboard Layer 0 (Background)
//Storyboard Layer 1 (Fail)
//Storyboard Layer 2 (Pass)
//Storyboard Layer 3 (Foreground)
//Storyboard Sound Samples

[TimingPoints]
188,344.827209302326,4,1,1,25,1,0
2256,-166.666666666667,4,1,1,25,0,0
22256,-166.666666666667,4,1,1,45,0,0
38808,-200,4,1,1,45,0,0
44260,344.827209302326,4,2,2,35,1,0
44260,-166.666666666667,4,2,2,35,0,0
45962,344.827209302326,4,2,2,35,1,0
45962,-166.666666666667,4,2,2,35,0,0
60789,-133.333333333333,4,1,1,35,0,0
64927,-133.333333333333,4,1,1,20,0,0
66309,344.827209302326,4,1,1,20,1,0
66309,-90.9090909090909,4,1,1,70,0,1
110446,344.827209302326,4,2,2,45,1,0
110446,-133.333333333333,4,2,2,45,0,0
113204,-133.333333333333,4,2,2,30,0,0
118721,-133.333333333333,4,2,2,15,0,0
121480,-133.333333333333,4,2,2,5,0,0

[HitObjects]
174,226,188,5,0,0:0:0:0:
401,304,2256,6,0,B|426:297|426:297|459:212|416:128|288:96|256:224|384:256|452:131|452:131|374:77|425:19|425:19|480:32,1,575.999982421876
118,185,6739,5,0,0:0:0:0:
155,305,6912,1,0,0:0:0:0:
118,185,7084,2,0,B|97:126|105:89|105:89|173:181,1,191.999994140625
310,164,8463,1,0,0:0:0:0:
300,329,9498,5,0,0:0:0:0:
397,251,9670,1,0,0:0:0:0:
300,329,9843,2,0,B|268:355|195:369|195:369|243:301,1,191.999994140625
120,204,11222,1,0,0:0:0:0:
352,96,13981,6,0,B|384:160|320:256|224:256|224:160|288:128|384:192|416:256|416:256|480:192|512:192|544:128|480:96|448:128|448:192|480:256|480:320|480:320|416:352,1,767.999976562501
64,320,22256,6,0,B|128:384|128:384|192:192|128:160|64:224|96:288|192:288|256:256|256:256|288:192|256:128,1,575.999982421876
192,32,26394,5,0,0:0:0:0:
512,224,28808,5,0,0:0:0:0:
448,352,28981,1,0,0:0:0:0:
320,288,29153,2,0,P|320:192|384:224,1,191.999994140625
448,96,30532,1,0,0:0:0:0:
32,128,31567,5,0,0:0:0:0:
64,256,31739,1,0,0:0:0:0:
160,160,31912,2,0,B|224:128|288:192|288:192|288:128,1,191.999994140625
288,0,33291,1,0,0:0:0:0:
13,253,36050,6,0,B|40:283|40:283|125:203|203:292|192:323|159:331|123:320|100:292|97:190|124:149|124:149|222:167|247:145|249:117|223:85|191:83|173:115|171:175|228:217,1,671.999979492188
384,354,38808,5,0,0:0:0:0:
384,32,44260,6,0,P|352:64|352:128,1,95.9999970703126,2|0,0:0|0:0,0:0:0:0:
256,160,44777,2,0,P|288:192|288:256,1,95.9999970703126,2|0,0:0|0:0,0:0:0:0:
192,288,45294,2,0,P|160:320|160:384,1,95.9999970703126,2|0,0:0|0:0,0:0:0:0:
31,128,45962,6,0,L|8:178,1,47.9999985351563,2|0,0:0|0:0,0:0:0:0:
138,190,46306,2,0,L|86:171,1,47.9999985351563,2|0,0:0|0:0,0:0:0:0:
161,63,46651,2,0,L|139:126,1,47.9999985351563,2|0,0:0|0:0,0:0:0:0:
289,104,46996,6,0,P|351:121|376:153,1,95.9999970703126,2|0,0:0|0:0,0:0:0:0:
464,253,47513,2,0,L|361:263,1,95.9999970703126,2|0,0:0|0:0,0:0:0:0:
269,367,48030,2,0,L|375:377,1,95.9999970703126,2|0,0:0|0:0,0:0:0:0:
257,279,48720,6,0,L|199:273,1,47.9999985351563,2|0,0:0|0:0,0:0:0:0:
75,219,49065,2,0,L|134:226,1,47.9999985351563,2|0,0:0|0:0,0:0:0:0:
18,126,49409,2,0,L|85:131,1,47.9999985351563,2|0,0:0|0:0,0:0:0:0:
192,32,49755,6,0,P|152:25|93:37,1,95.9999970703126,2|0,0:0|0:0,0:0:0:0:
256,128,50272,2,0,P|296:121|355:133,1,95.9999970703126,2|0,0:0|0:0,0:0:0:0:
448,64,50789,2,0,L|467:169,1,95.9999970703126,2|0,0:0|0:0,0:0:0:0:
255,357,51479,6,0,L|314:342,1,47.9999985351563,2|0,0:0|0:0,0:0:0:0:
442,315,51824,2,0,L|461:365,1,47.9999985351563,2|0,0:0|0:0,0:0:0:0:
367,249,52168,2,0,L|355:307,1,47.9999985351563,2|0,0:0|0:0,0:0:0:0:
246,203,52513,6,0,P|192:171|152:175,1,95.9999970703126,2|0,0:0|0:0,0:0:0:0:
26,226,53030,2,0,L|49:119,1,95.9999970703126,2|0,0:0|0:0,0:0:0:0:
135,246,53548,2,0,L|118:350,1,95.9999970703126,2|0,0:0|0:0,0:0:0:0:
297,114,54237,6,0,L|228:117,1,47.9999985351563,2|0,0:0|0:0,0:0:0:0:
374,187,54582,2,0,L|325:205,1,47.9999985351563,2|0,0:0|0:0,0:0:0:0:
473,198,54927,2,0,L|447:255,1,47.9999985351563,2|0,0:0|0:0,0:0:0:0:
340,332,55272,6,0,P|271:330|210:281,1,143.999995605469,2|0,0:0|0:0,0:0:0:0:
80,230,55961,2,0,P|116:171|189:142,1,143.999995605469,2|0,0:0|0:0,0:0:0:0:
302,61,56651,2,0,P|334:121|322:199,1,143.999995605469,2|0,0:0|0:0,0:0:0:0:
322,338,57341,2,0,P|256:311|218:251,1,143.999995605469,2|0,0:0|0:0,0:0:0:0:
94,178,58030,6,0,L|242:123,1,143.999995605469,2|0,0:0|0:0,0:0:0:0:
324,19,58720,2,0,L|379:167,1,143.999995605469,2|0,0:0|0:0,0:0:0:0:
488,242,59410,2,0,L|340:297,1,143.999995605469,2|0,0:0|0:0,0:0:0:0:
265,383,60099,2,0,L|215:249,1,143.999995605469,2|0,0:0|0:0,0:0:0:0:
32,192,60789,6,0,P|61:171|100:157,1,60.0000022888184,2|0,0:0|0:0,0:0:0:0:
0,320,61134,2,0,P|29:299|68:285,1,60.0000022888184,2|0,0:0|0:0,0:0:0:0:
256,160,61479,6,0,P|227:139|188:125,1,60.0000022888184,2|0,0:0|0:0,0:0:0:0:
288,288,61824,2,0,P|259:267|220:253,1,60.0000022888184,2|0,0:0|0:0,0:0:0:0:
370,137,62168,6,0,L|407:209,1,60.0000022888184,2|0,0:0|0:0,0:0:0:0:
479,29,62513,2,0,L|449:89,1,60.0000022888184,2|0,0:0|0:0,0:0:0:0:
468,262,62858,6,0,B|437:276|437:276|398:281,1,60.0000022888184,2|0,0:0|0:0,0:0:0:0:
237,329,63203,2,0,B|268:343|268:343|307:348,1,60.0000022888184,2|0,0:0|0:0,0:0:0:0:
135,258,63548,5,0,0:0:0:0:
442,69,63893,1,0,0:0:0:0:
82,72,64927,5,0,0:0:0:0:
406,227,65272,1,0,0:0:0:0:
52,293,65789,5,0,0:0:0:0:
103,309,65875,1,0,0:0:0:0:
156,308,65961,1,8,0:0:0:0:
259,275,66134,1,0,0:0:0:0:
345,139,66309,6,0,P|332:95|211:35,1,176.000005371094,0|8,0:0|0:0,0:0:0:0:
25,207,66826,2,0,P|74:226|127:215,1,88.000002685547
372,205,67171,2,0,L|343:301,1,88.000002685547,0|8,0:0|0:0,0:0:0:0:
465,51,67515,5,0,0:0:0:0:
473,94,67602,1,0,0:0:0:0:
467,137,67688,1,0,0:0:0:0:
301,294,67860,5,0,0:0:0:0:
153,118,68033,1,8,0:0:0:0:
43,318,68205,1,0,0:0:0:0:
251,225,68377,1,0,0:0:0:0:
35,147,68550,1,0,0:0:0:0:
229,27,68722,1,8,0:0:0:0:
178,250,68895,1,0,0:0:0:0:
400,198,69067,6,0,P|354:229|304:232,1,88.000002685547
119,126,69412,2,0,L|87:312,1,176.000005371094,8|0,0:0|0:0,0:0:0:0:
272,160,69929,5,0,0:0:0:0:
71,48,70102,2,0,P|114:10|170:1,1,88.000002685547,8|0,0:0|0:0,0:0:0:0:
366,46,70446,5,0,0:0:0:0:
507,226,70619,1,0,0:0:0:0:
279,247,70791,2,0,B|217:234|172:176|172:176|220:184,1,176.000005371094,8|0,0:0|0:0,0:0:0:0:
64,352,71308,5,0,0:0:0:0:
288,320,71481,1,8,0:0:0:0:
64,256,71653,1,0,0:0:0:0:
288,224,71826,6,0,L|384:224,1,88.000002685547
183,98,72171,2,0,L|-28:98,1,176.000005371094,8|0,0:0|0:0,0:0:0:0:
72,318,72688,2,0,P|108:357|157:363,1,88.000002685547,0|8,0:0|0:0,0:0:0:0:
363,310,73033,5,0,0:0:0:0:
402,291,73119,1,0,0:0:0:0:
433,260,73205,1,0,0:0:0:0:
336,52,73377,1,0,0:0:0:0:
237,259,73550,1,8,0:0:0:0:
440,156,73722,1,0,0:0:0:0:
211,133,73895,2,0,P|141:130|103:147,1,88.000002685547
20,339,74240,1,8,0:0:0:0:
222,232,74412,1,0,0:0:0:0:
34,101,74584,6,0,P|69:69|128:54,1,88.000002685547
331,7,74929,2,0,L|303:100,1,88.000002685547,8|0,0:0|0:0,0:0:0:0:
426,286,75274,2,0,L|471:184,1,88.000002685547
247,288,75619,1,8,0:0:0:0:
193,66,75791,1,0,0:0:0:0:
390,201,75964,5,8,0:0:0:0:
171,325,76136,1,0,0:0:0:0:
68,95,76308,1,0,0:0:0:0:
390,201,76481,1,8,0:0:0:0:
171,325,76653,1,0,0:0:0:0:
68,95,76825,1,0,0:0:0:0:
390,201,76998,1,8,0:0:0:0:
171,325,77170,1,0,0:0:0:0:
73,98,77343,6,0,P|27:72|-8:35,1,88.000002685547
244,53,77688,2,0,P|327:88|366:188,1,176.000005371094,8|0,0:0|0:0,0:0:0:0:
248,358,78205,1,0,0:0:0:0:
464,285,78377,1,8,0:0:0:0:
236,251,78550,5,0,0:0:0:0:
192,245,78636,1,0,0:0:0:0:
152,227,78722,1,0,0:0:0:0:
23,37,78895,5,0,0:0:0:0:
45,247,79067,2,0,B|60:375|60:375|97:303,1,176.000005371094,8|0,0:0|0:0,0:0:0:0:
175,123,79584,1,0,0:0:0:0:
395,57,79757,2,0,P|455:73|496:95,1,88.000002685547,8|0,0:0|0:0,0:0:0:0:
452,312,80102,6,0,P|392:296|351:274,1,88.000002685547
211,119,80446,2,0,P|175:173|170:299,1,176.000005371094,8|0,0:0|0:0,0:0:0:0:
11,108,80964,1,0,0:0:0:0:
231,50,81136,2,0,L|322:30,1,88.000002685547,8|0,0:0|0:0,0:0:0:0:
494,176,81481,5,0,0:0:0:0:
330,334,81653,1,0,0:0:0:0:
339,104,81826,1,8,0:0:0:0:
461,296,81998,1,0,0:0:0:0:
233,262,82171,1,0,0:0:0:0:
421,118,82343,5,0,0:0:0:0:
299,321,82515,2,0,P|239:364|203:359,1,88.000002685547,8|0,0:0|0:0,0:0:0:0:
53,201,82860,6,0,L|12:284,1,88.000002685547
192,121,83205,2,0,P|138:52|32:49,1,176.000005371094,8|0,0:0|0:0,0:0:0:0:
291,10,83722,1,0,0:0:0:0:
395,224,83895,2,0,L|436:306,1,88.000002685547,8|0,0:0|0:0,0:0:0:0:
434,302,84153,1,0,0:0:0:0:
434,302,84240,5,0,0:0:0:0:
203,249,84412,1,0,0:0:0:0:
389,102,84584,2,0,P|354:57|299:40,1,88.000002685547,8|0,0:0|0:0,0:0:0:0:
117,157,84929,1,0,0:0:0:0:
346,222,85102,1,0,0:0:0:0:
212,25,85274,2,0,P|159:26|103:53,1,88.000002685547,8|0,0:0|0:0,0:0:0:0:
39,259,85619,6,0,L|5:359,1,88.000002685547
247,313,85964,2,0,L|299:132,1,176.000005371094,8|0,0:0|0:0,0:0:0:0:
436,336,86481,1,0,0:0:0:0:
382,101,86653,1,8,0:0:0:0:
327,333,86826,1,0,0:0:0:0:
479,151,86998,1,0,0:0:0:0:
245,201,87171,5,0,0:0:0:0:
201,207,87257,1,0,0:0:0:0:
157,204,87343,1,8,0:0:0:0:
14,15,87515,1,0,0:0:0:0:
33,252,87688,1,0,0:0:0:0:
228,118,87860,5,0,0:0:0:0:
263,91,87946,1,0,0:0:0:0:
298,65,88032,1,8,0:0:0:0:
405,278,88205,1,0,0:0:0:0:
169,304,88377,6,0,P|89:295|50:277,1,88.000002685547
293,181,88722,2,0,L|311:359,1,176.000005371094,8|0,0:0|0:0,0:0:0:0:
492,186,89240,1,0,0:0:0:0:
284,53,89412,2,0,P|233:38|182:45,1,88.000002685547,8|0,0:0|0:0,0:0:0:0:
72,252,89757,5,0,0:0:0:0:
294,147,89929,1,0,0:0:0:0:
55,81,90102,1,8,0:0:0:0:
191,285,90274,1,0,0:0:0:0:
186,39,90446,1,0,0:0:0:0:
13,215,90619,1,0,0:0:0:0:
258,230,90791,2,0,P|315:246|377:233,1,88.000002685547,8|0,0:0|0:0,0:0:0:0:
460,26,91136,6,0,L|515:112,1,88.000002685547
266,155,91481,2,0,L|180:-6,1,176.000005371094,8|0,0:0|0:0,0:0:0:0:
57,212,91998,1,0,0:0:0:0:
254,360,92171,2,0,P|311:358|361:346,1,88.000002685547,8|0,0:0|0:0,0:0:0:0:
399,113,92515,5,0,0:0:0:0:
489,343,92688,1,0,0:0:0:0:
256,261,92860,2,0,P|203:230|178:187,2,88.000002685547,8|0|0,0:0|0:0|0:0,0:0:0:0:
300,17,93377,5,0,0:0:0:0:
75,121,93550,1,8,0:0:0:0:
309,195,93722,1,0,0:0:0:0:
84,297,93895,6,0,P|18:282|-11:259,1,88.000002685547
236,348,94240,2,0,P|288:344|395:262,1,176.000005371094,8|0,0:0|0:0,0:0:0:0:
376,27,94757,1,0,0:0:0:0:
481,248,94929,2,0,L|516:340,1,88.000002685547,8|0,0:0|0:0,0:0:0:0:
299,203,95274,5,0,0:0:0:0:
68,118,95446,1,0,0:0:0:0:
102,362,95619,2,0,L|167:189,1,176.000005371094,8|0,0:0|0:0,0:0:0:0:
338,22,96136,1,0,0:0:0:0:
359,266,96308,2,0,B|401:158,1,88.000002685547,8|0,0:0|0:0,0:0:0:0:
152,119,96653,6,0,P|101:84|46:87,1,88.000002685547
150,316,96998,2,0,P|201:351|318:351,1,176.000005371094,8|0,0:0|0:0,0:0:0:0:
305,106,97515,1,0,0:0:0:0:
443,310,97688,1,8,0:0:0:0:
499,70,97860,1,0,0:0:0:0:
124,239,98033,5,8,0:0:0:0:
280,54,98205,1,0,0:0:0:0:
363,281,98377,1,0,0:0:0:0:
116,196,98550,5,8,0:0:0:0:
321,68,98722,1,0,0:0:0:0:
330,310,98894,1,0,0:0:0:0:
121,153,99067,5,8,0:0:0:0:
356,94,99239,1,0,0:0:0:0:
288,332,99412,6,0,P|224:361|172:358,1,88.000002685547
31,188,99757,2,0,P|96:241|200:237,1,176.000005371094,8|0,0:0|0:0,0:0:0:0:
274,12,100274,1,0,0:0:0:0:
401,221,100446,2,0,L|428:125,1,88.000002685547,8|0,0:0|0:0,0:0:0:0:
359,374,100791,5,0,0:0:0:0:
223,166,100964,1,0,0:0:0:0:
41,331,101136,2,0,B|19:238|19:238|40:144,1,176.000005371094,8|0,0:0|0:0,0:0:0:0:
242,22,101653,1,0,0:0:0:0:
191,263,101826,2,0,P|241:280|309:274,1,88.000002685547,8|0,0:0|0:0,0:0:0:0:
427,85,102171,6,0,L|476:184,1,88.000002685547
220,145,102515,2,0,P|274:179|387:157,1,176.000005371094,8|0,0:0|0:0,0:0:0:0:
171,297,103033,1,0,0:0:0:0:
13,108,103205,2,0,L|32:225,1,88.000002685547,8|0,0:0|0:0,0:0:0:0:
185,5,103550,5,0,0:0:0:0:
410,103,103722,1,0,0:0:0:0:
188,213,103895,1,8,0:0:0:0:
328,11,104067,1,0,0:0:0:0:
379,251,104239,1,0,0:0:0:0:
150,346,104412,1,0,0:0:0:0:
301,152,104584,2,0,L|355:69,1,88.000002685547,8|0,0:0|0:0,0:0:0:0:
124,182,104929,6,0,L|62:264,1,88.000002685547
280,383,105274,2,0,L|373:228,1,176.000005371094,8|0,0:0|0:0,0:0:0:0:
125,332,105791,1,0,0:0:0:0:
290,125,105964,2,0,P|334:83|390:63,1,88.000002685547,8|0,0:0|0:0,0:0:0:0:
95,93,106308,5,0,0:0:0:0:
296,264,106481,1,0,0:0:0:0:
34,291,106653,2,0,P|94:336|215:333,1,176.000005371094,8|0,0:0|0:0,0:0:0:0:
300,98,107171,5,0,0:0:0:0:
192,341,107343,1,8,0:0:0:0:
452,301,107515,1,0,0:0:0:0:
205,202,107688,6,0,P|139:199|99:175,1,88.000002685547
344,49,108033,2,0,P|460:53|520:84,1,176.000005371094,8|0,0:0|0:0,0:0:0:0:
326,267,108550,1,0,0:0:0:0:
155,66,108722,2,0,P|110:78|78:118,1,88.000002685547,8|0,0:0|0:0,0:0:0:0:
53,370,109067,5,0,0:0:0:0:
250,196,109239,1,0,0:0:0:0:
279,163,109325,1,0,0:0:0:0:
312,134,109411,1,8,0:0:0:0:
59,56,109584,1,0,0:0:0:0:
59,56,109757,5,0,0:0:0:0:
160,300,109930,1,0,0:0:0:0:
180,339,110016,1,0,0:0:0:0:
200,378,110102,1,8,0:0:0:0:
312,134,110274,1,0,0:0:0:0:
398,291,110446,6,0,P|445:267|456:193,1,120.000004577637,2|0,0:0|0:0,0:0:0:0:
504,30,110963,2,0,L|382:63,1,120.000004577637,2|0,0:0|0:0,0:0:0:0:
209,33,111480,2,0,P|202:90|232:163,1,120.000004577637,2|0,0:0|0:0,0:0:0:0:
28,272,112170,6,0,L|75:320,1,60.0000022888184,2|0,0:0|0:0,0:0:0:0:
246,279,112514,2,0,L|203:330,1,60.0000022888184,2|0,0:0|0:0,0:0:0:0:
82,194,112859,2,0,L|142:254,1,60.0000022888184,2|0,0:0|0:0,0:0:0:0:
251,107,113204,6,0,L|154:1,1,120.000004577637,2|0,0:0|0:0,0:0:0:0:
345,61,113721,2,0,L|439:161,1,120.000004577637,2|0,0:0|0:0,0:0:0:0:
378,323,114239,2,0,P|448:343|514:320,1,120.000004577637,2|0,0:0|0:0,0:0:0:0:
135,382,114928,6,0,L|187:335,1,60.0000022888184,2|0,0:0|0:0,0:0:0:0:
308,215,115273,2,0,L|370:272,1,60.0000022888184,2|0,0:0|0:0,0:0:0:0:
472,120,115618,2,0,L|422:172,1,60.0000022888184,2|0,0:0|0:0,0:0:0:0:
297,40,115963,6,0,P|262:20|179:30,1,120.000004577637,2|0,0:0|0:0,0:0:0:0:
42,137,116480,2,0,P|77:157|160:147,1,120.000004577637,2|0,0:0|0:0,0:0:0:0:
166,330,116997,2,0,L|41:329,1,120.000004577637,2|0,0:0|0:0,0:0:0:0:
397,246,117687,6,0,L|470:251,1,60.0000022888184,2|0,0:0|0:0,0:0:0:0:
297,164,118032,2,0,L|212:168,1,60.0000022888184,2|0,0:0|0:0,0:0:0:0:
370,45,118377,2,0,L|296:47,1,60.0000022888184,2|0,0:0|0:0,0:0:0:0:
481,99,118721,6,0,P|505:153|493:219,1,120.000004577637,2|0,0:0|0:0,0:0:0:0:
349,318,119239,2,0,L|487:346,1,120.000004577637,2|0,0:0|0:0,0:0:0:0:
319,237,119756,2,0,L|180:249,1,120.000004577637,2|0,0:0|0:0,0:0:0:0:
59,119,120445,6,0,L|29:186,1,60.0000022888184,2|0,0:0|0:0,0:0:0:0:
212,142,120790,2,0,L|186:205,1,60.0000022888184,2|0,0:0|0:0,0:0:0:0:
368,221,121135,2,0,L|394:156,1,60.0000022888184,2|0,0:0|0:0,0:0:0:0:
494,17,121480,5,2,0:0:0:0:
