osu file format v14

[General]
AudioFilename: audio.mp3
AudioLeadIn: 0
PreviewTime: 63788
Countdown: 0
SampleSet: Soft
StackLeniency: 0.4
Mode: 0
LetterboxInBreaks: 0
WidescreenStoryboard: 0

[Editor]
Bookmarks: 22408,28788,44477,66546,72064,77581,83098,88615,94133,99650,105167,110684,121719,132753,142753
DistanceSpacing: 1.5
BeatDivisor: 4
GridSize: 32
TimelineZoom: 3.199999

[Metadata]
Title:Laurence
TitleUnicode:Laurence
Artist:Feint
ArtistUnicode:Feint
Creator:Frakturehawkens
Version:Rain Of Dreams
Source:
Tags:drum and bass liquicity dnb cut version
BeatmapID:1441157
BeatmapSetID:681609

[Difficulty]
HPDrainRate:7
CircleSize:4
OverallDifficulty:8.7
ApproachRate:9.4
SliderMultiplier:1.8
SliderTickRate:1

[Events]
//Background and Video events
0,0,"1.jpg",0,0
//Break Periods
//Storyboard Layer 0 (Background)
//Storyboard Layer 1 (Fail)
//Storyboard Layer 2 (Pass)
//Storyboard Layer 3 (Foreground)
//Storyboard Sound Samples

[TimingPoints]
340,344.827586206897,4,2,0,30,1,0
19305,-100,4,2,0,5,0,0
22408,-133.333333333333,4,2,0,30,0,0
38960,-200,4,2,0,30,0,0
44477,-100,4,2,0,30,0,0
66546,-83.3333333333333,4,2,0,30,0,0
110684,-133.333333333333,4,2,0,30,0,0

[Colours]
Combo1 : 104,120,94
Combo2 : 117,188,219
Combo3 : 186,124,171
Combo4 : 39,73,137
Combo5 : 150,90,164
Combo6 : 218,240,247

[HitObjects]
256,192,19650,12,0,22236,0:0:0:0:
256,192,22408,6,0,B|312:248|397:220|397:220|482:248|482:248|539:192|539:192|454:163|454:163|312:305|312:305|256:305|199:248|199:248,1,742.500028324128
64,224,24477,6,0,B|128:320|192:352|192:352|128:320|32:352|32:352|-32:288|-32:256|-32:256|-45:164|32:128|32:128|160:96|160:96,1,742.500028324128
288,64,26546,6,0,B|416:32|416:32|480:96|416:160|416:160|448:256|448:256|384:288|384:288|344:178|344:178|337:147|352:122|352:122|321:130|321:130|323:173|301:209|301:209|257:189|234:153|234:153|187:165,1,877.50003347397
90,192,28960,5,0,0:0:0:0:
187,164,29133,1,0,0:0:0:0:
128,352,29305,1,0,0:0:0:0:
112,368,29995,1,0,0:0:0:0:
96,384,30684,1,0,0:0:0:0:
314,256,31719,5,0,0:0:0:0:
411,284,31892,1,0,0:0:0:0:
352,96,32064,1,0,0:0:0:0:
336,80,32753,1,0,0:0:0:0:
320,64,33443,6,0,B|288:96|288:96|448:96|480:256|480:256|352:128|192:192|192:192|224:256|224:256|345:213|435:315|435:315|404:341|343:320|343:320,1,1012.50003862381
232,325,36202,6,0,B|256:319|195:340|164:314|164:314|96:192|96:192|128:128|128:128|96:64|96:64|160:64|224:32|224:32|224:96|224:96|352:0|416:32|448:96|448:160|416:224|224:224|224:224,1,1012.50003862381
224,96,38960,6,0,B|304:32|400:2|446:60|495:195|325:209|232:231|232:231|96:192|96:192|64:256|64:256|187:293|187:293|214:334|256:352|256:352|248:307|270:273|330:267|363:308|362:348|325:378|325:378|352:369|375:382|375:382|423:370|423:370|428:293|395:258|395:258|424:244|446:223|446:223,1,1395
320,128,44477,5,0,0:0:0:0:
185,129,44822,5,0,0:0:0:0:
311,140,44995,1,0,0:0:0:0:
320,264,45167,1,0,0:0:0:0:
174,141,45340,1,0,0:0:0:0:
299,151,45512,1,0,0:0:0:0:
405,292,45857,6,0,L|308:260,1,90
476,167,46202,2,0,L|376:187,1,90
474,23,46546,2,0,L|398:90,1,90
387,185,46891,2,0,L|290:153,1,90
74,100,47236,6,0,P|138:100|224:64,1,90
302,157,47581,1,0,0:0:0:0:
74,227,47753,1,0,0:0:0:0:
387,185,48098,1,0,0:0:0:0:
74,227,48270,1,0,0:0:0:0:
466,169,48615,6,0,L|457:264,1,90
379,95,48960,2,0,L|386:184,1,90
302,157,49219,1,0,0:0:0:0:
302,157,49305,2,0,L|293:252,1,90
226,96,49650,2,0,P|286:60|356:84,1,90
155,295,49995,5,0,0:0:0:0:
119,163,50340,5,0,0:0:0:0:
163,281,50513,1,0,0:0:0:0:
294,246,50685,1,0,0:0:0:0:
127,150,50858,1,0,0:0:0:0:
170,267,51030,1,0,0:0:0:0:
392,250,51374,6,0,P|383:208|355:169,1,90
243,314,51719,2,0,P|283:327|330:322,1,90
262,152,52064,2,0,P|230:180|210:223,1,90
329,322,52408,2,0,P|328:278|307:239,1,90
57,289,52753,6,0,L|152:297,1,90
306,238,53098,1,0,0:0:0:0:
101,375,53271,1,0,0:0:0:0:
356,170,53615,1,0,0:0:0:0:
57,289,53787,1,0,0:0:0:0:
333,86,54133,6,0,L|428:94,1,90
266,177,54477,2,0,L|361:169,1,90
198,252,54822,2,0,L|288:260,1,90
428,312,55081,1,0,0:0:0:0:
428,312,55167,1,0,0:0:0:0:
266,177,55340,1,0,0:0:0:0:
54,343,55512,6,0,P|94:356|141:351,1,90
48,188,55857,2,0,P|67:225|103:255,1,90
153,74,56202,2,0,P|140:114|145:161,1,90
307,67,56546,1,0,0:0:0:0:
141,350,56719,1,0,0:0:0:0:
158,336,56805,1,0,0:0:0:0:
173,319,56891,6,0,L|184:229,1,90
81,19,57236,2,0,L|153:73,1,90
386,89,57581,2,0,L|302:124,1,90
250,288,57926,2,0,L|261:198,1,90
54,343,58271,5,0,0:0:0:0:
458,41,58615,2,0,L|447:131,1,90
231,70,58960,2,0,L|303:124,1,90
141,281,59305,2,0,L|224:245,1,90
458,41,59650,5,0,0:0:0:0:
54,343,59995,2,0,L|65:253,1,90
281,314,60340,2,0,L|208:259,1,90
371,103,60685,2,0,L|287:138,1,90
54,343,61030,21,0,0:0:0:0:
64,253,61202,1,0,0:0:0:0:
209,259,61374,1,0,0:0:0:0:
199,349,61546,1,0,0:0:0:0:
74,163,61719,1,0,0:0:0:0:
288,224,61891,1,0,0:0:0:0:
79,301,62064,1,0,0:0:0:0:
314,213,62236,1,0,0:0:0:0:
64,128,62408,69,0,0:0:0:0:
209,384,62581,1,0,0:0:0:0:
234,9,62753,1,0,0:0:0:0:
340,202,62926,1,0,0:0:0:0:
316,16,63098,1,0,0:0:0:0:
236,251,63271,1,0,0:0:0:0:
398,24,63443,1,0,0:0:0:0:
134,301,63615,1,0,0:0:0:0:
480,32,63788,53,0,0:0:0:0:
32,352,64133,1,0,0:0:0:0:
6,363,65167,53,0,0:0:0:0:
506,21,65512,1,0,0:0:0:0:
506,21,66029,5,0,0:0:0:0:
506,21,66115,1,0,0:0:0:0:
506,21,66202,1,0,0:0:0:0:
311,226,66374,1,0,0:0:0:0:
78,63,66546,6,0,B|158:100|158:100|231:107,1,161.999995056153
271,128,66890,1,0,0:0:0:0:
306,124,66977,1,0,0:0:0:0:
342,121,67064,1,0,0:0:0:0:
378,118,67150,1,0,0:0:0:0:
414,115,67236,1,0,0:0:0:0:
271,288,67408,2,0,L|265:340,1,53.9999983520508
271,128,67581,1,0,0:0:0:0:
79,256,67753,5,0,0:0:0:0:
74,310,67839,1,0,0:0:0:0:
71,364,67927,1,0,0:0:0:0:
271,288,68098,1,0,0:0:0:0:
239,32,68271,1,0,0:0:0:0:
378,118,68443,1,0,0:0:0:0:
414,121,68529,1,0,0:0:0:0:
450,124,68615,1,0,0:0:0:0:
271,288,68788,1,0,0:0:0:0:
448,32,68960,1,0,0:0:0:0:
271,128,69133,1,0,0:0:0:0:
364,321,69305,6,0,B|401:241|401:241|407:168,1,161.999995056153
351,45,69650,2,0,B|313:124|313:124|307:197,1,161.999995056153
288,288,69995,2,0,L|235:282,1,53.9999983520508
83,223,70167,1,0,0:0:0:0:
128,128,70340,1,0,0:0:0:0:
146,126,70426,1,0,0:0:0:0:
164,124,70512,1,0,0:0:0:0:
182,122,70598,1,0,0:0:0:0:
200,120,70684,6,0,L|195:173,1,53.9999983520508
234,281,70857,2,0,L|240:334,1,53.9999983520508
407,167,71029,1,0,0:0:0:0:
271,127,71202,1,0,0:0:0:0:
236,123,71289,1,0,0:0:0:0:
200,120,71374,2,0,L|195:68,1,53.9999983520508
288,0,71546,1,0,0:0:0:0:
232,263,71719,1,0,0:0:0:0:
234,281,71805,1,0,0:0:0:0:
236,299,71891,1,0,0:0:0:0:
238,317,71977,1,0,0:0:0:0:
240,335,72064,6,0,P|320:352|416:320,1,161.999995056153
432,308,72408,1,0,0:0:0:0:
436,273,72495,1,0,0:0:0:0:
439,237,72580,1,0,0:0:0:0:
442,201,72666,1,0,0:0:0:0:
445,165,72754,1,0,0:0:0:0:
234,281,72926,2,0,L|239:334,1,53.9999983520508
83,223,73098,6,0,P|64:173|73:120,1,107.999996704102
73,120,73357,1,0,0:0:0:0:
73,120,73443,1,0,0:0:0:0:
234,281,73615,1,0,0:0:0:0:
448,128,73788,1,0,0:0:0:0:
421,124,73874,1,0,0:0:0:0:
394,121,73960,1,0,0:0:0:0:
367,118,74046,1,0,0:0:0:0:
340,115,74132,1,0,0:0:0:0:
448,288,74305,1,0,0:0:0:0:
159,158,74477,2,0,L|149:52,1,107.999996704102
96,320,74822,6,0,B|174:337|174:337|256:320,1,161.999995056153
412,320,75167,2,0,P|359:331|359:331,1,53.9999983520508
128,224,75340,5,0,0:0:0:0:
352,192,75512,1,0,0:0:0:0:
253,320,75684,1,0,0:0:0:0:
253,320,75771,1,0,0:0:0:0:
253,320,75857,1,0,0:0:0:0:
108,187,76029,5,0,0:0:0:0:
390,171,76201,1,0,0:0:0:0:
253,320,76373,1,0,0:0:0:0:
253,320,76460,1,0,0:0:0:0:
253,320,76546,1,0,0:0:0:0:
87,139,76719,5,0,0:0:0:0:
439,149,76891,1,0,0:0:0:0:
253,320,77063,1,0,0:0:0:0:
253,320,77150,1,0,0:0:0:0:
253,320,77236,1,0,0:0:0:0:
67,77,77408,5,0,0:0:0:0:
503,127,77581,6,0,B|515:199|515:199|500:286,1,161.999995056153
485,327,77926,1,0,0:0:0:0:
447,341,78012,1,0,0:0:0:0:
407,346,78098,1,0,0:0:0:0:
367,342,78184,1,0,0:0:0:0:
328,329,78270,1,0,0:0:0:0:
101,240,78443,2,0,L|107:186,1,53.9999983520508
192,352,78615,1,0,0:0:0:0:
32,192,78788,5,0,0:0:0:0:
38,138,78874,1,0,0:0:0:0:
44,84,78960,1,0,0:0:0:0:
256,32,79133,1,0,0:0:0:0:
224,288,79305,1,0,0:0:0:0:
352,192,79477,1,0,0:0:0:0:
355,165,79563,1,0,0:0:0:0:
359,138,79649,1,0,0:0:0:0:
448,352,79822,1,0,0:0:0:0:
153,293,79995,1,0,0:0:0:0:
385,286,80167,1,0,0:0:0:0:
74,315,80340,6,0,P|114:219|203:228,1,161.999995056153
249,105,80684,2,0,P|209:201|120:192,1,161.999995056153
144,57,81029,2,0,L|150:111,1,53.9999983520508
153,293,81202,1,0,0:0:0:0:
288,256,81374,1,0,0:0:0:0:
306,258,81460,1,0,0:0:0:0:
324,260,81546,1,0,0:0:0:0:
342,262,81632,1,0,0:0:0:0:
360,264,81718,6,0,L|355:211,1,53.9999983520508
394,103,81891,2,0,L|400:50,1,53.9999983520508
150,110,82064,1,0,0:0:0:0:
167,237,82236,1,0,0:0:0:0:
202,233,82323,1,0,0:0:0:0:
238,230,82408,2,0,L|243:178,1,53.9999983520508
150,110,82580,1,0,0:0:0:0:
360,264,82753,1,0,0:0:0:0:
378,266,82839,1,0,0:0:0:0:
396,268,82925,1,0,0:0:0:0:
414,270,83011,1,0,0:0:0:0:
432,272,83098,6,0,B|448:192|448:192|416:96,1,161.999995056153
395,110,83443,1,0,0:0:0:0:
368,106,83529,1,0,0:0:0:0:
341,103,83615,1,0,0:0:0:0:
314,100,83701,1,0,0:0:0:0:
287,97,83787,1,0,0:0:0:0:
196,293,83960,2,0,L|191:240,1,53.9999983520508
99,72,84133,6,0,L|205:87,1,107.999996704102
233,91,84391,1,0,0:0:0:0:
260,94,84478,1,0,0:0:0:0:
432,272,84650,1,0,0:0:0:0:
190,239,84822,1,0,0:0:0:0:
152,225,84908,1,0,0:0:0:0:
112,220,84994,1,0,0:0:0:0:
72,224,85080,1,0,0:0:0:0:
33,237,85166,1,0,0:0:0:0:
192,352,85340,1,0,0:0:0:0:
96,32,85512,2,0,B|86:78|86:78|105:135,1,107.999996704102
384,192,85857,6,0,B|401:114|384:32,1,161.999995056153
171,53,86202,2,0,L|224:64,1,53.9999983520508
384,192,86374,1,0,0:0:0:0:
160,224,86546,1,0,0:0:0:0:
224,64,86719,1,0,0:0:0:0:
224,64,86805,1,0,0:0:0:0:
224,64,86891,1,0,0:0:0:0:
410,241,87064,5,0,0:0:0:0:
127,256,87236,1,0,0:0:0:0:
224,64,87409,1,0,0:0:0:0:
224,64,87495,1,0,0:0:0:0:
224,64,87581,1,0,0:0:0:0:
437,305,87753,5,0,0:0:0:0:
82,292,87925,1,0,0:0:0:0:
224,64,88098,1,0,0:0:0:0:
224,64,88184,1,0,0:0:0:0:
224,64,88270,1,0,0:0:0:0:
410,241,88443,1,0,0:0:0:0:
127,256,88615,6,0,P|138:203|138:203,1,53.9999983520508
224,256,88788,2,0,P|235:203|235:203,1,53.9999983520508
30,256,88960,2,0,P|41:203|41:203,1,53.9999983520508
224,355,89133,2,0,P|316:293|318:225,1,161.999995056153
224,256,89477,1,0,0:0:0:0:
480,64,89650,2,0,P|374:86|374:86,1,107.999996704102
480,320,89995,6,0,P|374:298|374:298,1,107.999996704102
203,151,90340,1,0,0:0:0:0:
208,177,90426,1,0,0:0:0:0:
213,203,90512,1,0,0:0:0:0:
219,230,90598,1,0,0:0:0:0:
224,256,90684,1,0,0:0:0:0:
374,85,90857,1,0,0:0:0:0:
64,31,91029,2,0,P|117:42|117:42,1,53.9999983520508
64,128,91202,2,0,P|117:139|117:139,1,53.9999983520508
64,288,91374,6,0,P|170:310|170:310,1,107.999996704102
448,256,91719,1,0,0:0:0:0:
256,160,91891,1,0,0:0:0:0:
233,193,91977,1,0,0:0:0:0:
226,233,92063,1,0,0:0:0:0:
236,272,92149,1,0,0:0:0:0:
260,304,92235,1,0,0:0:0:0:
374,85,92408,1,0,0:0:0:0:
448,256,92581,1,0,0:0:0:0:
169,52,92753,6,0,L|116:41,1,53.9999983520508
32,128,92926,2,0,P|85:117|85:117,1,53.9999983520508
343,52,93098,2,0,L|396:41,1,53.9999983520508
480,128,93271,2,0,P|427:117|427:117,1,53.9999983520508
331,157,93443,1,0,0:0:0:0:
304,162,93529,1,0,0:0:0:0:
278,167,93615,1,0,0:0:0:0:
251,173,93701,1,0,0:0:0:0:
225,178,93787,1,0,0:0:0:0:
96,288,93960,1,0,0:0:0:0:
349,312,94133,6,0,B|381:216|285:216|349:120,1,161.999995056153
330,156,94477,1,0,0:0:0:0:
273,274,94650,1,0,0:0:0:0:
246,279,94736,1,0,0:0:0:0:
220,284,94822,1,0,0:0:0:0:
410,176,94995,1,0,0:0:0:0:
114,305,95167,2,0,L|220:283,1,107.999996704102
114,79,95512,6,0,L|220:101,1,107.999996704102
349,312,95857,1,0,0:0:0:0:
374,307,95943,1,0,0:0:0:0:
401,301,96029,1,0,0:0:0:0:
427,296,96115,1,0,0:0:0:0:
453,291,96201,1,0,0:0:0:0:
192,256,96374,1,0,0:0:0:0:
448,64,96546,2,0,P|395:75|395:75,1,53.9999983520508
448,160,96719,2,0,P|395:171|395:171,1,53.9999983520508
349,312,96891,6,0,P|243:334|243:334,1,107.999996704102
117,170,97236,1,0,0:0:0:0:
289,191,97408,1,0,0:0:0:0:
315,186,97494,1,0,0:0:0:0:
342,180,97580,1,0,0:0:0:0:
368,175,97666,1,0,0:0:0:0:
395,170,97754,1,0,0:0:0:0:
385,222,97840,1,0,0:0:0:0:
373,276,97926,1,0,0:0:0:0:
139,276,98098,6,0,L|192:265,1,53.9999983520508
117,170,98270,2,0,L|170:181,1,53.9999983520508
395,170,98443,1,0,0:0:0:0:
385,222,98529,1,0,0:0:0:0:
373,276,98615,1,0,0:0:0:0:
122,312,98787,6,0,L|175:301,1,53.9999983520508
100,134,98960,2,0,L|153:145,1,53.9999983520508
395,170,99133,1,0,0:0:0:0:
385,222,99219,1,0,0:0:0:0:
373,276,99305,1,0,0:0:0:0:
100,134,99477,1,0,0:0:0:0:
174,301,99650,6,0,B|256:288|256:288|352:320,1,161.999995056153
330,312,99995,1,0,0:0:0:0:
447,159,100167,2,0,L|394:170,1,53.9999983520508
324,100,100340,2,0,L|271:111,1,53.9999983520508
236,202,100512,2,0,L|183:213,1,53.9999983520508
68,98,100684,2,0,B|93:150|93:150|93:205,1,107.999996704102
330,312,101029,6,0,B|305:260|305:260|305:205,1,107.999996704102
426,54,101374,1,0,0:0:0:0:
431,80,101460,1,0,0:0:0:0:
436,106,101546,1,0,0:0:0:0:
442,133,101632,1,0,0:0:0:0:
447,159,101718,1,0,0:0:0:0:
330,312,101891,1,0,0:0:0:0:
160,32,102064,2,0,L|107:43,1,53.9999983520508
160,128,102237,2,0,L|107:139,1,53.9999983520508
160,288,102408,6,0,L|54:266,1,107.999996704102
256,80,102753,1,0,0:0:0:0:
266,309,102926,1,0,0:0:0:0:
239,304,103012,1,0,0:0:0:0:
213,299,103098,1,0,0:0:0:0:
186,293,103184,1,0,0:0:0:0:
160,288,103272,1,0,0:0:0:0:
256,32,103443,1,0,0:0:0:0:
448,64,103615,1,0,0:0:0:0:
160,288,103788,6,0,P|149:235|149:235,1,53.9999983520508
96,128,103960,2,0,L|107:75,1,53.9999983520508
405,75,104133,2,0,P|416:128|416:128,1,53.9999983520508
363,235,104305,2,0,L|352:288,1,53.9999983520508
256,288,104477,1,0,0:0:0:0:
251,262,104563,1,0,0:0:0:0:
245,235,104649,1,0,0:0:0:0:
240,209,104735,1,0,0:0:0:0:
235,182,104823,1,0,0:0:0:0:
405,75,104995,1,0,0:0:0:0:
106,75,105167,6,0,B|96:128|96:128|125:184|106:260,1,161.999995056153
111,233,105512,1,0,0:0:0:0:
235,182,105684,1,0,0:0:0:0:
261,177,105770,1,0,0:0:0:0:
288,172,105857,1,0,0:0:0:0:
314,167,105943,1,0,0:0:0:0:
341,162,106029,2,0,L|394:173,1,53.9999983520508
352,352,106202,2,0,P|334:281|352:224,1,107.999996704102
160,32,106546,6,0,P|178:103|160:160,1,107.999996704102
64,352,106891,1,0,0:0:0:0:
89,347,106977,1,0,0:0:0:0:
116,341,107063,1,0,0:0:0:0:
142,336,107149,1,0,0:0:0:0:
168,331,107235,1,0,0:0:0:0:
416,292,107408,1,0,0:0:0:0:
96,256,107581,2,0,P|43:267|43:267,1,53.9999983520508
128,160,107753,2,0,P|75:171|75:171,1,53.9999983520508
256,160,107926,6,0,B|272:213|272:213|242:277|242:277|256:320,1,161.999995056153
253,311,108271,1,0,0:0:0:0:
373,290,108443,1,0,0:0:0:0:
390,254,108530,1,0,0:0:0:0:
407,217,108616,1,0,0:0:0:0:
424,180,108702,1,0,0:0:0:0:
442,144,108789,1,0,0:0:0:0:
389,154,108875,1,0,0:0:0:0:
336,165,108961,1,0,0:0:0:0:
160,320,109133,5,0,0:0:0:0:
416,320,109305,1,0,0:0:0:0:
416,96,109478,1,0,0:0:0:0:
363,106,109564,1,0,0:0:0:0:
310,117,109650,1,0,0:0:0:0:
128,288,109822,5,0,0:0:0:0:
448,352,109995,1,0,0:0:0:0:
390,48,110167,1,0,0:0:0:0:
337,58,110253,1,0,0:0:0:0:
284,69,110339,1,0,0:0:0:0:
96,256,110512,5,0,0:0:0:0:
480,384,110684,5,0,0:0:0:0:
448,288,111029,1,0,0:0:0:0:
480,384,111202,1,0,0:0:0:0:
480,192,111546,1,0,0:0:0:0:
448,288,111719,1,0,0:0:0:0:
466,126,112064,6,0,L|479:191,1,67.5000025749208
352,192,112408,2,0,L|338:257,1,67.5000025749208
160,192,112753,2,0,L|173:257,1,67.5000025749208
46,126,113098,2,0,L|31:191,1,67.5000025749208
160,60,113443,5,0,0:0:0:0:
256,128,113788,1,0,0:0:0:0:
160,60,113960,1,0,0:0:0:0:
160,192,114305,1,0,0:0:0:0:
256,128,114477,1,0,0:0:0:0:
173,258,114822,6,0,L|159:192,1,67.5000025749208
256,256,115167,2,0,L|242:321,1,67.5000025749208
256,128,115512,2,2,L|242:62,1,67.5000025749208
339,126,115857,2,0,L|325:191,1,67.5000025749208
416,352,116202,5,0,0:0:0:0:
325,192,116546,1,0,0:0:0:0:
416,320,116719,1,0,0:0:0:0:
500,158,117064,1,0,0:0:0:0:
416,288,117236,1,0,0:0:0:0:
311,126,117581,6,0,L|324:191,1,67.5000025749208
225,165,117926,2,0,L|238:230,1,67.5000025749208
139,204,118271,2,0,L|152:269,1,67.5000025749208
53,243,118615,2,0,L|66:308,1,67.5000025749208
238,230,118960,5,0,0:0:0:0:
120,88,119304,1,0,0:0:0:0:
232,198,119477,1,0,0:0:0:0:
287,24,119822,1,0,0:0:0:0:
226,166,119994,1,0,0:0:0:0:
287,24,120340,6,0,L|352:9,1,67.5000025749208
266,136,120684,2,0,L|331:121,1,67.5000025749208
245,247,121029,2,0,L|177:260,1,67.5000025749208
225,360,121374,2,0,L|155:373,1,67.5000025749208
64,192,121719,5,0,0:0:0:0:
224,100,122063,1,0,0:0:0:0:
96,191,122236,1,0,0:0:0:0:
258,276,122581,1,0,0:0:0:0:
129,191,122753,1,0,0:0:0:0:
324,94,123098,6,0,L|258:107,1,67.5000025749208
324,290,123443,2,0,L|258:276,1,67.5000025749208
390,80,123788,2,0,L|324:93,1,67.5000025749208
390,303,124133,2,0,L|324:289,1,67.5000025749208
480,192,124477,5,0,0:0:0:0:
323,289,124821,1,0,0:0:0:0:
480,192,124995,1,0,0:0:0:0:
257,107,125339,1,0,0:0:0:0:
480,192,125512,1,0,0:0:0:0:
257,107,125857,6,0,L|191:120,1,67.5000025749208
160,256,126202,2,0,L|146:190,1,67.5000025749208
11,159,126546,2,0,L|76:145,1,67.5000025749208
108,10,126891,2,0,L|121:75,1,67.5000025749208
96,320,127236,5,0,0:0:0:0:
288,256,127581,1,0,0:0:0:0:
64,352,127754,1,0,0:0:0:0:
288,224,128098,1,0,0:0:0:0:
32,384,128271,1,0,0:0:0:0:
288,192,128615,6,0,L|274:126,1,67.5000025749208
256,288,128960,2,0,L|206:332,1,67.5000025749208
356,268,129305,2,0,L|419:288,1,67.5000025749208
274,125,129650,2,0,L|260:59,1,67.5000025749208
205,332,129995,5,0,0:0:0:0:
274,125,130340,1,0,0:0:0:0:
211,353,130512,1,0,0:0:0:0:
260,58,130857,1,0,0:0:0:0:
218,376,131029,1,0,0:0:0:0:
260,59,131374,6,0,P|274:125|274:125,1,67.5000025749208
251,324,131719,2,0,L|237:258,1,67.5000025749208
388,196,132064,1,0,0:0:0:0:
123,187,132236,1,0,0:0:0:0:
123,187,132322,1,0,0:0:0:0:
123,187,132408,1,0,0:0:0:0:
251,324,132581,1,0,0:0:0:0:
260,59,132753,6,0,B|225:139|314:185|250:250|250:250|247:220|231:186|231:186|172:235|89:215|89:215|134:204|153:173,1,472.500018024445
136,191,134046,1,0,0:0:0:0:
136,191,134133,1,0,0:0:0:0:
177,317,134305,1,0,0:0:0:0:
260,59,134477,1,0,0:0:0:0:
314,52,135512,5,0,0:0:0:0:
177,317,135857,1,0,0:0:0:0:
143,338,136891,5,0,0:0:0:0:
368,45,137236,1,0,0:0:0:0:
143,338,138271,6,0,B|207:364|275:334|275:334|252:315|219:310|219:310|274:291|302:246|302:246|339:248|391:224|391:224|356:279|376:302,1,472.500018024445
371,294,139564,1,0,0:0:0:0:
371,294,139650,1,0,0:0:0:0:
327,160,139822,1,0,0:0:0:0:
60,360,139995,2,0,P|63:209|143:338,1,405.000015449525
84,285,141374,1,0,0:0:0:0:
60,360,142408,5,0,0:0:0:0:
452,24,142753,1,0,0:0:0:0:
