osu file format v14

[General]
AudioFilename: audio.mp3
AudioLeadIn: 0
PreviewTime: 63556
Countdown: 0
SampleSet: Soft
StackLeniency: 0.5
Mode: 0
LetterboxInBreaks: 0
WidescreenStoryboard: 0

[Editor]
Bookmarks: 110452
DistanceSpacing: 1.4
BeatDivisor: 4
GridSize: 32
TimelineZoom: 1.5

[Metadata]
Title:Laurence
TitleUnicode:Laurence
Artist:Feint
ArtistUnicode:Feint
Creator:Frakturehawkens
Version:Ksardas' Normal
Source:
Tags:cut short ver Liquicity Memoirs dnb drum and & bass colicen ksardas tsumugi-chan cappu
BeatmapID:2086578
BeatmapSetID:997556

[Difficulty]
HPDrainRate:4
CircleSize:3
OverallDifficulty:4
ApproachRate:5
SliderMultiplier:1.2
SliderTickRate:1

[Events]
//Background and Video events
0,0,"remap.jpg",0,0
//Break Periods
//Storyboard Layer 0 (Background)
//Storyboard Layer 1 (Fail)
//Storyboard Layer 2 (Pass)
//Storyboard Layer 3 (Foreground)
//Storyboard Layer 4 (Overlay)
//Storyboard Sound Samples

[TimingPoints]
97,344.827586206897,4,2,1,20,1,0
22165,-200,4,2,1,25,0,0
35614,-200,4,2,1,5,0,0
35959,-200,4,2,1,25,0,0
38372,-200,4,2,1,5,0,0
38717,-200,4,2,1,25,0,0
40441,-200,4,2,1,5,0,0
44234,-133.333333333333,4,2,1,40,0,0
55269,-133.333333333333,4,2,1,50,0,0
60786,-133.333333333333,4,2,1,55,0,0
63545,-133.333333333333,4,2,1,25,0,0
66303,-100,4,2,1,70,0,1
88372,-100,4,2,1,60,0,0
110441,-133.333333333333,4,2,1,20,0,0

[Colours]
Combo1 : 250,58,125
Combo2 : 4,148,202
Combo3 : 251,140,218
Combo4 : 120,191,34
SliderBorder : 219,254,255
SliderTrackOverride : 2,30,77

[HitObjects]
135,269,22165,6,0,B|150:250|155:224|155:224|81:223|43:140|85:80|182:93|180:153,1,300,2|0,1:2|0:0,0:0:0:0:
234,208,24234,6,0,B|311:218|311:218|334:210|334:210|453:223|453:223|460:144,1,300,2|0,2:0|0:0,0:0:0:0:
486,65,26303,6,0,B|421:45|385:105|385:105|283:71|326:121|210:114|176:27,1,360,2|0,2:0|0:0,0:0:0:0:
92,17,28717,2,0,L|90:52,1,30,2|2,2:0|2:0,0:0:0:0:
98,88,29062,5,2,2:0:0:0:
25,242,29752,1,2,2:0:0:0:
192,231,30441,2,0,L|316:220,1,120,2|0,2:0|0:0,0:0:0:0:
371,160,31476,2,0,L|406:158,1,30,2|2,2:0|2:0,0:0:0:0:
442,153,31821,5,2,2:0:0:0:
487,314,32510,1,2,2:0:0:0:
329,373,33200,6,0,B|250:359|259:301|170:310|170:310|203:244|171:178|95:175|56:248|97:288,1,420,2|0,2:0|0:0,0:0:0:0:
112,369,35959,6,0,B|131:139|131:139|200:143|200:143|217:153|217:153|327:160,1,420,2|0,2:0|0:0,0:0:0:0:
385,110,38717,6,0,B|417:155|391:199|391:199|356:257|363:312|432:336|472:302|467:263,1,300,2|0,2:0|0:0,0:0:0:0:
256,192,41131,12,0,43545,0:0:0:0:
290,213,44234,6,0,P|244:211|199:246,1,90.0000034332276,6|0,1:0|0:0,0:0:0:0:
162,237,44752,2,0,P|186:198|178:141,1,90.0000034332276,0|0,0:0|0:0,0:0:0:0:
205,114,45269,1,0,0:0:0:0:
116,99,45614,6,0,L|18:117,2,90.0000034332276,2|2|2,0:1|0:1|0:1,0:0:0:0:
205,114,46648,1,0,0:0:0:0:
277,61,46993,6,0,B|317:51|317:51|373:71,1,90.0000034332276,2|0,0:1|0:0,0:0:0:0:
403,87,47510,2,0,B|391:126|391:126|346:165,1,90.0000034332276,0|0,0:0|0:0,0:0:0:0:
317,183,48028,1,0,0:0:0:0:
377,249,48372,2,0,L|480:242,1,90.0000034332276,2|2,0:1|0:1,0:0:0:0:
457,332,49062,1,2,0:1:0:0:
457,332,49234,2,0,L|367:338,1,90.0000034332276
321,341,49752,6,0,P|286:335|237:302,1,90.0000034332277,2|0,0:1|0:0,0:0:0:0:
206,275,50269,2,0,P|218:308|214:367,1,90.0000034332277,0|0,0:0|0:0,0:0:0:0:
174,379,50786,1,0,0:0:0:0:
92,340,51131,2,0,B|25:349|25:349|8:374,2,90.0000034332277,2|2|2,0:1|0:1|0:1,0:0:0:0:
112,252,52165,1,0,0:0:0:0:
49,187,52510,6,0,L|60:95,1,90.0000034332277,2|0,0:1|0:0,0:0:0:0:
96,71,53028,2,0,L|170:126,1,90.0000034332277,0|0,0:0|0:0,0:0:0:0:
172,169,53545,1,0,0:0:0:0:
258,145,53890,2,0,P|285:99|280:55,2,90.0000034332277,2|2|2,0:1|0:1|0:1,0:0:0:0:
216,161,54752,1,0,1:0:0:0:
172,169,54924,2,0,L|122:165,1,45.0000017166138,8|0,1:0|1:0,0:0:0:0:
84,180,55269,6,0,P|54:223|54:276,1,90.0000034332277,6|0,1:0|1:0,0:0:0:0:
140,247,55959,2,0,P|162:294|208:320,1,90.0000034332277,0|0,1:0|1:0,0:0:0:0:
226,232,56648,2,0,P|278:236|324:209,2,90.0000034332277,2|2|0,1:0|1:0|1:0,0:0:0:0:
170,165,57683,1,0,1:0:0:0:
226,98,58028,6,0,P|278:93|324:120,1,90.0000034332277,2|2,1:0|1:0,0:0:0:0:
256,180,58717,2,0,P|286:223|286:276,1,90.0000034332277,0|0,1:0|1:0,0:0:0:0:
200,247,59407,2,0,P|177:294|131:320,2,90.0000034332277,2|2|0,1:0|1:0|1:0,0:0:0:0:
170,165,60441,1,0,1:0:0:0:
256,192,60786,12,2,63545,1:0:0:0:
88,132,65786,5,0,1:0:0:0:
88,132,65959,2,0,L|90:186,1,45.0000017166138,8|0,1:0|1:0,0:0:0:0:
77,235,66303,6,0,P|134:253|215:238,1,120,6|8,1:0|1:0,0:0:0:0:
244,215,66821,2,0,L|376:234,1,120,0|0,0:0|1:0,0:0:0:0:
421,244,67338,1,8,1:0:0:0:
470,134,67683,2,0,L|461:69,1,60,2|2,1:0|0:1,0:0:0:0:
452,15,68028,2,0,B|356:5|356:5|327:20,1,120,10|0,1:0|0:0,0:0:0:0:
290,56,68545,1,0,1:0:0:0:
290,56,68717,1,8,1:0:0:0:
180,104,69062,6,0,L|110:100,1,60,2|0,1:0|0:0,0:0:0:0:
62,82,69407,2,0,P|51:135|61:220,1,120,10|0,1:0|0:0,0:0:0:0:
79,255,69924,1,0,1:0:0:0:
79,255,70097,1,8,1:0:0:0:
195,227,70441,2,0,P|237:226|265:233,1,60,2|0,0:1|1:0,0:0:0:0:
306,259,70786,2,0,P|365:273|435:251,1,120,10|0,1:0|0:0,0:0:0:0:
465,218,71303,1,0,1:0:0:0:
465,218,71476,2,0,L|469:150,1,60,8|0,1:0|0:0,0:0:0:0:
500,106,71821,6,0,P|461:71|381:71,1,120,6|8,1:0|1:0,0:0:0:0:
341,90,72338,2,0,P|302:125|222:125,1,120,0|0,0:0|1:0,0:0:0:0:
184,100,72855,1,8,1:0:0:0:
99,184,73200,6,0,L|103:251,1,60,2|2,1:0|0:1,0:0:0:0:
107,303,73545,2,0,L|240:321,1,120,10|0,1:0|0:0,0:0:0:0:
284,330,74062,1,0,1:0:0:0:
284,330,74234,1,8,1:0:0:0:
381,260,74579,5,2,1:0:0:0:
469,341,74924,2,0,P|498:291|496:229,1,120,10|0,1:0|0:0,0:0:0:0:
467,177,75441,1,0,1:0:0:0:
467,177,75614,1,8,1:0:0:0:
381,260,75959,1,2,0:1:0:0:
345,374,76303,2,0,P|294:345|265:290,1,120,10|0,1:0|0:0,0:0:0:0:
265,231,76821,1,0,1:0:0:0:
265,231,76993,2,0,L|270:164,1,60,8|0,1:0|1:0,0:0:0:0:
306,123,77338,6,0,P|276:94|193:81,1,120,6|8,1:0|1:0,0:0:0:0:
147,106,77855,2,0,L|136:241,1,120,0|0,0:0|1:0,0:0:0:0:
130,285,78372,1,8,1:0:0:0:
237,337,78717,2,0,L|299:329,1,60,2|2,1:0|0:1,0:0:0:0:
352,352,79062,2,0,P|411:344|446:269,1,120,10|0,1:0|0:0,0:0:0:0:
439,237,79579,1,0,1:0:0:0:
439,237,79752,1,8,1:0:0:0:
474,122,80097,5,2,1:0:0:0:
406,23,80441,2,0,P|354:41|283:37,1,120,10|0,1:0|0:0,0:0:0:0:
234,13,80959,1,0,1:0:0:0:
234,13,81131,1,8,1:0:0:0:
123,59,81476,6,0,L|57:53,1,60,2|0,0:1|1:0,0:0:0:0:
8,79,81821,2,0,P|26:137|77:183,1,120,10|0,1:0|0:0,0:0:0:0:
125,191,82338,1,0,1:0:0:0:
125,191,82510,2,0,L|191:185,1,60,8|0,1:0|0:0,0:0:0:0:
244,180,82855,6,0,B|237:247|237:247|254:310,1,120,6|8,1:0|1:0,0:0:0:0:
268,355,83372,2,0,B|335:362|335:362|398:345,1,120,0|0,0:0|1:0,0:0:0:0:
442,326,83890,1,8,1:0:0:0:
477,211,84234,2,0,L|473:147,1,60,2|2,1:0|0:1,0:0:0:0:
467,91,84579,2,0,P|423:89|342:116,1,120,10|0,1:0|0:0,0:0:0:0:
305,150,85097,1,0,1:0:0:0:
305,150,85269,1,8,1:0:0:0:
225,59,85614,5,2,1:0:0:0:
137,141,85959,2,0,P|90:148|11:128,1,120,10|0,1:0|0:0,0:0:0:0:
8,73,86476,1,0,1:0:0:0:
8,73,86648,1,8,1:0:0:0:
113,15,86993,1,2,0:1:0:0:
225,59,87338,2,0,P|272:52|351:72,1,120,10|0,1:0|0:0,0:0:0:0:
392,101,87855,1,0,1:0:0:0:
392,101,88028,2,0,L|384:171,1,60,8|0,1:0|1:0,0:0:0:0:
361,215,88372,6,0,P|382:253|446:291,1,120,6|8,1:0|1:0,0:0:0:0:
506,299,88890,2,0,P|471:353|397:374,1,120,2|2,0:1|1:0,0:0:0:0:
363,357,89407,1,10,1:0:0:0:
252,309,89752,2,0,L|121:327,2,120,2|10|0,1:0|1:0|0:0,0:0:0:0:
306,284,90614,1,0,1:0:0:0:
306,284,90786,2,0,L|314:211,1,60,10|0,1:0|0:0,0:0:0:0:
357,184,91131,6,0,L|346:55,1,120,2|8,1:0|1:0,0:0:0:0:
304,21,91648,2,0,P|237:22|174:61,1,120,0|0,0:0|1:0,0:0:0:0:
148,88,92165,1,8,1:0:0:0:
111,202,92510,2,0,B|17:191|17:191|-1:169,2,120,2|10|2,0:1|1:0|0:1,0:0:0:0:
170,209,93372,1,2,1:0:0:0:
170,209,93545,1,8,1:0:0:0:
119,318,93890,6,0,P|174:329|245:304,1,120,6|8,1:0|1:0,0:0:0:0:
284,277,94407,2,0,P|339:266|410:291,1,120,2|2,0:1|1:0,0:0:0:0:
447,319,94924,1,10,1:0:0:0:
503,211,95269,2,0,L|511:80,2,120,2|10|0,1:0|1:0|0:0,0:0:0:0:
500,271,96131,1,0,1:0:0:0:
500,271,96303,1,10,1:0:0:0:
414,186,96648,6,0,L|410:120,1,60,2|0,1:0|0:0,0:0:0:0:
373,78,96993,2,0,L|242:86,1,120,8|0,1:0|0:0,0:0:0:0:
192,89,97510,1,0,1:0:0:0:
192,89,97683,1,8,1:0:0:0:
80,132,98028,2,0,L|72:197,1,60,2|0,0:1|1:0,0:0:0:0:
102,245,98372,2,0,L|232:259,1,120,10|2,1:0|0:1,0:0:0:0:
282,266,98890,1,2,1:0:0:0:
282,266,99062,2,0,L|347:273,1,60,8|2,1:0|1:0,0:0:0:0:
388,310,99407,6,0,P|433:298|477:236,1,120,6|8,1:0|1:0,0:0:0:0:
480,181,99924,2,0,P|468:136|406:92,1,120,2|2,0:1|1:0,0:0:0:0:
351,100,100441,1,10,1:0:0:0:
241,148,100786,1,2,1:0:0:0:
167,52,101131,2,0,L|37:61,1,120,10|0,1:0|0:0,0:0:0:0:
0,97,101648,1,0,1:0:0:0:
0,97,101821,1,10,1:0:0:0:
91,174,102165,6,0,L|80:309,1,120,2|8,1:0|1:0,0:0:0:0:
77,354,102683,2,0,P|152:346|199:296,1,120,0|0,0:0|1:0,0:0:0:0:
216,267,103200,1,8,1:0:0:0:
320,326,103545,1,2,0:1:0:0:
436,299,103890,2,0,P|464:266|472:190,1,120,10|2,1:0|0:1,0:0:0:0:
449,136,104407,1,2,1:0:0:0:
449,136,104579,1,8,1:0:0:0:
382,36,104924,6,0,L|238:26,1,120,6|8,1:0|1:0,0:0:0:0:
217,68,105441,2,0,L|73:78,1,120,2|2,0:1|1:0,0:0:0:0:
37,65,105959,1,10,1:0:0:0:
1,179,106303,1,2,1:0:0:0:
115,214,106648,2,0,P|172:215|247:187,1,120,10|0,1:0|0:0,0:0:0:0:
280,160,107165,1,0,1:0:0:0:
280,160,107338,2,0,L|357:164,1,60,10|0,1:0|0:0,0:0:0:0:
400,166,107683,5,2,1:0:0:0:
478,257,108028,2,0,P|439:281|352:280,1,120,8|0,1:0|0:0,0:0:0:0:
309,263,108545,1,0,1:0:0:0:
309,263,108717,1,8,1:0:0:0:
208,198,109062,1,2,0:1:0:0:
90,222,109407,2,0,L|97:349,1,120,10|2,1:0|0:1,0:0:0:0:
145,376,109924,1,2,1:0:0:0:
145,376,110097,2,0,L|216:367,1,60,0|0,0:0|1:0,0:0:0:0:
263,358,110441,5,6,1:0:0:0:
456,109,111648,1,2,0:1:0:0:
456,109,111821,2,0,L|460:60,2,45.0000017166138,2|2|2,0:1|0:1|0:1,0:0:0:0:
193,174,113200,5,2,0:1:0:0:
103,164,113545,1,2,0:1:0:0:
342,288,114579,1,2,0:1:0:0:
432,278,114924,1,2,0:1:0:0:
268,63,115959,5,2,0:1:0:0:
58,298,117165,1,2,0:1:0:0:
58,298,117338,2,0,L|62:355,2,45.0000017166138,2|2|2,0:1|0:1|0:1,0:0:0:0:
229,90,118717,5,2,0:1:0:0:
219,0,119062,1,2,0:1:0:0:
477,80,120097,1,2,0:1:0:0:
467,170,120441,1,2,0:1:0:0:
