osu file format v14

[General]
AudioFilename: audio.mp3
AudioLeadIn: 0
PreviewTime: 63556
Countdown: 0
SampleSet: Soft
StackLeniency: 0.2
Mode: 0
LetterboxInBreaks: 0
WidescreenStoryboard: 1

[Editor]
Bookmarks: 797,1487,22176,44245,60452,88383,110441
DistanceSpacing: 0.9
BeatDivisor: 4
GridSize: 4
TimelineZoom: 3.399999

[Metadata]
Title:Laurence
TitleUnicode:Laurence
Artist:Feint
ArtistUnicode:Feint
Creator:Frakturehawkens
Version:Cappu x Mugi's Extra
Source:
Tags:cut short ver Liquicity Memoirs dnb drum and & bass colicen ksardas tsumugi-chan cappu
BeatmapID:2172628
BeatmapSetID:997556

[Difficulty]
HPDrainRate:5.2
CircleSize:4.2
OverallDifficulty:8
ApproachRate:9.2
SliderMultiplier:2.2
SliderTickRate:1

[Events]
//Background and Video events
0,0,"remap.jpg",0,0
//Break Periods
//Storyboard Layer 0 (Background)
//Storyboard Layer 1 (Fail)
//Storyboard Layer 2 (Pass)
//Storyboard Layer 3 (Foreground)
//Storyboard Layer 4 (Overlay)
//Storyboard Sound Samples

[TimingPoints]
97,344.827586206897,4,2,1,20,1,0
97,-250,4,2,1,20,0,0
269,-250,4,2,1,5,0,0
2165,-250,4,2,1,20,0,0
2338,-250,4,2,1,5,0,0
4234,-250,4,2,1,20,0,0
4407,-250,4,2,1,5,0,0
6562,-250,4,2,1,5,0,0
6648,-250,4,2,1,20,0,0
6993,-1000,4,2,1,20,0,0
7337,-1000,4,2,1,5,0,0
7338,-1000,4,2,1,5,0,0
7683,-1000,4,2,1,20,0,0
8027,-1000,4,2,1,5,0,0
8028,-1000,4,2,1,5,0,0
8372,-1000,4,2,1,20,0,0
8716,-1000,4,2,1,5,0,0
8717,-1000,4,2,1,5,0,0
9407,-1000,4,2,1,20,0,0
10096,-1000,4,2,1,5,0,0
10097,-1000,4,2,1,5,0,0
10441,-1000,4,2,1,20,0,0
10786,-1000,4,2,1,5,0,0
11131,-243.90243902439,4,2,1,20,0,0
11303,-243.90243902439,4,2,1,5,0,0
13890,-277.777777777778,4,2,1,20,0,0
14062,-277.777777777778,4,2,1,5,0,0
16648,-285.714285714284,4,2,1,20,0,0
16821,-285.714285714284,4,2,1,5,0,0
21993,-285.714285714284,4,2,1,5,0,0
22165,-399.999999999997,4,2,1,25,0,0
22854,-399.999999999997,4,2,1,20,0,0
24234,-285.714285714284,4,2,1,25,0,0
26303,-222.222222222221,4,2,1,25,0,0
26992,-222.222222222221,4,2,1,15,0,0
28717,-222.222222222221,4,2,1,25,0,0
30096,-222.222222222221,4,2,1,15,0,0
30441,-222.222222222221,4,2,1,25,0,0
30785,-222.222222222221,4,2,1,15,0,0
31476,-222.222222222221,4,2,1,25,0,0
32855,-222.222222222221,4,2,1,15,0,0
33200,-333.333333333333,4,2,1,25,0,0
33889,-333.333333333333,4,2,1,10,0,0
35269,-1000,4,2,1,10,0,0
35872,-1000,4,2,1,5,0,0
35959,-333.333333333333,4,2,1,25,0,0
36131,-333.333333333333,4,2,1,5,0,0
38717,-400,4,2,1,25,0,0
38890,-400,4,2,1,5,0,0
44234,-100,4,2,1,40,0,0
45269,-400,4,2,1,40,0,0
45527,-400,4,2,1,5,0,0
45528,-100,4,2,1,5,0,0
45614,-83.3333333333333,4,2,1,40,0,0
45872,-83.3333333333333,4,2,1,5,0,0
45959,-83.3333333333333,4,2,1,40,0,0
46217,-83.3333333333333,4,2,1,5,0,0
46303,-83.3333333333333,4,2,1,40,0,0
46561,-83.3333333333333,4,2,1,5,0,0
46562,-83.3333333333333,4,2,1,5,0,0
46648,-166.666666666667,4,2,1,40,0,0
46906,-166.666666666667,4,2,1,5,0,0
46907,-100,4,2,1,5,0,0
46993,-83.3333333333333,4,2,1,40,0,0
47251,-83.3333333333333,4,2,1,5,0,0
47252,-83.3333333333333,4,2,1,5,0,0
47338,-166.666666666667,4,2,1,40,0,0
47424,-166.666666666667,4,2,1,5,0,0
47510,-90.9090909090909,4,2,1,40,0,0
48028,-333.333333333333,4,2,1,40,0,0
48286,-100,4,2,1,5,0,0
48372,-83.3333333333333,4,2,1,40,0,0
48630,-83.3333333333333,4,2,1,5,0,0
48631,-83.3333333333333,4,2,1,5,0,0
48717,-83.3333333333333,4,2,1,40,0,0
49062,-166.666666666667,4,2,1,40,0,0
49234,-100,4,2,1,40,0,0
49665,-100,4,2,1,5,0,0
49752,-100,4,2,1,40,0,0
50786,-500,4,2,1,40,0,0
51044,-500,4,2,1,5,0,0
51045,-100,4,2,1,5,0,0
51131,-83.3333333333333,4,2,1,40,0,0
51389,-83.3333333333333,4,2,1,5,0,0
51390,-83.3333333333333,4,2,1,5,0,0
51476,-83.3333333333333,4,2,1,40,0,0
51734,-83.3333333333333,4,2,1,5,0,0
51821,-83.3333333333333,4,2,1,40,0,0
52079,-83.3333333333333,4,2,1,5,0,0
52165,-166.666666666667,4,2,1,40,0,0
52423,-166.666666666667,4,2,1,5,0,0
52424,-100,4,2,1,5,0,0
52510,-83.3333333333333,4,2,1,40,0,0
52768,-83.3333333333333,4,2,1,5,0,0
52769,-83.3333333333333,4,2,1,5,0,0
52855,-166.666666666667,4,2,1,40,0,0
52941,-166.666666666667,4,2,1,5,0,0
53028,-90.9090909090909,4,2,1,40,0,0
53545,-333.333333333333,4,2,1,40,0,0
53803,-333.333333333333,4,2,1,5,0,0
53890,-83.3333333333333,4,2,1,40,0,0
54148,-83.3333333333333,4,2,1,5,0,0
54234,-83.3333333333333,4,2,1,40,0,0
54492,-83.3333333333333,4,2,1,5,0,0
54493,-83.3333333333333,4,2,1,5,0,0
54579,-166.666666666667,4,2,1,40,0,0
54752,-100,4,2,1,40,0,0
55269,-71.4285714285714,4,2,1,50,0,0
55614,-100,4,2,1,50,0,0
56648,-62.5,4,2,1,50,0,0
57683,-100,4,2,1,50,0,0
58028,-58.8235294117647,4,2,1,50,0,0
58286,-58.8235294117647,4,2,1,5,0,0
58372,-62.5,4,2,1,50,0,0
59062,-100,4,2,1,50,0,0
59407,-58.8235294117647,4,2,1,50,0,0
60441,-100,4,2,1,50,0,0
60786,-100,4,2,1,55,0,0
62165,-58.8235294117647,4,2,1,55,0,0
62251,-58.8235294117647,4,2,1,50,0,0
62338,-58.8235294117647,4,2,1,55,0,0
62596,-58.8235294117647,4,2,1,50,0,0
62683,-58.8235294117647,4,2,1,55,0,0
62941,-58.8235294117647,4,2,1,50,0,0
63028,-58.8235294117647,4,2,1,55,0,0
63545,-58.8235294117647,4,2,1,25,0,0
66045,-58.8235294117647,4,2,1,50,0,0
66131,-58.8235294117647,4,2,1,25,0,0
66303,-71.4285714285714,4,2,1,70,0,1
66648,-62.5,4,2,1,70,0,1
67338,-55.5555555555556,4,2,1,70,0,1
68717,-250,4,2,1,70,0,1
69062,-62.5,4,2,1,70,0,1
69407,-58.8235294117647,4,2,1,70,0,1
69924,-66.6666666666667,4,2,1,70,0,1
70097,-58.8235294117647,4,2,1,70,0,1
70614,-66.6666666666667,4,2,1,70,0,1
70786,-58.8235294117647,4,2,1,70,0,1
71303,-66.6666666666667,4,2,1,70,0,1
71476,-58.8235294117647,4,2,1,70,0,1
71821,-55.5555555555556,4,2,1,70,0,1
72338,-58.8235294117647,4,2,1,70,0,1
73200,-66.6666666666667,4,2,1,70,0,1
74234,-58.8235294117647,4,2,1,70,0,1
74579,-55.5555555555556,4,2,1,70,0,1
75786,-285.714285714284,4,2,1,70,0,1
77338,-55.5555555555556,4,2,1,70,0,1
77683,-58.8235294117647,4,2,1,70,0,1
78372,-55.5555555555556,4,2,1,70,0,1
79407,-100,4,2,1,70,0,1
79752,-250,4,2,1,70,0,1
80097,-62.5,4,2,1,70,0,1
80441,-58.8235294117647,4,2,1,70,0,1
80959,-66.6666666666667,4,2,1,70,0,1
81131,-58.8235294117647,4,2,1,70,0,1
81648,-66.6666666666667,4,2,1,70,0,1
81821,-58.8235294117647,4,2,1,70,0,1
82338,-66.6666666666667,4,2,1,70,0,1
82510,-58.8235294117647,4,2,1,70,0,1
82855,-55.5555555555556,4,2,1,70,0,1
83200,-58.8235294117647,4,2,1,70,0,1
84234,-66.6666666666667,4,2,1,70,0,1
85269,-58.8235294117647,4,2,1,70,0,1
85614,-55.5555555555556,4,2,1,70,0,1
86821,-285.714285714284,4,2,1,70,0,1
88372,-66.6666666666667,4,2,1,60,0,0
88545,-58.8235294117647,4,2,1,60,0,0
89234,-66.6666666666667,4,2,1,60,0,0
89407,-250,4,2,1,60,0,0
89752,-66.6666666666667,4,2,1,60,0,0
90097,-58.8235294117647,4,2,1,60,0,0
90614,-66.6666666666667,4,2,1,60,0,0
91131,-58.8235294117647,4,2,1,60,0,0
91821,-66.6666666666667,4,2,1,60,0,0
92510,-62.5,4,2,1,60,0,0
93200,-66.6666666666667,4,2,1,60,0,0
93717,-58.8235294117647,4,2,1,60,0,0
93890,-83.3333333333333,4,2,1,60,0,0
94234,-66.6666666666667,4,2,1,60,0,0
94407,-58.8235294117647,4,2,1,60,0,0
94752,-66.6666666666667,4,2,1,60,0,0
94924,-250,4,2,1,60,0,0
95269,-66.6666666666667,4,2,1,60,0,0
95614,-58.8235294117647,4,2,1,60,0,0
96131,-66.6666666666667,4,2,1,60,0,0
96303,-58.8235294117647,4,2,1,60,0,0
96648,-66.6666666666667,4,2,1,60,0,0
96993,-83.3333333333333,4,2,1,60,0,0
97165,-45.4545454545455,4,2,1,60,0,0
97683,-45.4545454545455,4,2,1,60,0,0
98028,-250,4,2,1,60,0,0
98372,-45.4545454545455,4,2,1,60,0,0
98717,-250,4,2,1,60,0,0
99062,-125,4,2,1,60,0,0
99234,-66.6666666666667,4,2,1,60,0,0
99407,-83.3333333333333,4,2,1,60,0,0
99752,-66.6666666666667,4,2,1,60,0,0
99924,-58.8235294117647,4,2,1,60,0,0
100269,-66.6666666666667,4,2,1,60,0,0
100441,-250,4,2,1,60,0,0
100786,-66.6666666666667,4,2,1,60,0,0
101131,-58.8235294117647,4,2,1,60,0,0
101821,-66.6666666666667,4,2,1,60,0,0
102165,-58.8235294117647,4,2,1,60,0,0
102855,-66.6666666666667,4,2,1,60,0,0
103545,-62.5,4,2,1,60,0,0
104234,-66.6666666666667,4,2,1,60,0,0
104752,-58.8235294117647,4,2,1,60,0,0
104924,-83.3333333333333,4,2,1,60,0,0
105269,-66.6666666666667,4,2,1,60,0,0
105441,-58.8235294117647,4,2,1,60,0,0
105786,-66.6666666666667,4,2,1,60,0,0
105959,-250,4,2,1,60,0,0
106303,-66.6666666666667,4,2,1,60,0,0
106648,-58.8235294117647,4,2,1,60,0,0
107165,-66.6666666666667,4,2,1,60,0,0
107338,-58.8235294117647,4,2,1,60,0,0
107683,-66.6666666666667,4,2,1,60,0,0
108028,-83.3333333333333,4,2,1,60,0,0
108200,-45.4545454545455,4,2,1,60,0,0
109062,-250,4,2,1,60,0,0
109407,-45.4545454545455,4,2,1,60,0,0
109752,-250,4,2,1,60,0,0
110097,-125,4,2,1,60,0,0
110269,-66.6666666666667,4,2,1,60,0,0
110441,-500,4,2,1,20,0,0
111475,-500,4,2,1,60,0,0
111648,-500,4,2,1,20,0,0
112854,-500,4,2,1,20,0,0
113200,-500,4,2,1,20,0,0
116993,-500,4,2,1,20,0,0
117165,-500,4,2,1,20,0,0
118372,-500,4,2,1,20,0,0
118717,-500,4,2,1,20,0,0

[Colours]
Combo1 : 192,192,192
Combo2 : 64,255,255
Combo3 : 251,140,218
Combo4 : 13,134,255
Combo5 : 250,58,125
SliderBorder : 219,254,255
SliderTrackOverride : 2,30,77

[HitObjects]
178,261,97,6,0,B|253:238|178:143|123:173|79:213|62:299|139:324|167:366|167:366|247:313|240:384|311:365,1,484,2|0,2:0|0:0,0:0:0:0:
408,276,2165,6,0,B|430:248|474:232|512:255|512:255|470:272|329:169|456:143|458:92|462:29|462:29|471:73|510:100,1,484,2|0,2:0|0:0,0:0:0:0:
336,56,4234,6,0,B|219:-7|219:129|107:61|107:61|140:43|155:-7|155:-7|155:125|68:76|68:236,1,594,2|0,2:0|0:0,0:0:0:0:
89,222,6648,5,2,2:0:0:0:
137,285,6821,1,2,2:0:0:0:
148,363,6993,2,2,L|131:381,1,22,2|0,2:0|0:0,0:0:0:0:
240,202,7683,6,2,L|215:196,1,22,2|0,2:0|0:0,0:0:0:0:
425,201,8372,6,2,L|417:177,1,22,2|0,2:0|0:0,0:0:0:0:
79,144,9407,5,2,2:0:0:0:
89,222,9579,1,2,2:0:0:0:
59,295,9752,2,2,L|35:302,1,22,2|0,2:0|0:0,0:0:0:0:
218,196,10441,6,2,L|200:179,1,22,2|0,2:0|0:0,0:0:0:0:
383,282,11131,6,0,B|371:173|447:165|431:72|431:72|552:175|337:200|278:209|230:159|222:57|276:13|364:41|351:105,1,676.500010322571,2|2,2:0|0:0,0:0:0:0:
168,176,13890,6,0,B|133:216|49:206|95:149|2:172|2:172|86:144|79:54|79:54|36:65|9:44|9:44|25:93|100:97|100:97|137:65|182:77,1,594.000014501954,2|0,2:0|0:0,0:0:0:0:
320,239,16648,6,0,B|337:249|356:252|356:252|405:250|439:214|439:214|485:250|540:227|540:227|534:275|515:300|407:339|348:148|328:70|328:70|308:144|244:236|168:267|168:267|277:263|276:341|389:324|389:324|339:338|312:376,1,1193.49996357727,2|0,2:0|2:0,2:0:0:0:
430,133,22165,6,0,P|431:80|464:24,1,110,2|0,1:2|0:0,0:0:0:0:
442,140,23545,1,0,0:0:0:0:
272,212,24234,6,0,P|244:161|239:56,1,153.999995300293,2|0,2:0|0:0,0:0:0:0:
285,215,25614,1,0,0:0:0:0:
153,339,26303,6,0,P|98:301|50:163,2,197.99999395752,2|0|0,2:0|0:0|0:0,0:0:0:0:
455,311,28717,5,2,2:0:0:0:
451,206,28890,1,2,2:0:0:0:
488,109,29062,1,2,2:0:0:0:
460,320,29752,6,0,P|407:299|362:292,1,98.9999969787599,2|0,2:0|0:0,0:0:0:0:
409,136,30441,2,0,P|356:157|311:164,1,98.9999969787599,2|0,2:0|0:0,0:0:0:0:
57,311,31476,5,2,2:0:0:0:
61,206,31648,1,2,2:0:0:0:
24,109,31821,1,2,2:0:0:0:
52,320,32510,6,0,P|105:299|150:292,1,98.9999969787599,2|0,2:0|0:0,0:0:0:0:
266,206,33200,2,0,B|230:288|276:288|253:338,2,131.99999597168,2|0|0,2:0|0:0|0:0,0:0:0:0:
110,124,35269,6,0,L|104:85,1,38.5
59,20,35959,6,0,B|164:118|190:13|343:102|191:122|294:249|398:185|405:82|359:24|287:24,1,494.999984893799,2|0,2:0|0:0,0:0:0:0:
91,163,38717,6,0,B|118:188|150:219|134:302|134:302|63:315|17:383|17:383|39:312|118:299|118:299|204:352|311:317|336:291|362:256|362:256|307:236|255:248|223:294,1,866.25,2|0,2:0|0:0,0:0:0:0:
24,228,44234,6,0,B|124:190|125:301|251:295,1,220,6|0,1:0|0:0,0:0:0:0:
435,262,44752,2,0,P|333:274|318:375,1,220,0|0,0:0|0:0,0:0:0:0:
368,168,45269,6,0,P|388:157|415:147,1,41.25,0|0,0:0|0:0,0:0:0:0:
405,150,45614,6,0,B|305:132|315:237|191:211,1,197.99999395752,2|0,0:1|0:0,0:0:0:0:
225,84,45959,6,0,B|325:66|315:171|439:145,1,197.99999395752,2|0,0:1|0:0,0:0:0:0:
404,18,46303,6,0,B|304:0|314:105|190:79,1,197.99999395752,2|0,0:1|0:0,0:0:0:0:
4,64,46648,6,0,P|34:26|81:11,1,98.9999969787599,0|0,0:0|0:0,0:0:0:0:
153,45,46993,2,0,P|139:143|134:241,1,197.99999395752,2|0,0:1|0:0,0:0:0:0:
99,312,47338,2,0,L|55:344,1,32.99999899292,0|0,0:0|0:0,0:0:0:0:
181,307,47510,2,0,P|241:342|285:376,1,121.000003692627,0|0,0:0|0:0,0:0:0:0:
503,298,47855,5,0,0:0:0:0:
435,262,48028,2,0,P|410:276|392:290,1,49.4999984893799,0|0,0:0|0:0,0:0:0:0:
393,289,48372,6,0,P|387:190|373:92,1,197.99999395752,2|0,0:1|0:0,0:0:0:0:
504,6,48717,2,0,P|482:79|347:65,1,197.99999395752,2|0,0:1|0:0,0:0:0:0:
284,20,49062,2,0,P|298:12|312:3,1,32.99999899292,2|0,0:1|0:0,0:0:0:0:
302,180,49234,6,0,B|222:128|158:201|196:188|128:272|16:252,1,275,0|0,0:0|0:0,0:0:0:0:
56,254,49752,6,0,B|112:212|112:212|271:286,1,220,2|0,0:1|0:0,0:0:0:0:
479,226,50269,2,0,P|376:231|342:328,1,220,0|0,0:0|0:0,0:0:0:0:
343,78,50786,6,0,L|379:94,1,33,0|0,0:0|0:0,0:0:0:0:
373,91,51131,6,0,L|190:179,1,197.99999395752,2|0,0:1|0:0,0:0:0:0:
194,5,51476,6,0,L|377:93,1,197.99999395752,2|0,0:1|0:0,0:0:0:0:
373,262,51821,6,0,L|190:174,1,197.99999395752,2|0,0:1|0:0,0:0:0:0:
8,320,52165,6,0,P|38:358|85:373,1,98.9999969787599,0|0,0:0|0:0,0:0:0:0:
120,304,52510,2,0,P|114:212|101:108,1,197.99999395752,2|0,0:1|0:0,0:0:0:0:
40,56,52855,2,0,P|25:64|11:72,1,32.99999899292
112,28,53028,2,0,P|164:56|216:89,1,121.000003692627
440,54,53372,5,0,0:0:0:0:
372,90,53545,2,0,P|347:76|329:62,1,49.4999984893799
330,63,53890,6,0,P|343:161|350:259,1,197.99999395752,2|0,0:1|0:0,0:0:0:0:
480,345,54234,2,0,P|458:272|323:286,1,197.99999395752,2|0,0:1|0:0,0:0:0:0:
280,354,54579,2,0,P|295:361|309:370,1,32.99999899292,2|0,0:1|0:0,0:0:0:0:
402,338,54752,5,0,1:0:0:0:
399,325,54838,1,0,1:0:0:0:
390,334,54924,1,8,1:0:0:0:
170,374,55097,5,0,1:0:0:0:
480,345,55269,6,0,P|488:228|503:112,1,230.99999295044,6|0,1:0|0:0,0:0:0:0:
409,15,55614,6,0,P|388:32|364:45,1,55,0|0,1:0|0:0,0:0:0:0:
367,143,55786,2,0,P|392:151|415:166,1,55,0|0,0:0|0:0,0:0:0:0:
502,115,55959,1,0,1:0:0:0:
349,259,56131,6,0,P|323:267|300:282,1,55,0|0,0:0|0:0,0:0:0:0:
214,231,56303,1,0,1:0:0:0:
252,13,56476,5,2,0:1:0:0:
255,0,56562,1,2,0:1:0:0:
264,9,56648,2,0,L|299:181,1,176,2|2,1:0|0:1,0:0:0:0:
466,337,56993,2,0,L|298:281,1,176,2|0,1:0|0:0,0:0:0:0:
83,348,57338,2,0,L|214:230,1,176,0|0,1:0|0:0,0:0:0:0:
409,15,57683,6,0,P|388:32|364:45,1,55,0|0,1:0|0:0,0:0:0:0:
367,143,57855,2,0,P|392:151|415:166,1,55,0|0,0:0|0:0,0:0:0:0:
501,115,58028,6,0,B|377:79|360:215|224:151,1,280.500005350113,2|0,1:0|0:0,0:0:0:0:
146,81,58372,6,0,P|205:143|213:229,1,176,2|0,1:0|0:0,0:0:0:0:
377,356,58717,2,0,P|401:273|471:223,1,176,0|0,1:0|0:0,0:0:0:0:
428,102,59062,6,0,P|404:116|378:124,1,55,0|0,1:0|0:0,0:0:0:0:
255,79,59234,2,0,P|278:92|299:110,1,55,0|0,0:0|0:0,0:0:0:0:
322,227,59407,6,0,L|349:31,1,187.000003566742,2|0,1:0|0:0,0:0:0:0:
322,227,59752,2,0,L|152:311,1,187.000003566742,2|0,1:0|0:0,0:0:0:0:
322,227,60097,2,0,L|478:329,1,187.000003566742,0|0,1:0|0:0,0:0:0:0:
267,297,60441,6,0,P|243:217|234:124,1,165,0|0,1:0|0:0,0:0:0:0:
145,141,60786,5,2,1:0:0:0:
61,167,60959,1,0,1:0:0:0:
119,57,61131,5,0,1:0:0:0:
35,82,61303,1,0,1:0:0:0:
223,209,61476,5,0,1:0:0:0:
307,235,61648,1,0,1:0:0:0:
249,125,61821,5,0,1:0:0:0:
333,150,61993,1,2,1:0:0:0:
138,316,62165,6,0,P|111:273|99:232,1,93.500001783371,2|0,1:0|0:0,0:0:0:0:
151,318,62338,1,2,1:0:0:0:
301,316,62510,6,0,P|290:266|293:223,1,93.500001783371,2|0,1:0|0:0,0:0:0:0:
312,321,62683,1,0,1:0:0:0:
453,370,62855,6,0,P|459:319|477:280,1,93.500001783371,0|0,1:0|0:0,0:0:0:0:
462,378,63028,1,0,1:0:0:0:
414,133,63200,5,0,1:0:0:0:
414,133,63372,1,0,1:0:0:0:
256,360,63545,5,2,1:0:0:0:
256,21,63890,5,2,0:1:0:0:
256,21,64924,5,2,0:1:0:0:
256,360,65269,5,2,0:1:0:0:
239,182,65786,5,0,1:0:0:0:
239,182,65872,1,0,1:0:0:0:
239,182,65959,2,0,B|283:159|298:207|377:173,1,93.500001783371,8|0,1:0|0:0,0:0:0:0:
343,196,66131,1,0,1:0:0:0:
142,108,66303,6,0,P|131:150|132:193,1,76.9999976501466,6|0,1:0|0:0,0:0:0:0:
162,119,66476,2,0,P|161:80|150:43,1,76.9999976501466,0|0,0:0|0:0,0:0:0:0:
34,284,66648,6,0,P|112:228|223:301,1,176,8|0,1:0|0:0,0:0:0:0:
194,259,66907,1,0,0:0:0:0:
175,271,66993,2,0,L|274:254,1,88,0|0,0:0|0:0,0:0:0:0:
397,330,67165,2,0,L|508:346,1,88,0|0,1:0|0:0,0:0:0:0:
336,140,67338,6,0,P|320:73|318:15,1,98.9999969787599,8|0,1:0|0:0,0:0:0:0:
357,156,67510,1,2,0:1:0:0:
337,171,67597,1,2,0:1:0:0:
442,203,67683,2,0,P|470:120|470:3,2,197.99999395752,2|2|10,1:0|0:1|1:0,0:0:0:0:
249,152,68200,1,0,0:0:0:0:
229,132,68286,1,0,0:0:0:0:
211,148,68372,1,0,0:0:0:0:
68,116,68545,2,0,P|49:61|43:2,1,98.9999969787599,0|0,1:0|0:0,0:0:0:0:
131,170,68717,6,0,L|130:215,1,44,8|0,1:0|0:0,0:0:0:0:
22,367,69062,6,0,B|114:305|99:382|212:310,1,176,2|0,1:0|0:0,0:0:0:0:
372,298,69407,6,0,P|297:292|267:257,1,93.500001783371,10|0,1:0|0:0,0:0:0:0:
392,315,69579,1,0,0:0:0:0:
409,298,69665,1,0,0:0:0:0:
429,309,69752,1,0,0:0:0:0:
406,97,69924,6,0,L|413:-2,1,82.5000031471254,0|0,1:0|0:0,0:0:0:0:
212,108,70097,6,0,P|136:61|41:90,1,187.000003566742,8|0,1:0|0:0,0:0:0:0:
35,79,70355,1,0,0:0:0:0:
17,90,70441,1,2,0:1:0:0:
98,231,70614,6,0,L|91:132,1,82.5000031471254,0|0,1:0|0:0,0:0:0:0:
292,242,70786,6,0,P|368:195|463:224,1,187.000003566742,10|0,1:0|0:0,0:0:0:0:
469,213,71045,1,0,0:0:0:0:
487,224,71131,1,0,0:0:0:0:
402,373,71303,6,0,L|409:274,1,82.5000031471254,0|0,1:0|0:0,0:0:0:0:
208,384,71476,6,0,P|132:337|37:366,1,187.000003566742,8|0,1:0|0:0,0:0:0:0:
56,372,71734,1,0,0:0:0:0:
114,317,71821,6,0,B|127:235|127:235|105:191|105:191|112:102,1,197.99999395752,6|0,1:0|0:0,0:0:0:0:
0,15,72165,1,8,1:0:0:0:
178,29,72338,6,0,L|282:13,1,93.500001783371,0|0,0:0|0:0,0:0:0:0:
180,44,72510,2,0,L|86:29,1,93.500001783371,0|0,0:0|0:0,0:0:0:0:
90,45,72683,1,0,1:0:0:0:
77,40,72769,1,0,0:0:0:0:
182,166,72855,6,0,P|259:100|358:140,1,187.000003566742,8|2,1:0|0:1,0:0:0:0:
352,121,73114,2,0,P|344:92|344:73,1,46.7500008916855,2|0,0:1|0:0,0:0:0:0:
366,126,73200,6,0,L|361:304,1,165.000006294251,2|2,1:0|0:1,0:0:0:0:
493,380,73545,1,10,1:0:0:0:
407,218,73717,1,0,0:0:0:0:
386,206,73803,1,0,0:0:0:0:
365,213,73890,1,0,0:0:0:0:
343,204,73976,1,0,0:0:0:0:
322,212,74062,1,0,1:0:0:0:
470,3,74234,6,0,L|492:204,1,187.000003566742,8|0,1:0|0:0,0:0:0:0:
404,370,74579,6,0,P|305:296|211:293,1,197.99999395752,2|0,1:0|0:0,0:0:0:0:
0,351,74924,2,0,P|86:262|178:244,1,197.99999395752,10|0,1:0|0:0,0:0:0:0:
160,250,75183,1,0,0:0:0:0:
157,259,75269,1,0,0:0:0:0:
70,135,75441,5,0,1:0:0:0:
48,69,75528,1,0,1:0:0:0:
26,3,75614,1,8,1:0:0:0:
65,149,75786,6,0,L|38:160,2,19.2499994125366,0|0|2,0:0|0:0|0:1,0:0:0:0:
240,166,76131,5,0,1:0:0:0:
241,96,76217,1,0,1:0:0:0:
243,27,76303,1,10,1:0:0:0:
230,177,76476,6,0,L|200:178,2,19.2499994125366
389,253,76821,5,0,1:0:0:0:
414,187,76907,1,0,1:0:0:0:
439,123,76993,1,8,1:0:0:0:
376,260,77165,6,0,L|348:251,1,19.2499994125366,0|0,1:0|0:0,0:0:0:0:
315,136,77338,6,0,L|337:378,1,197.99999395752,6|0,1:0|0:0,0:0:0:0:
220,205,77683,6,0,P|179:152|64:190,2,187.000003566742,8|0|0,1:0|0:0|0:0,0:0:0:0:
261,371,78200,2,0,P|249:340|277:275,1,93.500001783371,0|0,1:0|0:0,0:0:0:0:
397,228,78372,6,0,P|401:173|378:129,1,98.9999969787599,8|0,1:0|0:0,0:0:0:0:
386,111,78545,1,2,0:1:0:0:
362,103,78631,1,2,0:1:0:0:
459,53,78717,2,0,L|226:68,2,197.99999395752,2|2|10,1:0|0:1|1:0,0:0:0:0:
293,165,79234,1,0,0:0:0:0:
285,162,79321,1,0,0:0:0:0:
282,171,79407,6,0,L|216:187,1,55,0|0,0:0|0:0,0:0:0:0:
216,171,79579,2,0,L|150:155,1,55,0|0,1:0|0:0,0:0:0:0:
50,220,79752,6,0,P|34:186|28:156,1,66,8|0,1:0|0:0,0:0:0:0:
43,142,80097,6,0,B|84:248|-2:228|61:336,1,176,2|0,1:0|0:0,0:0:0:0:
242,318,80441,6,0,B|224:286|224:286|154:290,1,93.500001783371,10|0,1:0|0:0,0:0:0:0:
252,330,80614,1,0,0:0:0:0:
263,329,80700,1,0,0:0:0:0:
275,343,80786,1,0,0:0:0:0:
429,314,80959,6,0,L|447:227,1,82.5000031471254,0|0,1:0|0:0,0:0:0:0:
422,12,81131,6,0,P|366:83|440:170,1,187.000003566742,8|0,1:0|0:0,0:0:0:0:
419,159,81390,1,0,0:0:0:0:
430,149,81476,1,2,0:1:0:0:
259,28,81648,6,0,L|277:115,1,82.5000031471254,0|0,1:0|0:0,0:0:0:0:
252,330,81821,6,0,P|196:259|270:172,1,187.000003566742,10|0,1:0|0:0,0:0:0:0:
249,183,82079,1,0,0:0:0:0:
260,193,82165,1,0,0:0:0:0:
89,314,82338,6,0,L|107:227,1,82.5000031471254,0|0,1:0|0:0,0:0:0:0:
82,12,82510,6,0,P|26:83|100:170,1,187.000003566742,8|0,1:0|0:0,0:0:0:0:
74,150,82769,1,0,0:0:0:0:
166,118,82855,6,0,B|232:136|232:136|271:183|271:183|364:202,1,197.99999395752,6|0,1:0|0:0,0:0:0:0:
494,88,83200,6,0,P|425:29|369:105,1,187.000003566742,8|0,1:0|0:0,0:0:0:0:
378,101,83459,1,0,0:0:0:0:
377,119,83545,1,0,0:0:0:0:
398,138,83631,1,0,0:0:0:0:
394,149,83717,1,0,1:0:0:0:
512,334,83890,6,0,B|475:274|475:274|354:282,1,187.000003566742,8|2,1:0|0:1,0:0:0:0:
347,276,84148,2,0,L|367:338,1,46.7500008916855,2|0,0:1|0:0,0:0:0:0:
333,295,84234,6,0,P|292:314|300:210,1,165.000006294251,2|2,1:0|0:1,0:0:0:0:
213,71,84579,1,10,1:0:0:0:
51,176,84752,1,0,0:0:0:0:
56,195,84838,1,0,0:0:0:0:
81,208,84924,1,0,0:0:0:0:
79,222,85010,1,0,0:0:0:0:
65,243,85097,1,0,1:0:0:0:
0,38,85269,6,0,P|120:40|166:-3,1,187.000003566742,8|0,1:0|0:0,0:0:0:0:
439,2,85614,6,0,L|432:206,1,197.99999395752,2|0,1:0|0:0,0:0:0:0:
288,384,85959,2,0,L|281:186,1,197.99999395752,10|0,1:0|0:0,0:0:0:0:
287,180,86217,1,0,0:0:0:0:
291,189,86303,1,0,0:0:0:0:
94,83,86476,5,0,1:0:0:0:
91,151,86562,1,0,1:0:0:0:
88,219,86648,1,8,1:0:0:0:
19,18,86821,6,0,L|-7:21,2,19.2499994125366,0|0|2,0:0|0:0|0:1,0:0:0:0:
87,76,87165,5,0,1:0:0:0:
91,151,87252,1,0,1:0:0:0:
94,225,87338,1,10,1:0:0:0:
176,35,87510,6,0,L|202:38,2,19.2499994125366
95,69,87855,5,0,1:0:0:0:
90,150,87941,1,0,1:0:0:0:
87,233,88028,1,8,1:0:0:0:
0,32,88200,5,0,1:0:0:0:
204,131,88372,6,0,P|217:170|221:212,1,82.5000031471254,6|0,1:0|0:0,0:0:0:0:
236,231,88545,2,0,P|237:180|250:131,1,93.500001783371,2|0,0:1|0:0,0:0:0:0:
131,290,88717,6,0,B|90:271|90:271|31:306,1,93.500001783371,8|0,1:0|0:0,0:0:0:0:
226,334,88890,6,0,B|322:279|336:384|450:351,1,187.000003566742,2|0,0:1|0:0,0:0:0:0:
409,338,89148,1,0,0:0:0:0:
396,320,89234,2,0,P|361:340|322:353,1,82.5000031471254,2|0,1:0|0:0,0:0:0:0:
436,162,89407,6,0,P|452:190|465:220,1,66,10|0,1:0|0:0,0:0:0:0:
452,248,89752,2,0,P|458:120|476:-6,1,247.500009441376,2|0,1:0|0:0,0:0:0:0:
336,60,90097,6,0,B|291:78|291:78|235:54,1,93.500001783371,10|0,1:0|0:0,0:0:0:0:
352,48,90269,1,0,0:0:0:0:
368,56,90355,1,0,0:0:0:0:
384,48,90441,1,0,0:0:0:0:
312,200,90614,6,0,P|315:241|316:282,1,82.5000031471254,0|0,1:0|0:0,0:0:0:0:
188,211,90786,6,0,B|140:183|140:183|28:235,1,165.000006294251,10|0,1:0|0:0,0:0:0:0:
25,216,91045,1,0,0:0:0:0:
10,206,91131,2,0,B|106:151|120:256|234:223,1,187.000003566742,2|0,1:0|0:0,0:0:0:0:
243,320,91390,1,0,0:0:0:0:
230,337,91476,2,0,L|333:364,1,93.500001783371,8|0,1:0|0:0,0:0:0:0:
412,292,91648,2,0,L|502:268,1,93.500001783371,0|0,0:0|0:0,0:0:0:0:
314,156,91821,5,0,0:0:0:0:
309,160,91907,1,0,0:0:0:0:
312,164,91993,2,0,P|309:205|308:246,1,82.5000031471254,0|0,1:0|0:0,0:0:0:0:
320,360,92165,6,0,P|305:238|219:149,1,247.500009441376,8|0,1:0|0:0,0:0:0:0:
72,72,92510,6,0,B|120:100|120:100|232:48,1,176,2|0,0:1|1:0,0:0:0:0:
406,0,92769,1,0,0:0:0:0:
406,0,92855,2,0,B|357:27|357:27|346:150,1,176,10|0,1:0|0:0,0:0:0:0:
249,352,93114,5,0,0:0:0:0:
249,352,93200,2,0,P|244:272|189:212,2,165.000006294251,2|2|8,0:1|1:0|1:0,0:0:0:0:
346,146,93717,6,0,B|387:127|387:127|446:162,1,93.500001783371,0|0,0:0|0:0,0:0:0:0:
229,49,93890,6,0,B|133:-6|119:99|5:66,1,197.99999395752,6|0,1:0|0:0,0:0:0:0:
36,48,94234,2,0,P|71:68|110:81,1,82.5000031471254,8|0,1:0|0:0,0:0:0:0:
163,316,94407,6,0,P|243:266|333:244,1,187.000003566742,2|0,0:1|0:0,0:0:0:0:
340,263,94665,1,0,0:0:0:0:
327,281,94752,2,0,P|292:261|253:248,1,82.5000031471254,2|0,1:0|0:0,0:0:0:0:
316,60,94924,6,0,P|346:47|374:30,1,66,10|0,1:0|0:0,0:0:0:0:
362,16,95269,2,0,P|345:138|339:262,1,247.500009441376,2|0,1:0|0:0,0:0:0:0:
163,316,95614,6,0,P|158:269|151:223,1,93.500001783371,10|0,1:0|0:0,0:0:0:0:
176,332,95786,1,0,0:0:0:0:
168,348,95872,1,0,0:0:0:0:
180,364,95959,1,0,0:0:0:0:
417,250,96131,6,0,P|452:230|491:217,1,82.5000031471254,0|0,1:0|0:0,0:0:0:0:
382,130,96303,6,0,B|286:75|272:180|158:147,1,187.000003566742,10|0,1:0|0:0,0:0:0:0:
96,180,96562,1,0,0:0:0:0:
83,164,96648,2,0,P|206:169|329:187,1,247.500009441376,2|0,1:0|0:0,0:0:0:0:
382,130,96993,2,0,P|387:83|394:37,1,65.9999979858399,8|0,1:0|0:0,0:0:0:0:
336,203,97165,6,0,P|216:185|95:179,1,242.000007385254,0|0,0:0|0:0,0:0:0:0:
0,62,97510,5,0,1:0:0:0:
13,43,97597,1,0,1:0:0:0:
3,22,97683,2,0,B|16:111|16:111|3:159|3:159|24:272,1,242.000007385254,8|0,1:0|0:0,0:0:0:0:
13,380,97941,1,0,0:0:0:0:
0,368,98028,2,0,L|5:337,1,22,2|0,0:1|0:0,0:0:0:0:
182,180,98200,5,0,1:0:0:0:
193,200,98286,1,0,1:0:0:0:
188,220,98372,2,0,B|312:148|330:284|477:241,1,242.000007385254,10|0,1:0|0:0,0:0:0:0:
512,172,98631,1,0,0:0:0:0:
500,185,98717,2,0,L|469:180,1,22,2|0,0:1|0:0,0:0:0:0:
299,339,98890,5,2,1:0:0:0:
300,322,98976,1,0,1:0:0:0:
311,308,99062,2,0,P|334:309|354:316,1,44,8|0,1:0|0:0,0:0:0:0:
512,328,99234,6,0,P|472:340|437:361,1,82.5000031471254,2|0,1:0|0:0,0:0:0:0:
395,170,99407,6,0,P|415:79|480:0,1,197.99999395752,6|0,1:0|0:0,0:0:0:0:
484,20,99752,2,0,P|447:38|407:48,1,82.5000031471254,8|0,1:0|0:0,0:0:0:0:
277,160,99924,6,0,B|181:105|167:210|53:177,1,187.000003566742,2|0,0:1|0:0,0:0:0:0:
94,164,100183,1,0,0:0:0:0:
107,146,100269,2,0,P|142:166|181:179,1,82.5000031471254,2|0,1:0|0:0,0:0:0:0:
356,264,100441,6,0,P|325:276|297:293,1,66,10|0,1:0|0:0,0:0:0:0:
311,308,100786,2,0,P|305:184|292:61,1,247.500009441376,2|0,1:0|0:0,0:0:0:0:
100,71,101131,6,0,P|93:119|93:164,1,93.500001783371,10|0,1:0|0:0,0:0:0:0:
94,52,101303,1,0,0:0:0:0:
107,34,101390,1,0,0:0:0:0:
94,16,101476,1,0,0:0:0:0:
348,122,101648,6,0,B|393:140|393:140|449:116,1,93.500001783371,0|0,1:0|0:0,0:0:0:0:
357,245,101821,6,0,B|303:221|303:221|197:269,1,165.000006294251,10|0,1:0|0:0,0:0:0:0:
192,252,102079,1,0,0:0:0:0:
179,240,102165,2,0,B|275:185|289:290|403:257,1,187.000003566742,2|0,1:0|0:0,0:0:0:0:
480,246,102424,1,0,0:0:0:0:
465,248,102510,2,0,P|458:296|458:341,1,93.500001783371,8|0,1:0|0:0,0:0:0:0:
362,356,102683,2,0,P|361:309|354:263,1,93.500001783371
188,150,102855,5,0,0:0:0:0:
183,154,102941,1,0,0:0:0:0:
186,158,103028,2,0,P|179:204|178:250,1,82.5000031471254,0|0,1:0|0:0,0:0:0:0:
158,327,103200,6,0,P|150:203|139:80,1,247.500009441376,8|0,1:0|0:0,0:0:0:0:
308,32,103545,6,0,P|335:111|448:138,1,176,2|0,0:1|1:0,0:0:0:0:
354,263,103803,1,0,0:0:0:0:
354,263,103890,2,0,P|274:289|247:402,1,176,10|0,1:0|0:0,0:0:0:0:
83,296,104148,5,0,0:0:0:0:
83,296,104234,2,0,P|78:213|71:131,2,165.000006294251,2|2|8,0:1|1:0|1:0,0:0:0:0:
261,122,104752,6,0,B|306:104|306:104|347:121,1,93.500001783371,0|0,0:0|0:0,0:0:0:0:
193,18,104924,6,0,B|97:-37|83:68|-31:35,1,197.99999395752,6|0,1:0|0:0,0:0:0:0:
0,17,105269,2,0,P|35:37|74:50,1,82.5000031471254,8|0,1:0|0:0,0:0:0:0:
178,239,105441,6,0,B|245:212|245:212|361:261,1,187.000003566742,2|0,0:1|0:0,0:0:0:0:
362,237,105700,1,0,0:0:0:0:
361,218,105786,2,0,P|326:238|287:251,1,82.5000031471254,2|0,1:0|0:0,0:0:0:0:
109,291,105959,6,0,P|93:319|80:349,1,66,10|0,1:0|0:0,0:0:0:0:
93,377,106303,2,0,P|87:249|69:123,1,247.500009441376,2|0,1:0|0:0,0:0:0:0:
248,48,106648,6,0,P|240:94|236:140,1,93.500001783371,10|0,1:0|0:0,0:0:0:0:
261,32,106821,1,0,0:0:0:0:
253,16,106907,1,0,0:0:0:0:
265,0,106993,1,0,0:0:0:0:
178,239,107165,6,0,P|185:285|189:331,1,82.5000031471254,0|0,1:0|0:0,0:0:0:0:
236,140,107338,6,0,B|332:85|346:190|460:157,1,187.000003566742,10|0,1:0|0:0,0:0:0:0:
503,205,107597,1,0,0:0:0:0:
511,187,107683,2,0,B|456:150|456:150|268:210,1,247.500009441376,2|0,1:0|0:0,0:0:0:0:
236,140,108028,2,0,P|204:130|172:121,1,65.9999979858399,8|0,1:0|0:0,0:0:0:0:
280,226,108200,6,0,B|452:170|452:170|507:207,1,242.000007385254,0|0,0:0|0:0,0:0:0:0:
379,346,108545,5,0,1:0:0:0:
402,340,108631,1,0,1:0:0:0:
425,334,108717,2,0,B|330:318|330:318|275:333|275:333|182:319,1,242.000007385254,8|0,1:0|0:0,0:0:0:0:
72,368,108976,1,0,0:0:0:0:
90,365,109062,2,0,L|97:344,1,22,2|0,0:1|0:0,0:0:0:0:
111,76,109234,5,0,1:0:0:0:
101,54,109321,1,0,1:0:0:0:
91,33,109407,2,0,B|56:83|56:83|120:253,1,242,10|0,1:0|0:0,0:0:0:0:
248,277,109665,1,0,0:0:0:0:
245,259,109752,2,0,L|224:252,1,22,2|0,0:1|0:0,0:0:0:0:
44,180,109924,5,2,1:0:0:0:
22,190,110010,1,0,1:0:0:0:
1,200,110097,2,0,B|29:197|43:208,1,44,8|0,1:0|0:0,0:0:0:0:
144,156,110269,6,0,B|187:170|222:138,1,82.5000031471254,0|0,1:0|0:0,0:0:0:0:
320,60,110441,6,0,L|308:196,1,132,6|0,1:0|0:0,0:0:0:0:
274,328,111648,1,2,0:1:0:0:
269,324,111734,1,2,0:1:0:0:
275,321,111821,1,2,0:1:0:0:
202,287,111993,1,2,0:1:0:0:
98,346,112165,6,0,P|30:348|6:350,1,88,2|0,0:1|0:0,0:0:0:0:
125,193,113200,5,2,0:1:0:0:
401,219,113545,1,2,0:1:0:0:
401,219,114579,5,2,0:1:0:0:
125,193,114924,1,2,0:1:0:0:
246,36,115959,6,0,L|255:172,1,132,2|0,0:1|0:0,0:0:0:0:
140,113,117165,1,2,0:1:0:0:
139,106,117252,1,2,0:1:0:0:
145,108,117338,1,2,0:1:0:0:
72,131,117510,1,2,0:1:0:0:
15,259,117683,6,0,P|73:251|111:247,1,88,2|0,0:1|0:0,0:0:0:0:
243,378,118717,5,2,0:1:0:0:
283,7,119062,1,2,0:1:0:0:
283,7,120097,5,2,0:1:0:0:
243,378,120441,1,2,0:1:0:0:
