osu file format v14

[General]
AudioFilename: audio.mp3
AudioLeadIn: 0
PreviewTime: -1
Countdown: 0
SampleSet: Soft
StackLeniency: 0.7
Mode: 0
LetterboxInBreaks: 0
WidescreenStoryboard: 1

[Editor]
DistanceSpacing: 1.7
BeatDivisor: 4
GridSize: 8
TimelineZoom: 2.4

[Metadata]
Title:Freefall
TitleUnicode:Freefall
Artist:Feint
ArtistUnicode:Feint
Creator:abcd452
Version:Insane
Source:
Tags:DnB, Feint
BeatmapID:1020380
BeatmapSetID:475523

[Difficulty]
HPDrainRate:5.5
CircleSize:3.7
OverallDifficulty:7.5
ApproachRate:9
SliderMultiplier:1.6
SliderTickRate:1

[Events]
//Background and Video events
0,0,"freefall_bg.jpg",0,0
//Break Periods
2,109138,142282
//Storyboard Layer 0 (Background)
//Storyboard Layer 1 (Fail)
//Storyboard Layer 2 (Pass)
//Storyboard Layer 3 (Foreground)
//Storyboard Sound Samples

[TimingPoints]
254,342.857142857143,4,1,0,20,1,0
11225,-100,4,2,0,30,0,0
24939,-200,4,2,0,20,0,0
27682,-100,4,2,0,30,0,0
33168,-100,4,2,0,35,0,0
41396,-200,4,2,0,20,0,0
44139,-100,4,2,0,30,0,0
55111,-80,4,1,0,40,0,1
120940,-133.333333333333,4,2,0,30,0,0
142882,-80,4,1,0,40,0,1
186768,-133.333333333333,4,2,0,30,0,0
208711,-200,4,2,0,30,0,0

[Colours]
Combo1 : 244,252,228
Combo2 : 255,255,255
Combo3 : 0,0,255
Combo4 : 255,0,0

[HitObjects]
256,192,5739,12,0,10882,0:0:0:0:
130,80,11225,6,0,P|97:124|103:179,1,80
148,246,11568,2,0,P|181:202|175:147,1,80
57,254,12082,2,0,P|89:331|167:320,1,160
221,282,12596,1,0,0:0:0:0:
259,169,12768,2,0,P|295:181|308:218,1,80
311,57,13968,6,0,P|345:101|377:123,1,80
271,206,14311,2,0,P|237:162|205:140,1,80
124,206,14825,1,0,0:0:0:0:
224,258,15168,2,0,L|334:263,2,80
226,126,15854,5,0,0:0:0:0:
304,262,16025,1,0,0:0:0:0:
148,262,16196,2,0,P|52:198|69:147,1,160
124,192,16711,5,0,0:0:0:0:
256,192,16968,1,0,0:0:0:0:
388,192,17225,1,0,0:0:0:0:
256,192,17568,1,0,0:0:0:0:
124,192,17739,2,0,L|147:104,1,80
256,60,18082,5,0,0:0:0:0:
256,192,18339,1,0,0:0:0:0:
256,324,18596,1,0,0:0:0:0:
256,192,18939,1,0,0:0:0:0:
256,60,19111,2,0,L|168:83,1,80
124,192,19454,5,0,0:0:0:0:
256,324,19711,1,0,0:0:0:0:
388,192,19968,1,0,0:0:0:0:
256,60,20311,6,0,L|243:105,5,40
294,47,20825,5,0,0:0:0:0:
332,56,20910,1,0,0:0:0:0:
365,79,20996,1,0,0:0:0:0:
388,111,21082,1,0,0:0:0:0:
399,150,21167,1,0,0:0:0:0:
395,189,21253,1,0,0:0:0:0:
379,225,21339,1,0,0:0:0:0:
351,254,21425,1,0,0:0:0:0:
315,271,21511,2,0,L|244:281,3,40
223,282,21854,2,0,P|180:271|151:245,1,80
87,190,22196,6,0,P|67:142|137:71,1,160
177,165,22711,1,0,0:0:0:0:
221,258,22882,2,0,P|282:214|267:140,1,160
177,165,23397,1,0,0:0:0:0:
72,256,23568,6,0,L|124:340,1,80
177,165,23911,2,0,L|125:81,1,80
282,256,24254,2,0,L|334:340,1,80
387,165,24596,2,0,L|335:81,1,80
177,165,24939,5,0,0:0:0:0:
256,192,25025,12,0,26140,0:0:0:0:
256,192,26311,5,0,0:0:0:0:
256,192,26396,12,0,27511,0:0:0:0:
286,98,27682,6,0,L|368:133,2,80
182,53,28196,1,0,0:0:0:0:
128,131,28368,2,0,L|160:227,1,80
324,244,28882,1,0,0:0:0:0:
325,151,29054,5,0,0:0:0:0:
327,337,29225,1,0,0:0:0:0:
402,244,29396,2,0,L|434:165,1,80
64,84,30425,6,0,L|118:156,1,80
182,213,30768,1,0,0:0:0:0:
211,121,30939,1,0,0:0:0:0:
301,305,31282,2,0,P|233:281|177:193,1,160
277,206,31796,6,0,P|289:168|292:128,2,80
292,128,32311,1,0,0:0:0:0:
195,43,32482,2,0,P|198:82|210:120,2,80
210,120,33168,5,8,0:0:0:0:
356,185,33425,1,8,0:0:0:0:
226,279,33682,1,8,0:0:0:0:
80,214,34025,1,0,0:0:0:0:
210,120,34196,2,0,P|278:108|312:116,1,80
226,279,34539,5,8,0:0:0:0:
80,214,34796,1,8,0:0:0:0:
210,120,35053,1,8,0:0:0:0:
80,214,35396,1,0,0:0:0:0:
210,120,35567,2,0,P|278:108|312:116,1,80
226,279,35910,5,8,0:0:0:0:
80,214,36167,1,8,0:0:0:0:
210,120,36424,1,8,0:0:0:0:
340,214,36596,2,0,P|326:290|308:315,1,80
300,323,36854,1,0,0:0:0:0:
263,339,36939,1,0,0:0:0:0:
224,342,37025,1,0,0:0:0:0:
186,329,37111,1,0,0:0:0:0:
155,304,37196,1,0,0:0:0:0:
136,269,37282,6,0,P|130:237|131:213,3,40
134,189,37625,1,0,0:0:0:0:
139,149,37710,1,0,0:0:0:0:
155,113,37796,1,0,0:0:0:0:
183,84,37882,1,0,0:0:0:0:
219,67,37967,1,0,0:0:0:0:
259,64,38053,1,0,0:0:0:0:
297,75,38139,1,0,0:0:0:0:
329,99,38224,1,0,0:0:0:0:
352,132,38311,2,0,P|376:179|381:212,1,80
341,272,38654,6,0,P|235:284|167:330,1,160
34,158,39339,2,0,P|140:146|208:100,1,160
111,45,39854,1,0,0:0:0:0:
185,120,40025,6,0,P|220:196|219:274,1,160
129,217,40539,1,0,0:0:0:0:
219,271,40711,2,0,P|320:246|353:177,1,160
256,192,41225,1,0,0:0:0:0:
256,192,41396,5,0,0:0:0:0:
256,192,41482,12,0,42597,0:0:0:0:
256,192,42768,5,0,0:0:0:0:
256,192,42854,12,0,43968,0:0:0:0:
290,64,44139,6,0,P|312:103|320:139,1,80
361,232,44482,2,0,P|300:242|256:225,1,80
232,147,44825,1,0,0:0:0:0:
172,62,44996,2,0,P|143:88|136:127,1,80
140,231,45339,2,0,P|134:276|140:320,2,80
232,147,45854,5,0,0:0:0:0:
386,64,46196,5,8,0:0:0:0:
386,320,46539,5,8,0:0:0:0:
389,143,46882,6,0,P|383:98|386:58,2,80
394,247,47396,1,0,0:0:0:0:
211,318,47739,2,0,P|142:268|89:207,1,160
211,318,48254,5,0,0:0:0:0:
92,212,48425,2,0,B|96:173|71:110|71:110|121:106|142:74,1,160
308,135,48939,1,0,0:0:0:0:
151,97,49111,1,0,0:0:0:0:
336,145,49282,2,0,P|373:169|389:213,1,80
256,284,49625,5,8,0:0:0:0:
176,145,49882,1,8,0:0:0:0:
336,145,50139,1,8,0:0:0:0:
267,83,50482,2,0,P|262:138|252:174,1,80
117,204,50825,1,0,0:0:0:0:
256,284,50996,5,8,0:0:0:0:
137,78,51254,1,8,0:0:0:0:
377,78,51511,1,8,0:0:0:0:
245,83,51854,2,0,P|250:138|260:174,1,80
395,204,52196,1,0,0:0:0:0:
256,314,52368,5,8,0:0:0:0:
96,37,52625,1,8,0:0:0:0:
416,37,52882,1,8,0:0:0:0:
254,37,53054,2,0,P|256:76|265:115,1,80
285,150,53311,1,0,0:0:0:0:
297,187,53396,1,0,0:0:0:0:
317,222,53482,1,0,0:0:0:0:
345,250,53568,1,0,0:0:0:0:
383,261,53653,1,0,0:0:0:0:
416,242,53739,5,0,0:0:0:0:
423,204,53825,1,0,0:0:0:0:
403,170,53910,1,0,0:0:0:0:
365,163,53996,1,0,0:0:0:0:
329,181,54082,1,0,0:0:0:0:
299,208,54168,1,0,0:0:0:0:
271,235,54253,1,0,0:0:0:0:
237,257,54339,1,0,0:0:0:0:
198,255,54425,1,0,0:0:0:0:
159,248,54511,1,0,0:0:0:0:
126,227,54597,1,0,0:0:0:0:
97,199,54682,1,0,0:0:0:0:
67,172,54768,2,0,L|55:113,1,40
126,37,54939,2,0,L|152:90,1,40
185,172,55111,6,0,P|214:129|233:73,1,100
67,172,55454,2,0,P|37:214|18:270,1,100
198,255,55796,2,0,P|249:233|293:185,1,100
332,70,56139,2,0,L|368:180,1,100
391,257,56482,6,0,P|368:199|366:131,1,100
446,35,56825,2,0,P|473:92|489:147,1,100
390,256,57168,1,0,0:0:0:0:
484,126,57339,1,0,0:0:0:0:
324,126,57511,1,0,0:0:0:0:
390,256,57682,1,0,0:0:0:0:
316,26,57854,6,0,L|324:136,1,100
249,304,58196,2,0,L|241:194,1,100
230,52,58539,2,0,P|181:89|184:156,1,100
249,304,58882,1,0,0:0:0:0:
100,221,59054,1,0,0:0:0:0:
270,109,59225,6,0,P|208:109|151:147,1,100
133,315,59568,2,0,L|95:207,1,100
46,66,59911,1,0,0:0:0:0:
91,199,60082,1,0,0:0:0:0:
37,44,60254,1,0,0:0:0:0:
82,177,60425,1,0,0:0:0:0:
127,44,60596,6,0,B|168:38|177:41|177:41|207:44|229:69,1,100
259,237,60939,2,0,L|360:290,1,100
325,80,61282,2,0,P|277:143|278:191,1,100
488,215,61625,2,0,L|387:162,1,100
487,310,61968,6,0,P|499:256|483:206,1,100
325,80,62311,2,0,L|329:184,1,100
445,65,62654,1,0,0:0:0:0:
188,129,62825,1,0,0:0:0:0:
390,215,62996,1,0,0:0:0:0:
315,63,63168,1,0,0:0:0:0:
240,215,63339,6,0,P|233:263|260:304,1,100
457,288,63682,2,0,L|389:214,1,100
171,198,64025,2,0,P|218:143|261:143,1,100
445,65,64368,2,0,L|382:143,1,100
238,213,64711,6,0,P|304:182|316:142,1,100
366,19,65054,2,0,L|435:116,1,100
329,228,65396,1,0,0:0:0:0:
254,104,65568,1,0,0:0:0:0:
381,154,65739,1,0,0:0:0:0:
169,176,65911,1,0,0:0:0:0:
381,154,66082,6,0,P|418:214|393:280,1,100
120,263,66425,2,0,L|173:168,1,100
109,98,66768,1,0,0:0:0:0:
293,256,66939,1,0,0:0:0:0:
105,193,67111,2,0,P|96:129|121:81,1,100
121,291,67454,6,0,L|242:328,1,100
204,126,67796,2,0,L|83:89,1,100
347,169,68139,2,0,L|468:206,1,100
277,57,68482,2,0,L|188:140,1,100
308,258,68825,5,0,0:0:0:0:
113,192,68996,1,0,0:0:0:0:
277,57,69168,2,0,P|325:112|332:168,1,100
180,241,69511,1,0,0:0:0:0:
107,49,69682,1,0,0:0:0:0:
331,136,69854,2,0,P|380:101|394:29,1,100
203,44,70196,6,0,P|164:103|125:136,1,100
112,282,70539,2,0,P|153:310|203:315,1,100
62,196,70882,2,0,L|120:295,1,100
23,109,71225,2,0,P|60:163|59:208,1,100
211,165,71568,5,0,0:0:0:0:
274,42,71739,1,0,0:0:0:0:
118,62,71911,2,0,L|236:94,1,100
383,74,72254,1,0,0:0:0:0:
320,197,72425,1,0,0:0:0:0:
479,100,72597,2,0,L|361:68,1,100
223,224,72939,6,0,L|347:189,1,100
163,143,73282,1,0,0:0:0:0:
281,303,73454,1,0,0:0:0:0:
163,143,73625,2,0,L|228:231,1,100
377,329,73968,2,0,L|265:298,1,100
163,143,74311,6,0,P|203:88|271:86,1,100
94,206,74654,1,0,0:0:0:0:
231,79,74825,1,0,0:0:0:0:
178,259,74996,2,0,P|223:289|285:276,1,100
327,107,75339,2,0,P|282:77|220:90,1,100
377,195,75682,6,0,P|416:142|409:85,1,100
149,28,76025,2,0,P|192:68|249:78,1,100
75,79,76368,2,0,P|147:27|160:31,1,100
134,149,76711,2,0,P|86:116|83:42,1,100
74,78,76968,1,0,0:0:0:0:
74,78,77054,5,0,0:0:0:0:
230,78,77225,1,0,0:0:0:0:
353,174,77396,2,0,P|342:230|276:289,1,100
329,89,77739,2,0,L|222:77,1,100
118,218,78082,2,0,L|225:230,1,100
465,256,78425,6,0,L|358:244,1,100
232,330,78768,2,0,L|295:243,1,100
209,47,79111,2,0,L|197:154,1,100
167,295,79454,1,0,0:0:0:0:
316,326,79625,1,0,0:0:0:0:
466,235,79796,6,0,P|371:244|315:334,1,200
167,295,80311,1,0,0:0:0:0:
56,158,80482,2,0,P|142:198|164:302,1,200
315,263,80996,1,0,0:0:0:0:
371,97,81168,6,0,P|304:164|318:269,1,200
166,230,81682,1,0,0:0:0:0:
166,80,81854,2,0,L|166:273,1,150
166,280,82196,2,0,L|166:222,1,50
165,177,82368,1,0,0:0:0:0:
296,52,82539,6,0,L|379:106,1,100
223,148,82882,2,0,L|260:239,1,100
84,214,83225,2,0,L|61:310,1,100
260,240,83568,1,0,0:0:0:0:
379,106,83739,1,0,0:0:0:0:
383,205,83911,6,0,P|381:113|374:89,1,100
361,301,84254,2,0,P|382:211|382:186,1,100
181,207,84596,2,0,P|183:299|190:323,1,100
203,111,84939,2,0,P|181:200|181:225,1,100
338,99,85282,6,0,B|270:90|230:46|230:46|187:59|209:141,1,200
206,213,85796,1,0,0:0:0:0:
67,98,85968,2,0,B|135:89|175:45|175:45|218:58|196:140,1,200
206,286,86482,1,0,0:0:0:0:
367,218,86654,6,0,P|380:166|386:232,1,200
206,286,87168,1,0,0:0:0:0:
86,154,87339,2,0,P|176:118|193:127,1,100
170,116,87596,1,0,0:0:0:0:
170,116,87682,1,0,0:0:0:0:
206,286,87854,1,0,0:0:0:0:
86,154,88025,6,0,P|61:243|66:271,1,100
206,286,88368,1,0,0:0:0:0:
278,145,88539,1,0,0:0:0:0:
329,298,88711,2,0,P|331:213|305:195,1,100
126,75,89054,2,0,P|84:114|96:171,1,100
130,300,89396,6,0,P|192:272|212:216,1,100
279,88,89739,1,0,0:0:0:0:
208,248,89911,1,0,0:0:0:0:
330,158,90082,1,0,0:0:0:0:
156,177,90254,1,0,0:0:0:0:
295,238,90425,1,0,0:0:0:0:
192,97,90597,1,0,0:0:0:0:
208,248,90768,6,0,P|281:325|376:271,1,200
330,158,91282,1,0,0:0:0:0:
192,97,91454,2,0,P|89:121|88:230,1,200
208,248,91968,1,0,0:0:0:0:
384,302,92139,6,0,P|277:303|205:243,1,200
278,58,93511,6,0,P|318:97|318:152,1,100
152,197,93854,1,0,0:0:0:0:
321,138,94025,1,0,0:0:0:0:
152,197,94196,2,0,P|159:245|196:277,1,100
408,270,94539,2,0,L|324:344,1,100
152,197,94882,6,0,P|157:129|197:105,1,100
376,146,95225,1,0,0:0:0:0:
178,111,95396,1,0,0:0:0:0:
315,27,95568,1,0,0:0:0:0:
236,256,95739,1,0,0:0:0:0:
376,146,95911,1,0,0:0:0:0:
178,111,96082,1,0,0:0:0:0:
315,27,96254,6,0,B|277:80|315:80|315:80|294:102|267:107|292:120|284:130|269:124|269:124|248:142|256:203,1,200
178,111,96768,1,0,0:0:0:0:
236,256,96939,2,0,B|248:285|263:274|263:274|284:301|307:294|307:294|295:320|325:289|328:325|328:325|354:295|340:350|378:321|385:328|416:303,1,200
409,186,97454,1,0,0:0:0:0:
266,135,97625,6,0,B|227:94|190:53|190:53|234:176,1,200
409,186,98139,1,0,0:0:0:0:
266,135,98311,2,0,B|209:156|190:144|190:144|190:128|182:161|170:207|131:187|131:187|140:236|114:193|98:227,1,200
46,342,98825,2,0,L|70:301,3,33.3333333333333
62,130,99168,5,0,0:0:0:0:
246,129,99339,1,0,0:0:0:0:
247,313,99511,1,0,0:0:0:0:
63,314,99682,2,0,P|64:215|76:207,1,100
247,313,100025,1,0,0:0:0:0:
63,314,100196,1,0,0:0:0:0:
246,313,100368,6,0,L|326:252,1,100
242,98,100711,2,0,L|162:159,1,100
383,318,101053,2,0,L|463:257,1,100
322,38,101396,2,0,L|242:99,1,100
374,202,101739,6,0,P|270:233|255:346,1,200
342,124,102254,1,0,0:0:0:0:
138,182,102425,2,0,P|231:161|266:71,1,200
170,260,102939,1,0,0:0:0:0:
342,124,103111,6,0,L|181:252,1,200
188,126,104482,5,0,0:0:0:0:
305,275,104654,1,0,0:0:0:0:
365,131,104825,2,0,P|378:78|336:30,1,100
111,77,105168,2,0,P|154:123|215:113,1,100
303,224,105511,2,0,L|322:288,1,50
398,323,105682,2,0,L|400:270,1,50
446,174,105854,2,0,L|479:275,1,100
304,334,106196,5,0,0:0:0:0:
150,259,106368,1,0,0:0:0:0:
317,287,106539,1,0,0:0:0:0:
462,197,106711,1,0,0:0:0:0:
299,247,106882,1,0,0:0:0:0:
331,79,107054,1,0,0:0:0:0:
384,236,107225,6,0,P|376:281|226:199,1,200
145,172,107739,1,0,0:0:0:0:
299,247,107911,2,0,P|307:202|457:284,1,200
346,316,108425,1,0,0:0:0:0:
160,321,108596,2,0,P|168:276|318:358,1,200
137,123,142882,6,0,P|106:180|119:230,1,100
287,255,143225,1,0,0:0:0:0:
110,212,143396,1,0,0:0:0:0:
236,116,143568,1,0,0:0:0:0:
134,307,143739,1,0,0:0:0:0:
307,163,143911,1,0,0:0:0:0:
110,212,144082,1,0,0:0:0:0:
328,335,144254,6,0,P|387:323|423:265,1,100
395,112,144596,1,0,0:0:0:0:
410,274,144768,1,0,0:0:0:0:
351,95,144939,1,0,0:0:0:0:
366,257,145111,1,0,0:0:0:0:
487,151,145282,2,0,L|386:108,1,100
268,277,145625,6,0,L|386:252,1,100
446,192,145968,1,0,0:0:0:0:
343,192,146139,1,0,0:0:0:0:
206,62,146311,2,0,L|176:161,1,100
169,280,146654,1,0,0:0:0:0:
261,156,146825,1,0,0:0:0:0:
347,311,146996,6,0,L|238:358,1,100
106,336,147339,1,0,0:0:0:0:
312,226,147510,1,0,0:0:0:0:
105,206,147682,2,0,P|69:158|91:109,1,100
103,79,147939,1,0,0:0:0:0:
150,64,148024,1,0,0:0:0:0:
240,107,148196,1,0,0:0:0:0:
302,185,148368,6,0,P|374:220|423:198,1,100
409,112,148711,1,0,0:0:0:0:
478,229,148882,1,0,0:0:0:0:
300,215,149054,2,0,L|204:257,1,100
24,335,149396,1,0,0:0:0:0:
208,255,149568,1,0,0:0:0:0:
