osu file format v14

[General]
AudioFilename: audio.mp3
AudioLeadIn: 0
PreviewTime: 68704
Countdown: 0
SampleSet: Soft
StackLeniency: 0.7
Mode: 0
LetterboxInBreaks: 0
WidescreenStoryboard: 1

[Editor]
DistanceSpacing: 1.3
BeatDivisor: 4
GridSize: 4
TimelineZoom: 2.5

[Metadata]
Title:Fall Away
TitleUnicode:Fall Away
Artist:Feint
ArtistUnicode:Feint
Creator:Kujinn
Version:Kergio's Hard
Source:
Tags:dnb drum n bass kergio akitoshi my angel kanan nextplay
BeatmapID:1368570
BeatmapSetID:517678

[Difficulty]
HPDrainRate:5
CircleSize:3.5
OverallDifficulty:6
ApproachRate:7.8
SliderMultiplier:1.4
SliderTickRate:1

[Events]
//Background and Video events
0,0,"BG.png",0,0
//Break Periods
//Storyboard Layer 0 (Background)
//Storyboard Layer 1 (Fail)
//Storyboard Layer 2 (Pass)
//Storyboard Layer 3 (Foreground)
//Storyboard Sound Samples

[TimingPoints]
65,344.827586206897,4,2,1,40,1,0
2133,-133.333333333333,4,2,1,40,0,0
35927,-100,4,2,1,50,0,0
36271,-100,4,2,1,40,0,0
46961,-133.333333333333,4,2,1,50,0,0
47651,-133.333333333333,4,2,1,40,0,0
57996,-100,4,2,1,50,0,0
58513,-100,4,2,1,40,0,0
66271,-100,4,2,1,50,0,0
66616,-100,4,2,1,40,0,0
66961,-100,4,2,1,30,0,0
67306,-100,4,2,1,20,0,0
67651,-100,4,2,1,10,0,0
68685,-100,4,2,1,25,0,0
69030,-90.9090909090909,4,2,1,50,0,1
78685,-133.333333333333,4,2,1,40,0,0
79720,-100,4,2,1,40,0,0
80065,-90.9090909090909,4,2,1,50,0,1
89720,-133.333333333333,4,2,1,40,0,0
91099,-100,4,2,1,40,0,0

[Colours]
Combo1 : 124,82,148
Combo2 : 209,210,222
Combo3 : 111,113,200

[HitObjects]
192,200,2133,6,0,P|176:144|192:80,1,105.000004005432,0|0,0:0|0:0,0:0:0:0:
329,202,2823,2,0,L|333:323,1,105.000004005432,6|0,0:0|0:0,0:0:0:0:
239,288,3340,1,0,0:0:0:0:
239,288,3513,2,0,P|185:300|133:278,1,105.000004005432,0|0,0:0|0:0,0:0:0:0:
56,236,4030,1,0,0:0:0:0:
56,236,4202,2,0,L|48:312,1,52.5000020027161,2|0,0:0|0:0,0:0:0:0:
196,208,4547,6,0,L|204:96,2,105.000004005432,2|2|2,0:0|0:0|0:0,0:0:0:0:
288,80,5582,2,0,P|344:64|396:80,1,105.000004005432,2|0,0:0|0:0,0:0:0:0:
340,156,6099,2,0,B|328:196|328:196|344:260,1,105.000004005432,2|0,0:0|0:0,0:0:0:0:
400,332,6616,2,0,P|344:348|292:332,1,105.000004005432,2|0,0:0|0:0,0:0:0:0:
156,268,7306,6,0,L|48:264,2,105.000004005432,2|2|2,0:0|0:0|0:0,0:0:0:0:
300,336,8340,2,0,B|312:280|312:280|300:232|300:232|312:168,1,157.500006008148,2|0,0:0|0:0,0:0:0:0:
276,112,9030,2,0,P|328:136|388:124,1,105.000004005432,0|0,0:0|0:0,0:0:0:0:
456,80,9547,1,0,0:0:0:0:
456,80,9720,2,0,L|468:140,1,52.5000020027161,2|0,0:0|0:0,0:0:0:0:
420,216,10065,6,0,P|410:267|422:317,2,105.000004005432,2|2|2,0:0|0:0|0:0,0:0:0:0:
328,344,11099,2,0,L|216:336,1,105.000004005432,2|0,0:0|0:0,0:0:0:0:
156,272,11616,1,2,0:0:0:0:
156,272,11789,2,0,P|148:240|156:208,1,52.5000020027161,0|0,0:0|0:0,0:0:0:0:
220,160,12133,2,0,P|276:176|332:160,1,105.000004005432,2|0,0:0|0:0,0:0:0:0:
279,86,12651,1,0,0:0:0:0:
279,86,12823,2,0,L|211:62,1,52.5000020027161,0|0,0:0|0:0,0:0:0:0:
396,104,13168,6,0,L|500:100,1,105.000004005432,2|2,0:0|0:0,0:0:0:0:
394,241,13858,2,0,P|342:257|278:241,1,105.000004005432,2|0,0:0|0:0,0:0:0:0:
207,206,14375,2,0,L|195:330,1,105.000004005432,2|0,0:0|0:0,0:0:0:0:
149,131,14892,2,0,P|205:111|261:127,1,105.000004005432,2|0,0:0|0:0,0:0:0:0:
328,256,15582,6,0,L|322:361,2,105.000004005432,2|2|2,0:0|0:0|0:0,0:0:0:0:
404,116,16616,2,0,P|420:172|404:228,1,105.000004005432,2|0,0:0|0:0,0:0:0:0:
313,171,17133,2,0,L|208:167,1,105.000004005432,2|0,0:0|0:0,0:0:0:0:
133,112,17651,2,0,P|117:168|133:224,2,105.000004005432,2|0|0,0:0|0:0|0:0,0:0:0:0:
212,280,18685,6,0,P|268:296|324:280,1,105.000004005432,2|2,0:0|0:0,0:0:0:0:
388,228,19202,1,0,0:0:0:0:
388,228,19375,2,0,L|428:332,1,105.000004005432,2|0,0:0|0:0,0:0:0:0:
444,154,19892,2,0,P|396:134|336:150,1,105.000004005432,2|0,0:0|0:0,0:0:0:0:
296,216,20409,2,0,B|260:228|260:228|176:220,2,105.000004005432,2|0|0,0:0|0:0|0:0,0:0:0:0:
252,316,21444,6,0,L|128:304,1,105.000004005432,2|2,0:0|0:0,0:0:0:0:
200,228,21961,1,0,0:0:0:0:
200,228,22133,2,0,P|216:180|200:120,1,105.000004005432,2|0,0:0|0:0,0:0:0:0:
153,53,22651,2,0,P|201:37|261:57,1,105.000004005432,2|0,0:0|0:0,0:0:0:0:
121,172,23168,6,0,L|9:164,2,105.000004005432,2|0|0,0:0|0:0|0:0,0:0:0:0:
312,180,24202,2,0,P|324:240|312:296,1,105.000004005432,2|2,0:0|0:0,0:0:0:0:
224,116,24892,6,0,P|228:92|216:20,2,78.7500030040742,6|0|0,0:0|0:0|0:0,0:0:0:0:
136,76,25582,2,0,L|68:84,1,52.5000020027161,0|0,0:0|0:0,0:0:0:0:
104,164,25927,2,0,L|36:180,1,52.5000020027161,0|0,0:0|0:0,0:0:0:0:
104,256,26271,6,0,P|100:280|112:352,2,78.7500030040742,2|0|0,0:0|0:0|0:0,0:0:0:0:
192,292,26961,2,0,L|260:284,1,52.5000020027161,0|0,0:0|0:0,0:0:0:0:
224,204,27306,2,0,L|292:188,1,52.5000020027161,0|0,0:0|0:0,0:0:0:0:
364,232,27651,6,0,P|368:208|356:136,2,78.7500030040742,2|0|0,0:0|0:0|0:0,0:0:0:0:
275,191,28340,2,0,P|267:159|275:119,1,52.5000020027161,0|0,0:0|0:0,0:0:0:0:
320,24,28685,2,0,P|328:56|320:96,1,52.5000020027161,0|0,0:0|0:0,0:0:0:0:
233,59,29030,6,0,P|209:55|137:67,2,78.7500030040742,2|0|0,0:0|0:0|0:0,0:0:0:0:
194,148,29720,2,0,P|162:156|122:148,1,52.5000020027161,0|0,0:0|0:0,0:0:0:0:
27,103,30065,2,0,P|59:95|99:103,1,52.5000020027161,0|0,0:0|0:0,0:0:0:0:
65,190,30409,6,0,P|61:214|73:286,2,78.7500030040742,2|0|0,0:0|0:0|0:0,0:0:0:0:
148,144,31099,2,0,L|224:136,1,52.5000020027161,0|0,0:0|0:0,0:0:0:0:
280,188,31444,1,0,0:0:0:0:
280,188,31616,1,0,0:0:0:0:
369,153,31789,6,0,P|373:177|361:249,2,78.7500030040742,2|0|0,0:0|0:0|0:0,0:0:0:0:
293,96,32478,2,0,L|217:88,1,52.5000020027161,0|0,0:0|0:0,0:0:0:0:
161,140,32823,1,0,0:0:0:0:
161,140,32995,1,0,0:0:0:0:
71,177,33168,6,0,P|67:153|79:81,2,78.7500030040742,2|0|0,0:0|0:0|0:0,0:0:0:0:
137,244,33858,1,0,0:0:0:0:
137,244,34030,1,0,0:0:0:0:
221,200,34202,2,0,L|233:132,1,52.5000020027161,0|0,0:0|0:0,0:0:0:0:
317,112,34547,6,0,P|321:136|309:208,2,78.7500030040742,2|0|0,0:0|0:0|0:0,0:0:0:0:
244,50,35237,1,0,0:0:0:0:
244,50,35409,1,0,0:0:0:0:
160,94,35581,2,0,L|148:162,1,52.5000020027161,0|0,0:0|0:0,0:0:0:0:
126,248,35927,6,0,B|211:224|199:276|283:244,1,140,12|0,0:0|0:0,0:0:0:0:
241,151,36444,1,0,0:0:0:0:
241,151,36616,2,0,P|233:115|241:71,1,70,2|2,0:0|0:0,0:0:0:0:
332,57,36961,1,2,0:0:0:0:
332,57,37133,1,2,0:0:0:0:
398,129,37306,6,0,L|506:125,2,105,8|0|0,0:0|0:0|0:0,0:0:0:0:
322,193,37996,2,0,P|314:233|322:269,1,70,2|2,0:0|0:0,0:0:0:0:
402,297,38340,2,0,P|410:257|402:221,1,70,2|2,0:0|0:0,0:0:0:0:
271,342,38685,6,0,B|235:354|235:354|147:338,2,105,8|0|0,0:0|0:0|0:0,0:0:0:0:
303,256,39375,1,2,0:0:0:0:
303,256,39547,1,2,0:0:0:0:
231,200,39720,2,0,P|223:164|239:120,1,70,2|2,0:0|0:0,0:0:0:0:
303,76,40065,6,0,L|187:80,2,105,8|0|0,0:0|0:0|0:0,0:0:0:0:
383,28,40754,2,0,L|403:116,1,70,2|2,0:0|0:0,0:0:0:0:
483,60,41099,2,0,L|503:148,1,70,2|2,0:0|0:0,0:0:0:0:
402,229,41444,6,0,P|390:281|406:333,2,105,8|0|0,0:0|0:0|0:0,0:0:0:0:
330,165,42133,2,0,P|290:157|246:165,1,70,2|2,0:0|0:0,0:0:0:0:
170,213,42478,2,0,L|162:133,1,70,2|2,0:0|0:0,0:0:0:0:
286,241,42823,6,0,L|294:345,2,105,8|0|0,0:0|0:0|0:0,0:0:0:0:
358,169,43513,1,2,0:0:0:0:
358,169,43685,2,0,L|350:89,1,70,2|2,0:0|0:0,0:0:0:0:
282,29,44030,1,2,0:0:0:0:
206,93,44202,6,0,P|154:105|98:93,2,105,8|0|0,0:0|0:0|0:0,0:0:0:0:
150,13,44892,1,2,0:0:0:0:
150,13,45065,1,2,0:0:0:0:
103,95,45237,2,0,L|111:167,1,70,2|2,0:0|0:0,0:0:0:0:
118,261,45582,6,0,P|166:233|222:237,2,105,8|0|0,0:0|0:0|0:0,0:0:0:0:
190,329,46271,1,2,0:0:0:0:
190,329,46444,2,0,L|266:325,1,70,2|2,0:0|0:0,0:0:0:0:
330,257,46789,1,2,0:0:0:0:
407,310,46961,6,0,B|427:258|427:258|403:202|403:202|423:154|403:94,1,210.000008010865,12|0,0:0|0:0,0:0:0:0:
331,58,47823,1,0,0:0:0:0:
287,142,47996,2,0,L|223:146,1,52.5000020027161,0|0,0:0|0:0,0:0:0:0:
155,198,48340,2,0,L|148:93,2,105.000004005432,2|2|2,0:0|0:0|0:0,0:0:0:0:
235,62,49375,1,2,0:0:0:0:
155,198,49720,6,0,B|207:218|207:218|263:194|263:194|315:218|371:194,1,210.000008010865,0|0,0:0|0:0,0:0:0:0:
315,114,50582,1,0,0:0:0:0:
315,114,50754,2,0,L|311:54,1,52.5000020027161,0|0,0:0|0:0,0:0:0:0:
407,118,51099,2,0,L|512:116,1,105.000004005432,2|2,0:0|0:0,0:0:0:0:
354,200,51789,1,2,0:0:0:0:
363,42,52133,1,2,0:0:0:0:
223,114,52478,6,0,B|203:166|203:166|227:222|227:222|203:274|227:330,1,210.000008010865,0|0,0:0|0:0,0:0:0:0:
307,274,53340,1,0,0:0:0:0:
395,310,53513,2,0,L|455:306,1,52.5000020027161,0|0,0:0|0:0,0:0:0:0:
379,222,53858,2,0,L|371:114,2,105.000004005432,2|2|2,0:0|0:0|0:0,0:0:0:0:
463,86,54892,1,2,0:0:0:0:
379,222,55237,6,0,B|327:242|327:242|271:218|271:218|219:242|163:218,1,210.000008010865,0|0,0:0|0:0,0:0:0:0:
89,213,56099,1,0,0:0:0:0:
89,213,56271,2,0,L|95:266,1,52.5000020027161,0|0,0:0|0:0,0:0:0:0:
143,134,56616,6,0,P|195:106|251:114,2,105.000004005432,2|2|2,0:0|0:0|0:0,0:0:0:0:
284,220,57651,1,2,0:0:0:0:
324,85,57996,5,6,0:0:0:0:
324,85,58513,1,2,0:0:0:0:
145,196,59030,5,2,0:0:0:0:
145,196,59547,1,2,0:0:0:0:
332,272,60065,6,0,L|336:188,1,70,8|8,0:0|0:0,0:0:0:0:
424,220,60409,1,0,0:0:0:0:
310,77,60754,5,2,0:0:0:0:
310,77,61271,1,2,0:0:0:0:
209,261,61789,5,2,0:0:0:0:
209,261,62306,1,2,0:0:0:0:
112,84,62823,5,8,0:0:0:0:
60,160,62996,1,0,0:0:0:0:
112,236,63168,1,8,0:0:0:0:
72,320,63340,5,0,0:0:0:0:
72,320,63427,1,0,0:0:0:0:
72,320,63513,2,0,P|111:330|160:308,1,70,10|10,0:0|0:0,0:0:0:0:
268,260,63858,2,0,P|228:249|179:271,1,70,10|10,0:0|0:0,0:0:0:0:
112,236,64202,2,0,L|120:148,1,70,10|10,0:0|0:0,0:0:0:0:
216,100,64547,2,0,L|208:188,1,70,10|10,0:0|0:0,0:0:0:0:
308,132,64892,5,10,0:0:0:0:
308,132,65065,1,10,0:0:0:0:
296,236,65237,1,10,0:0:0:0:
296,236,65409,1,10,0:0:0:0:
400,200,65582,5,10,0:0:0:0:
400,200,65755,1,10,0:0:0:0:
388,304,65927,1,10,0:0:0:0:
388,304,66099,1,10,0:0:0:0:
296,236,66271,6,0,L|243:237,3,35,2|2|2|2,0:0|0:0|0:0|0:0,0:0:0:0:
242,269,66616,2,0,L|189:270,3,35,2|2|2|2,0:0|0:0|0:0|0:0,0:0:0:0:
192,302,66961,2,0,L|139:303,3,35,2|2|2|2,0:0|0:0|0:0|0:0,0:0:0:0:
138,335,67306,2,0,L|85:336,3,35,2|2|2|2,0:0|0:0|0:0|0:0,0:0:0:0:
88,368,67651,6,2,L|35:369,10,35
136,276,68685,6,0,L|124:184,1,70
61,110,69030,6,0,P|137:130|197:90,1,154.000004699707,4|8,1:0|1:2,0:0:0:0:
272,26,69547,1,2,0:0:0:0:
272,26,69633,1,2,0:0:0:0:
272,26,69720,2,0,L|332:98,1,77.0000023498536,2|0,0:0|1:0,0:0:0:0:
400,132,70065,2,0,P|412:92|400:44,1,77.0000023498536,8|2,1:2|0:0,0:0:0:0:
316,176,70409,6,0,P|304:216|316:264,1,77.0000023498536,0|2,1:0|0:0,0:0:0:0:
411,223,70754,1,8,1:2:0:0:
400,324,70927,1,2,0:0:0:0:
400,324,71013,1,2,0:0:0:0:
400,324,71099,1,2,0:0:0:0:
304,352,71271,1,0,1:0:0:0:
304,352,71444,2,0,L|216:356,1,77.0000023498536,8|2,1:2|0:0,0:0:0:0:
284,256,71789,6,0,P|312:188|280:108,1,154.000004699707,0|8,1:0|1:2,0:0:0:0:
200,190,72306,1,2,0:0:0:0:
200,190,72392,1,2,0:0:0:0:
200,190,72478,2,0,L|188:274,1,77.0000023498536,2|0,0:0|1:0,0:0:0:0:
139,342,72823,2,0,P|187:358|223:350,1,77.0000023498536,8|2,1:2|0:0,0:0:0:0:
85,256,73168,6,0,L|96:180,1,77.0000023498536,0|2,1:0|0:0,0:0:0:0:
108,80,73513,1,8,1:2:0:0:
196,128,73685,1,2,0:0:0:0:
196,128,73771,1,2,0:0:0:0:
196,128,73858,2,0,P|236:136|280:128,1,77.0000023498536,2|0,0:0|1:0,0:0:0:0:
344,64,74202,2,0,L|368:144,1,77.0000023498536,8|2,1:2|1:2,0:0:0:0:
444,200,74547,6,0,P|376:236|288:200,1,154.000004699707,0|8,1:0|1:2,0:0:0:0:
236,288,75065,1,2,0:0:0:0:
236,288,75151,1,2,0:0:0:0:
236,288,75237,1,2,0:0:0:0:
300,364,75409,1,0,1:0:0:0:
300,364,75582,2,0,L|392:360,1,77.0000023498536,8|2,1:2|0:0,0:0:0:0:
424,272,75927,6,0,P|388:204|416:124,1,154.000004699707,0|8,1:0|1:2,0:0:0:0:
502,201,76444,1,2,0:0:0:0:
502,201,76530,1,2,0:0:0:0:
502,201,76616,1,2,0:0:0:0:
413,137,76789,1,0,1:0:0:0:
413,137,76961,2,0,L|321:141,1,77.0000023498536,8|2,1:2|0:0,0:0:0:0:
265,212,77306,6,0,P|234:143|272:64,1,154.000004699707,0|8,1:0|1:2,0:0:0:0:
359,243,77823,1,2,0:0:0:0:
359,243,77909,1,2,0:0:0:0:
359,243,77996,2,0,L|367:319,1,77.0000023498536,2|0,0:0|1:0,0:0:0:0:
452,260,78340,2,0,P|456:220|436:176,1,77.0000023498536,8|2,1:2|0:0,0:0:0:0:
264,208,78685,6,0,B|252:248|252:248|264:324,2,105.000004005432,2|2|2,0:0|0:0|0:0,0:0:0:0:
404,88,79720,6,0,L|412:172,1,70,4|8,3:0|3:0,0:0:0:0:
312,96,80065,6,0,P|240:76|168:124,1,154.000004699707,4|8,1:0|1:2,0:0:0:0:
260,177,80582,1,2,0:0:0:0:
260,177,80668,1,2,0:0:0:0:
260,177,80754,1,2,0:0:0:0:
176,240,80927,1,0,1:0:0:0:
252,304,81099,2,0,P|296:312|328:304,1,77.0000023498536,8|2,1:2|0:0,0:0:0:0:
428,316,81444,6,0,B|404:240|404:240|424:164,1,154.000004699707,0|8,1:0|1:2,0:0:0:0:
352,96,81961,1,2,0:0:0:0:
352,96,82047,1,2,0:0:0:0:
352,96,82133,2,0,L|324:176,1,77.0000023498536,2|0,0:0|1:0,0:0:0:0:
240,216,82478,2,0,P|200:228|156:216,1,77.0000023498536,8|2,1:2|0:0,0:0:0:0:
100,148,82823,6,0,P|68:216|100:296,1,154.000004699707,0|8,1:2|1:2,0:0:0:0:
200,132,83340,1,2,0:0:0:0:
200,132,83427,1,2,0:0:0:0:
200,132,83513,2,0,L|280:128,1,77.0000023498536,2|0,0:0|1:0,0:0:0:0:
368,168,83858,2,0,P|376:128|364:80,1,77.0000023498536,8|2,1:2|0:0,0:0:0:0:
288,220,84202,6,0,L|211:223,1,77.0000023498536,0|2,1:0|0:0,0:0:0:0:
148,300,84547,1,8,1:2:0:0:
236,348,84720,1,2,0:0:0:0:
236,348,84806,1,2,0:0:0:0:
236,348,84892,2,0,P|276:356|320:344,1,77.0000023498536,2|0,0:0|1:0,0:0:0:0:
376,272,85237,2,0,L|412:352,1,77.0000023498536,8|2,1:2|1:2,0:0:0:0:
440,200,85582,6,0,P|356:180|292:228,1,154.000004699707,0|8,1:0|1:2,0:0:0:0:
232,288,86099,1,2,0:0:0:0:
232,288,86185,1,2,0:0:0:0:
232,288,86271,1,2,0:0:0:0:
306,218,86444,1,0,1:0:0:0:
306,218,86616,2,0,L|310:122,1,77.0000023498536,8|2,1:2|0:0,0:0:0:0:
404,108,86961,6,0,B|402:158|402:158|421:204|421:204|418:260,1,154.000004699707,0|0,1:0|0:0,0:0:0:0:
336,308,87478,1,2,0:0:0:0:
336,308,87565,1,2,0:0:0:0:
336,308,87651,1,2,0:0:0:0:
308,212,87823,1,0,1:0:0:0:
232,280,87996,2,0,P|160:312|88:280,1,154.000004699707,8|0,1:2|1:0,0:0:0:0:
161,217,88513,5,0,0:0:0:0:
64,192,88685,1,8,1:2:0:0:
118,104,88858,1,2,0:0:0:0:
118,104,88944,1,2,0:0:0:0:
118,104,89030,2,0,P|162:96|202:104,1,77.0000023498536,2|0,0:0|1:0,0:0:0:0:
304,148,89375,2,0,L|288:60,1,77.0000023498536,8|2,1:2|0:0,0:0:0:0:
388,96,89720,6,0,B|400:144|400:144|388:220,2,105.000004005432,0|2|2,2:0|2:3|2:0,0:0:0:0:
308,244,90754,1,2,2:3:0:0:
128,272,91099,6,0,P|120:224|128:188,1,70,4|0,1:2|0:0,0:0:0:0:
148,116,91444,1,0,1:0:0:0:
220,172,91616,1,0,0:0:0:0:
248,84,91789,1,0,0:0:0:0:
220,172,91961,1,0,1:0:0:0:
284,236,92133,2,0,L|292:316,1,70,0|0,1:0|0:0,0:0:0:0:
376,268,92478,6,0,P|416:256|456:264,1,70,0|0,1:0|0:0,0:0:0:0:
420,352,92823,2,0,L|336:360,1,70,0|0,1:0|0:0,0:0:0:0:
316,352,93082,1,0,0:0:0:0:
316,352,93168,1,0,0:0:0:0:
376,268,93340,1,0,1:0:0:0:
294,219,93513,2,0,P|258:211|218:219,1,70,0|0,1:0|0:0,0:0:0:0:
136,192,93858,5,0,1:0:0:0:
76,268,94030,1,0,0:0:0:0:
143,331,94202,1,0,1:0:0:0:
222,286,94375,2,0,L|228:192,1,70,0|0,0:0|0:0,0:0:0:0:
191,131,94720,1,0,1:0:0:0:
261,74,94892,2,0,P|301:66|341:74,1,70,0|0,1:0|0:0,0:0:0:0:
417,128,95237,6,0,L|421:44,1,70,0|0,1:0|0:0,0:0:0:0:
320,176,95582,2,0,L|316:245,1,70,0|0,1:0|0:0,0:0:0:0:
304,276,95840,1,0,0:0:0:0:
304,276,95927,1,0,0:0:0:0:
203,292,96099,1,0,1:0:0:0:
156,199,96271,1,0,1:0:0:0:
229,129,96444,1,0,1:2:0:0:
320,176,96616,6,0,P|360:184|400:172,1,70,0|0,1:2|0:0,0:0:0:0:
472,116,96961,1,0,1:0:0:0:
512,212,97133,2,0,L|504:296,1,70,0|0,0:0|0:0,0:0:0:0:
416,340,97478,1,0,1:0:0:0:
324,288,97651,2,0,P|316:248|324:208,1,70,0|0,1:0|0:0,0:0:0:0:
372,128,97996,6,0,L|292:132,1,70,0|0,1:0|0:0,0:0:0:0:
250,222,98340,2,0,L|320:220,1,70,0|0,1:0|0:0,0:0:0:0:
364,236,98599,1,0,0:0:0:0:
364,236,98685,1,0,0:0:0:0:
384,340,98858,1,0,1:0:0:0:
280,320,99030,2,0,L|210:322,1,70,0|0,1:0|0:0,0:0:0:0:
148,236,99375,6,0,P|120:172|140:104,1,140,0|0,1:0|1:0,0:0:0:0:
227,164,99892,1,0,0:0:0:0:
259,258,100065,2,0,P|295:250|331:258,1,70,0|0,0:0|1:0,0:0:0:0:
434,300,100409,2,0,L|430:228,1,70,0|0,1:0|0:0,1:0:0:0:
415,125,100754,1,0,1:0:0:0:
312,88,100927,5,0,0:0:0:0:
324,187,101099,2,0,L|327:256,1,70,0|0,1:0|0:0,1:0:0:0:
300,284,101358,1,0,0:0:0:0:
300,284,101444,1,0,0:0:0:0:
220,216,101616,1,0,1:0:0:0:
140,284,101789,2,0,P|104:292|68:284,1,70,0|0,1:0|1:0,0:0:0:0:
106,185,102133,6,0,B|86:137|86:137|106:41,1,140,4|0,1:2|1:0,0:0:0:0:
208,76,102651,2,0,P|248:84|284:76,1,70,0|0,0:0|0:0,0:0:0:0:
372,32,102996,1,0,1:0:0:0:
420,124,103168,1,0,1:0:0:0:
328,176,103340,1,0,0:0:0:0:
396,256,103513,6,0,P|328:284|264:260,1,140,0|0,1:0|1:0,0:0:0:0:
212,176,104030,1,0,0:0:0:0:
212,176,104116,1,0,0:0:0:0:
212,176,104202,2,0,L|176:248,1,70,0|0,0:0|1:0,0:0:0:0:
104,168,104547,2,0,L|135:105,1,70,0|0,1:0|0:0,0:0:0:0:
180,238,104892,6,0,P|252:266|316:242,1,140,0|0,1:0|1:0,0:0:0:0:
396,308,105409,1,0,0:0:0:0:
456,220,105582,2,0,L|452:140,1,70,0|0,0:0|1:0,0:0:0:0:
360,96,105927,2,0,L|363:165,1,70,0|0,1:0|0:0,0:0:0:0:
308,247,106271,5,0,1:0:0:0:
292,351,106444,1,0,0:0:0:0:
208,287,106616,2,0,L|128:283,1,70,0|0,1:0|0:0,0:0:0:0:
104,295,106875,5,0,0:0:0:0:
104,295,106961,1,0,0:0:0:0:
152,199,107133,1,0,1:0:0:0:
48,195,107306,2,0,L|44:107,1,70,0|0,1:0|1:0,0:0:0:0:
120,51,107651,6,0,B|188:83|188:83|268:55,1,140,0|0,1:2|1:0,0:0:0:0:
254,151,108168,1,0,0:0:0:0:
340,191,108340,2,0,P|348:155|340:115,1,70,0|0,0:0|1:0,0:0:0:0:
260,243,108685,2,0,L|184:247,1,70,0|0,1:0|0:0,0:0:0:0:
108,311,109030,6,0,L|104:235,1,70,0|0,1:0|0:0,0:0:0:0:
196,339,109375,2,0,L|265:335,1,70,0|0,1:0|0:0,0:0:0:0:
300,347,109633,1,0,0:0:0:0:
300,347,109720,1,0,0:0:0:0:
404,343,109892,1,0,1:0:0:0:
344,255,110065,2,0,P|324:187|352:115,1,140,0|0,1:0|1:0,0:0:0:0:
316,23,110582,5,0,0:0:0:0:
228,79,110754,2,0,L|144:83,1,70,0|0,1:0|0:0,0:0:0:0:
188,231,111099,2,0,P|196:195|188:155,1,70,0|0,0:0|1:0,0:0:0:0:
88,191,111444,2,0,L|84:271,1,70,0|0,1:0|0:0,0:0:0:0:
160,331,111789,6,0,P|232:355|300:331,1,140,0|0,1:0|1:0,0:0:0:0:
376,271,112306,1,0,0:0:0:0:
376,271,112392,1,0,0:0:0:0:
376,271,112478,2,0,L|384:347,1,70,0|0,0:0|1:0,0:0:0:0:
228,247,112823,1,0,1:0:0:0:
308,179,112996,1,2,1:2:0:0:
