osu file format v14

[General]
AudioFilename: audio.mp3
AudioLeadIn: 0
PreviewTime: 68704
Countdown: 0
SampleSet: Soft
StackLeniency: 0.7
Mode: 0
LetterboxInBreaks: 0
WidescreenStoryboard: 0

[Editor]
Bookmarks: 69375
DistanceSpacing: 1
BeatDivisor: 4
GridSize: 8
TimelineZoom: 2

[Metadata]
Title:Fall Away
TitleUnicode:Fall Away
Artist:Feint
ArtistUnicode:Feint
Creator:Kujinn
Version:Collab Normal
Source:
Tags:dnb drum n bass kergio akitoshi my angel kanan nextplay
BeatmapID:1392009
BeatmapSetID:517678

[Difficulty]
HPDrainRate:4
CircleSize:3.3
OverallDifficulty:4
ApproachRate:5
SliderMultiplier:1.05
SliderTickRate:1

[Events]
//Background and Video events
0,0,"BG.png",0,0
//Break Periods
//Storyboard Layer 0 (Background)
//Storyboard Layer 1 (Fail)
//Storyboard Layer 2 (Pass)
//Storyboard Layer 3 (Foreground)
//Storyboard Sound Samples

[TimingPoints]
65,344.827586206897,4,2,1,40,1,0
24892,-100,4,2,1,40,0,0
35927,-100,4,2,1,40,0,0
46961,-100,4,2,1,40,0,0
69030,-100,4,2,1,40,0,1
78685,-100,4,2,1,40,0,0
80065,-100,4,2,1,40,0,1
89720,-100,4,2,1,40,0,0

[Colours]
Combo1 : 124,82,148
Combo2 : 209,210,222
Combo3 : 111,113,200

[HitObjects]
325,151,2823,6,0,P|426:204|528:159,2,210,6|0|2,0:0|0:0|0:0,0:0:0:0:
264,65,4547,1,2,0:0:0:0:
162,36,4892,1,2,0:0:0:0:
68,82,5237,1,2,0:0:0:0:
16,173,5582,6,0,B|-1:244|52:255|19:334,2,157.5,2|2|2,0:0|0:0|0:0,0:0:0:0:
190,56,7306,2,0,L|312:66,1,105,2|2,0:0|0:0,0:0:0:0:
364,142,7995,1,2,0:0:0:0:
314,234,8340,6,0,B|167:222|167:222|103:241,2,210,2|0|2,0:0|0:0|0:0,0:0:0:0:
385,313,10065,1,2,0:0:0:0:
482,275,10409,1,2,0:0:0:0:
501,171,10754,1,2,0:0:0:0:
434,89,11099,6,0,P|360:60|268:75,2,157.5,2|2|2,0:0|0:0|0:0,0:0:0:0:
501,171,12478,2,0,P|450:245|327:285,1,210,0|2,0:0|0:0,0:0:0:0:
241,249,13513,1,2,0:0:0:0:
167,173,13858,6,0,B|102:156|87:209|8:180,2,157.5,2|2|2,0:0|0:0|0:0,0:0:0:0:
369,228,15582,2,0,L|488:214,1,105,2|2,0:0|0:0,0:0:0:0:
484,110,16271,1,2,0:0:0:0:
404,41,16616,6,0,P|356:34|258:88,2,157.5,2|2|2,0:0|0:0|0:0,0:0:0:0:
484,110,17996,2,0,L|474:334,1,210,0|2,0:0|0:0,0:0:0:0:
378,361,19030,1,2,0:0:0:0:
278,328,19375,6,0,P|196:343|118:305,2,157.5,2|2|2,0:0|0:0|0:0,0:0:0:0:
362,24,21444,2,0,P|423:23|480:45,1,105,2|0,0:0|0:0,0:0:0:0:
492,137,22133,6,0,B|511:208|459:225|487:304,2,157.5,2|2|2,0:0|0:0|0:0,0:0:0:0:
198,22,24202,2,0,L|189:132,1,105,2|0,0:0|0:0,0:0:0:0:
92,163,24892,6,0,P|69:83|75:6,2,157.5,6|0|0,0:0|0:0|0:0,0:0:0:0:
177,224,26271,2,0,P|257:244|321:287,1,157.5,2|0,0:0|0:0,0:0:0:0:
352,325,26961,1,0,0:0:0:0:
455,343,27306,1,0,0:0:0:0:
500,248,27651,6,0,P|509:182|484:77,2,157.5,2|0|0,0:0|0:0|0:0,0:0:0:0:
455,343,29030,2,0,P|372:327|291:336,1,157.5,2|0,0:0|0:0,0:0:0:0:
252,356,29720,1,0,0:0:0:0:
164,297,30065,1,0,0:0:0:0:
167,192,30409,6,0,P|88:213|11:199,2,157.5,2|0|0,0:0|0:0|0:0,0:0:0:0:
239,115,31789,2,0,L|405:124,1,157.5,2|0,0:0|0:0,0:0:0:0:
448,131,32478,1,0,0:0:0:0:
485,228,32823,2,0,P|487:270|480:299,1,52.5,0|0,0:0|0:0,0:0:0:0:
458,325,33168,6,0,P|383:346|304:296,2,157.5,2|0|0,0:0|0:0|0:0,0:0:0:0:
394,241,34547,2,0,P|322:207|236:243,1,157.5,2|0,0:0|0:0,0:0:0:0:
215,268,35237,1,0,0:0:0:0:
130,330,35582,2,0,L|73:323,1,52.5,0|0,0:0|0:0,0:0:0:0:
28,342,35927,6,0,B|3:228|70:254|30:128,1,210,12|2,0:0|0:0,0:0:0:0:
118,75,36961,1,2,0:0:0:0:
216,111,37306,2,0,L|296:99,2,78.75,8|0|0,0:0|0:0|0:0,0:0:0:0:
200,161,37996,2,0,P|189:212|201:264,1,105,2|2,0:0|0:0,0:0:0:0:
282,328,38685,6,0,B|343:318|343:318|399:337|399:337|457:330|476:270,1,210,8|2,0:0|0:0,0:0:0:0:
481,183,39720,1,2,0:0:0:0:
412,103,40065,2,0,L|419:13,2,78.75,8|0|0,0:0|0:0|0:0,0:0:0:0:
373,138,40754,2,0,P|304:150|256:136,1,105,2|2,0:0|0:0,0:0:0:0:
206,58,41444,6,0,B|153:46|102:56|102:56|56:86,1,157.5,8|0,0:0|0:0,0:0:0:0:
17,117,42133,1,2,0:0:0:0:
42,218,42478,1,2,0:0:0:0:
137,260,42823,2,0,L|125:357,2,78.75,8|0|0,0:0|0:0|0:0,0:0:0:0:
178,228,43513,2,0,P|229:250|299:245,1,105,2|2,0:0|0:0,0:0:0:0:
359,184,44202,6,0,P|382:248|342:334,1,157.5,8|0,0:0|0:0,0:0:0:0:
304,354,44892,1,2,0:0:0:0:
199,363,45237,1,2,0:0:0:0:
107,311,45582,2,0,L|14:320,2,78.75,8|0|0,0:0|0:0|0:0,0:0:0:0:
148,279,46271,2,0,P|168:228|164:165,1,105,2|2,0:0|0:0,0:0:0:0:
117,85,46961,5,12,0:0:0:0:
294,278,47823,2,0,L|282:344,2,52.5,0|0|0,0:0|0:0|0:0,0:0:0:0:
341,255,48340,1,2,0:0:0:0:
416,181,48685,1,2,0:0:0:0:
383,81,49030,1,2,0:0:0:0:
289,32,49375,1,2,0:0:0:0:
190,69,49720,6,0,L|175:173,1,105,0|0,0:0|0:0,0:0:0:0:
153,329,50582,2,0,L|93:327,2,52.5,0|0|0,0:0|0:0|0:0,0:0:0:0:
194,361,51099,1,2,0:0:0:0:
299,361,51444,1,2,0:0:0:0:
390,309,51789,1,2,0:0:0:0:
420,208,52133,1,2,0:0:0:0:
374,113,52478,6,0,L|255:117,1,105,0|0,0:0|0:0,0:0:0:0:
141,209,53340,2,0,L|149:269,2,52.5,0|0|0,0:0|0:0|0:0,0:0:0:0:
107,167,53858,1,2,0:0:0:0:
163,77,54202,1,2,0:0:0:0:
268,65,54547,1,2,0:0:0:0:
342,140,54892,1,2,0:0:0:0:
330,244,55237,6,0,L|213:256,1,105,0|0,0:0|0:0,0:0:0:0:
73,296,56099,2,0,L|86:371,2,52.5,0|0|0,0:0|0:0|0:0,0:0:0:0:
27,269,56616,1,2,0:0:0:0:
3,167,56961,1,2,0:0:0:0:
69,85,57306,1,2,0:0:0:0:
174,85,57651,1,2,0:0:0:0:
239,167,57996,6,0,B|345:175|345:175|414:155,2,157.5,6|2|2,0:0|0:0|0:0,0:0:0:0:
93,107,59547,2,0,P|76:167|86:222,1,105,2|0,0:0|0:0,0:0:0:0:
102,257,60065,1,8,0:0:0:0:
189,314,60409,1,0,0:0:0:0:
290,286,60754,6,0,L|460:295,2,157.5,2|2|2,0:0|0:0|0:0,0:0:0:0:
177,175,62306,2,0,L|187:52,1,105,2|0,0:0|0:0,0:0:0:0:
230,42,62823,1,8,0:0:0:0:
326,83,63168,2,0,L|400:75,1,52.5,8|0,0:0|0:0,0:0:0:0:
430,73,63513,6,0,P|447:129|440:180,1,105,10|10,0:0|0:0,0:0:0:0:
389,265,64202,1,10,0:0:0:0:
288,296,64547,2,0,L|220:289,1,52.5,10|10,0:0|0:0,0:0:0:0:
212,243,64892,2,0,P|162:223|93:229,1,105,10|10,0:0|0:0,0:0:0:0:
16,268,65582,1,10,0:0:0:0:
1,163,65927,2,0,L|5:103,1,52.5,10|10,0:0|0:0,0:0:0:0:
12,58,66271,6,0,B|96:31|173:91|173:91|278:29|278:29|310:141|460:142|460:142|373:224,1,630,2|2,0:0|0:0,0:0:0:0:
301,278,68685,2,0,L|231:274,1,52.5,0|0,0:0|0:0,0:0:0:0:
202,249,69030,6,0,L|80:248,1,105,4|8,1:0|1:2,0:0:0:0:
50,272,69547,2,0,P|63:233|50:168,1,105,2|0,0:0|1:0,0:0:0:0:
29,123,70065,1,8,1:2:0:0:
116,73,70409,2,0,P|163:85|222:72,1,105,0|8,1:0|1:2,0:0:0:0:
315,36,71099,2,0,P|363:26|419:36,1,105,2|8,0:0|1:2,0:0:0:0:
467,53,71616,1,2,0:0:0:0:
452,103,71789,6,0,P|440:153|453:203,1,105,0|8,1:0|1:2,0:0:0:0:
448,256,72306,2,0,P|396:266|345:256,1,105,2|0,0:0|1:0,0:0:0:0:
298,232,72823,1,8,1:2:0:0:
210,289,73168,2,0,L|100:289,1,105,0|8,1:0|1:2,0:0:0:0:
74,188,73858,2,0,L|197:188,1,105,2|8,0:0|1:2,0:0:0:0:
231,182,74375,1,2,1:2:0:0:
280,200,74547,6,0,P|271:152|291:85,1,105,0|8,1:0|1:2,0:0:0:0:
323,62,75065,2,0,P|379:72|434:57,1,105,2|0,0:0|1:0,0:0:0:0:
472,37,75582,1,8,1:2:0:0:
473,142,75927,2,0,L|468:261,1,105,0|8,1:0|1:2,0:0:0:0:
385,311,76616,2,0,P|317:300|265:312,1,105,2|8,0:0|1:2,0:0:0:0:
233,326,77133,1,2,0:0:0:0:
183,343,77306,6,0,P|195:287|179:233,1,105,0|8,1:0|1:2,0:0:0:0:
151,199,77823,2,0,P|139:148|161:87,1,105,2|0,0:0|1:0,0:0:0:0:
194,65,78340,1,8,1:2:0:0:
289,108,78685,2,0,B|406:97|374:166|492:134,1,210,2|2,0:0|0:0,0:0:0:0:
443,40,79720,1,4,3:0:0:0:
338,26,80065,6,0,P|281:19|222:44,1,105,4|8,1:0|1:2,0:0:0:0:
184,35,80582,2,0,P|195:85|182:135,1,105,2|0,0:0|1:0,0:0:0:0:
145,174,81100,1,8,1:2:0:0:
163,277,81444,2,0,P|111:269|59:278,1,105,0|8,1:0|1:2,0:0:0:0:
14,183,82134,2,0,P|3:131|13:80,1,105,2|8,0:0|1:2,0:0:0:0:
43,37,82651,1,2,0:0:0:0:
94,25,82824,6,0,P|146:15|210:24,1,105,0|8,1:2|1:2,0:0:0:0:
249,13,83341,2,0,P|239:64|249:115,1,105,2|0,0:3|1:3,0:3:0:0:
262,166,83858,1,8,1:2:0:0:
209,256,84202,2,0,P|216:312|196:377,1,105,0|8,1:0|1:2,0:0:0:0:
309,372,84893,2,0,P|360:365|412:375,1,105,2|8,0:0|1:2,0:0:0:0:
464,376,85409,1,2,1:2:0:0:
476,324,85582,6,0,P|466:272|473:220,1,105,0|8,1:0|1:2,0:0:0:0:
476,168,86099,2,0,P|487:123|473:59,1,105,2|0,0:0|1:0,0:0:0:0:
436,31,86616,1,8,1:2:0:0:
332,46,86961,2,0,L|205:47,1,105,0|8,1:0|1:2,0:0:0:0:
130,88,87651,2,0,L|3:87,1,105,2|8,0:0|1:2,0:0:0:0:
2,135,88168,1,0,0:0:0:0:
33,176,88340,6,0,L|28:290,1,105,0|8,1:0|1:2,0:0:0:0:
34,333,88858,2,0,P|85:324|147:336,1,105,2|0,0:0|1:0,0:0:0:0:
188,344,89375,1,8,1:2:0:0:
285,306,89720,2,0,B|342:294|395:310,2,105,0|2|2,2:0|2:3|2:0,0:0:0:0:
188,344,90754,1,2,2:3:0:0:
137,251,91099,5,4,2:0:0:0:
223,190,91444,1,0,1:0:0:0:
184,92,91789,1,0,0:0:0:0:
259,18,92133,1,0,1:0:0:0:
348,72,92478,2,0,P|399:79|451:69,1,105,0|0,1:0|1:0,0:0:0:0:
481,169,93168,2,0,L|481:221,1,52.5,0|0,0:0|1:0,0:0:0:0:
451,264,93513,2,0,L|452:332,1,52.5,0|0,1:0|0:0,0:0:0:0:
430,365,93858,6,0,P|378:374|328:361,1,105,0|0,1:0|1:0,0:0:0:0:
236,309,94547,1,0,0:0:0:0:
140,352,94892,1,0,1:0:0:0:
64,278,95237,2,0,P|56:226|69:175,1,105,0|0,1:0|1:0,0:0:0:0:
151,109,95927,2,0,L|203:109,1,52.5,0|0,0:0|1:0,0:0:0:0:
242,146,96271,2,0,L|300:146,1,52.5,0|0,1:0|1:2,0:0:0:0:
342,168,96616,6,0,P|355:117|342:58,1,105,0|0,1:2|1:0,0:0:0:0:
249,24,97306,1,0,0:0:0:0:
157,75,97651,1,0,1:0:0:0:
68,18,97996,2,0,P|57:77|66:122,1,105,0|0,1:0|1:0,0:0:0:0:
152,179,98685,2,0,L|151:238,1,52.5,0|0,0:0|1:0,0:0:0:0:
187,269,99030,2,0,L|184:332,1,52.5,0|0,1:0|0:0,0:0:0:0:
221,358,99375,6,0,P|272:351|323:362,1,105,0|0,1:0|1:0,0:0:0:0:
421,322,100065,1,0,0:0:0:0:
399,219,100409,1,0,1:0:0:0:
468,140,100754,2,0,L|471:34,1,105,0|0,1:0|1:0,0:0:0:0:
366,18,101444,2,0,L|313:18,1,52.5,0|0,0:0|1:0,0:0:0:0:
265,39,101789,2,0,L|212:39,1,52.5,0|0,1:0|1:0,0:0:0:0:
162,23,102133,6,0,P|146:74|163:141,1,105,4|0,1:2|1:0,0:0:0:0:
223,203,102823,1,0,0:0:0:0:
135,260,103168,1,0,1:0:0:0:
217,324,103513,2,0,L|321:323,1,105,0|0,1:0|1:0,0:0:0:0:
425,305,104202,2,0,L|424:252,1,52.5,0|0,0:0|1:0,0:0:0:0:
431,200,104547,2,0,L|431:129,1,52.5,0|0,1:0|0:0,0:0:0:0:
426,95,104892,6,0,P|374:103|326:86,1,105,0|0,1:0|1:0,0:0:0:0:
224,59,105582,1,0,0:0:0:0:
120,74,105927,1,0,1:0:0:0:
188,153,106271,2,0,L|187:258,1,105,0|0,1:0|1:0,0:0:0:0:
213,359,106961,2,0,L|143:359,1,52.5,0|0,0:0|1:0,0:0:0:0:
109,347,107306,2,0,L|45:346,1,52.5,0|0,1:0|1:0,0:0:0:0:
10,319,107651,6,0,P|18:256|6:202,1,105,0|0,1:2|1:0,0:0:0:0:
3,110,108340,1,0,0:0:0:0:
95,61,108685,1,0,1:0:0:0:
177,126,109030,2,0,L|292:127,1,105,0|0,1:0|1:0,0:0:0:0:
381,91,109720,2,0,L|382:158,1,52.5,0|0,0:0|1:0,0:0:0:0:
408,189,110065,2,0,L|408:253,1,52.5,0|0,1:0|0:0,0:0:0:0:
410,293,110409,6,0,P|357:279|295:301,1,105,0|0,1:0|1:0,0:0:0:0:
223,351,111099,1,0,0:0:0:0:
228,246,111444,1,0,1:0:0:0:
269,149,111789,2,0,P|279:98|265:37,1,105,0|0,1:0|1:0,0:0:0:0:
176,96,112478,1,0,0:0:0:0:
93,31,112823,2,0,L|40:32,1,52.5,0|2,1:0|1:2,0:0:0:0:
