osu file format v14

[General]
AudioFilename: audio.mp3
AudioLeadIn: 0
PreviewTime: 68704
Countdown: 0
SampleSet: Soft
StackLeniency: 0.3
Mode: 0
LetterboxInBreaks: 0
WidescreenStoryboard: 0

[Editor]
Bookmarks: 46979
DistanceSpacing: 0.8
BeatDivisor: 8
GridSize: 32
TimelineZoom: 3.199999

[Metadata]
Title:Fall Away
TitleUnicode:Fall Away
Artist:Feint
ArtistUnicode:Feint
Creator:Kujinn
Version:Insane
Source:
Tags:dnb drum n bass kergio akitoshi my angel kanan nextplay
BeatmapID:1368678
BeatmapSetID:517678

[Difficulty]
HPDrainRate:6
CircleSize:4
OverallDifficulty:7.5
ApproachRate:9
SliderMultiplier:1.6
SliderTickRate:1

[Events]
//Background and Video events
0,0,"BG.png",0,0
//Break Periods
//Storyboard Layer 0 (Background)
//Storyboard Layer 1 (Fail)
//Storyboard Layer 2 (Pass)
//Storyboard Layer 3 (Foreground)
//Storyboard Sound Samples

[TimingPoints]
65,344.827586206897,4,2,1,100,1,0
2133,-153.846153846154,4,2,1,50,0,0
24892,-166.666666666667,4,2,1,40,0,0
35927,-125,4,2,1,60,0,0
46961,-166.666666666667,4,2,1,50,0,0
63341,-125,4,2,1,60,0,0
67651,-100,4,2,1,60,0,0
69030,-100,4,2,1,75,0,1
78685,-125,4,2,1,60,0,0
80065,-100,4,2,1,75,0,1
89720,-100,4,2,1,60,0,0
112996,-66.6666666666667,4,2,1,60,0,0
113039,-66.6666666666667,4,2,1,5,0,0

[Colours]
Combo1 : 124,82,148
Combo2 : 209,210,222
Combo3 : 111,113,200

[HitObjects]
69,129,2133,5,2,0:0:0:0:
69,129,2478,1,2,0:0:0:0:
69,129,2823,2,0,B|131:134|131:134|163:117|163:117|223:122,1,155.999992858887,6|0,0:0|0:0,0:0:0:0:
304,181,3513,2,0,P|247:202|220:260,1,103.999995239258,0|0,0:0|0:0,0:0:0:0:
305,266,4030,1,0,0:0:0:0:
305,266,4202,2,0,L|378:271,1,51.999997619629,2|0,0:0|0:0,0:0:0:0:
456,210,4547,2,0,L|470:89,2,103.999995239258,2|2|2,0:0|0:0|0:0,0:0:0:0:
380,52,5582,6,0,P|332:35|267:51,1,103.999995239258,2|0,0:0|0:0,0:0:0:0:
201,112,6099,2,0,L|76:100,1,103.999995239258,2|0,0:0|0:0,0:0:0:0:
24,178,6616,2,0,L|39:291,1,103.999995239258,2|0,0:0|0:0,0:0:0:0:
143,357,7133,1,0,0:0:0:0:
143,357,7306,2,0,B|194:371|194:371|260:360,2,103.999995239258,2|2|2,0:0|0:0|0:0,0:0:0:0:
199,255,8340,6,0,L|323:251,1,103.999995239258,2|0,0:0|0:0,0:0:0:0:
391,313,8858,1,0,0:0:0:0:
391,313,9030,2,0,P|377:260|402:200,1,103.999995239258,0|0,0:0|0:0,0:0:0:0:
472,145,9547,1,0,0:0:0:0:
472,145,9720,2,0,L|466:71,1,51.999997619629,2|0,0:0|0:0,0:0:0:0:
366,29,10065,2,0,L|247:34,2,103.999995239258,2|2|2,0:0|0:0|0:0,0:0:0:0:
281,157,11099,6,0,P|223:171|170:147,1,103.999995239258,2|0,0:0|0:0,0:0:0:0:
93,94,11616,2,0,L|103:216,1,103.999995239258,2|0,0:0|0:0,0:0:0:0:
37,298,12133,2,0,P|95:283|142:303,1,103.999995239258,2|0,0:0|0:0,0:0:0:0:
207,361,12651,1,0,0:0:0:0:
207,361,12823,2,0,L|272:358,1,51.999997619629,0|0,0:0|0:0,0:0:0:0:
338,293,13168,2,0,L|450:304,1,103.999995239258,2|2,0:0|0:0,0:0:0:0:
493,155,13858,6,0,P|417:130|332:158,1,155.999992858887,2|2,0:0|0:0,0:0:0:0:
231,238,14892,2,0,B|154:262|154:262|83:235,1,155.999992858887,2|0,0:0|0:0,0:0:0:0:
8,158,15582,2,0,L|2:40,2,103.999995239258,2|2|2,0:0|0:0|0:0,0:0:0:0:
9,358,16616,6,0,B|84:335|84:335|168:363,1,155.999992858887,2|2,0:0|0:0,0:0:0:0:
356,362,17651,2,0,B|327:246|392:290|359:155,1,207.999990478516,2|0,0:0|0:0,0:0:0:0:
252,73,18513,1,0,0:0:0:0:
252,73,18685,2,0,L|141:64,1,103.999995239258,2|2,0:0|0:0,0:0:0:0:
0,175,19375,6,0,B|24:204|24:204|131:190,1,155.999992858887,2|2,0:0|0:0,0:0:0:0:
301,48,20409,2,0,B|307:130|307:130|283:164|283:164|289:251,1,207.999990478516,2|0,0:0|0:0,0:0:0:0:
362,358,21271,1,0,0:0:0:0:
362,358,21444,2,0,P|422:368|477:347,1,103.999995239258,2|2,0:0|0:0,0:0:0:0:
434,247,22133,6,0,B|360:219|360:219|283:250,1,155.999992858887,2|2,0:0|0:0,0:0:0:0:
121,326,23168,2,0,B|84:195|84:195|158:238,1,207.999990478516,2|0,0:0|0:0,0:0:0:0:
6,212,24202,2,0,P|7:172|58:119,1,103.999995239258,2|2,0:0|0:0,0:0:0:0:
311,146,24892,6,0,P|318:105|309:70,2,71.9999978027344,6|0|0,0:0|0:0|0:0,0:0:0:0:
237,190,25582,2,0,L|239:249,1,47.9999985351563
313,289,25927,2,0,L|311:348,1,47.9999985351563
201,382,26271,6,0,P|151:383|126:370,1,71.9999978027344,2|0,0:0|0:0,0:0:0:0:
131,374,26789,1,0,0:0:0:0:
48,315,26961,2,0,L|40:258,1,47.9999985351563,0|0,0:0|0:0,0:0:0:0:
99,200,27306,2,0,L|99:144,1,47.9999985351563,0|0,0:0|0:0,0:0:0:0:
177,78,27651,6,0,P|215:69|261:85,2,71.9999978027344,2|0|0,0:0|0:0|0:0,0:0:0:0:
99,152,28340,2,0,L|48:148,1,47.9999985351563,0|0,0:0|0:0,0:0:0:0:
115,242,28685,2,0,L|181:240,1,47.9999985351563,0|0,0:0|0:0,0:0:0:0:
232,300,29030,6,0,P|268:295|317:317,1,71.9999978027344,2|0,0:0|0:0,0:0:0:0:
301,305,29547,1,0,0:0:0:0:
389,375,29720,2,0,L|397:309,2,47.9999985351563,0|0|0,0:0|0:0|0:0,0:0:0:0:
485,311,30237,1,0,0:0:0:0:
407,221,30409,6,0,P|372:228|326:211,2,71.9999978027344,2|0|0,0:0|0:0|0:0,0:0:0:0:
481,166,31099,2,0,L|488:115,1,47.9999985351563,0|0,0:0|0:0,0:0:0:0:
411,69,31444,2,0,L|408:16,1,47.9999985351563,0|0,0:0|0:0,0:0:0:0:
317,24,31789,6,0,P|285:18|236:40,1,71.9999978027344,2|0,0:0|0:0,0:0:0:0:
248,29,32306,1,0,0:0:0:0:
166,93,32478,2,0,L|111:84,1,47.9999985351563
56,166,32823,2,0,L|3:168,1,47.9999985351563
32,262,33168,6,0,L|40:338,2,71.9999978027344,2|0|0,0:0|0:0|0:0,0:0:0:0:
137,305,33858,2,0,L|139:366,1,47.9999985351563
241,302,34202,2,0,L|248:248,1,47.9999985351563
299,181,34547,6,0,P|338:176|386:201,1,71.9999978027344,2|0,0:0|0:0,0:0:0:0:
368,186,35065,1,0,0:0:0:0:
454,248,35237,2,0,L|518:241,2,47.9999985351563,0|0|0,0:0|0:0|0:0,0:0:0:0:
376,323,35754,1,0,0:0:0:0:
262,370,35927,6,0,L|251:264,2,96,12|0|0,0:0|0:0|0:0,0:0:0:0:
159,332,36616,2,0,P|123:337|89:325,1,64,2|2,0:0|0:0,0:0:0:0:
5,364,36961,1,2,0:0:0:0:
5,364,37133,1,2,0:0:0:0:
37,262,37306,6,0,L|30:137,1,96,8|0,0:0|0:0,0:0:0:0:
31,166,37823,1,0,0:0:0:0:
150,97,37996,1,2,0:0:0:0:
150,97,38168,1,2,0:0:0:0:
48,59,38340,1,2,0:0:0:0:
123,188,38513,1,2,0:0:0:0:
238,112,38685,6,0,L|249:13,2,96,8|0|0,0:0|0:0|0:0,0:0:0:0:
318,171,39375,2,0,P|357:166|398:184,1,64,2|2,0:0|0:0,0:0:0:0:
457,255,39720,1,2,0:0:0:0:
457,255,39892,1,2,0:0:0:0:
366,349,40065,6,0,L|263:339,1,96,8|0,0:0|0:0,0:0:0:0:
270,339,40582,1,0,0:0:0:0:
152,351,40754,1,2,0:0:0:0:
152,351,40927,1,2,0:0:0:0:
214,246,41099,1,2,0:0:0:0:
110,260,41272,1,2,0:0:0:0:
95,108,41444,6,0,P|50:118|-2:92,2,96,8|0|0,0:0|0:0|0:0,0:0:0:0:
168,44,42133,2,0,L|246:53,1,64,2|2,0:0|0:0,0:0:0:0:
296,120,42478,1,2,0:0:0:0:
296,120,42651,1,2,0:0:0:0:
425,42,42823,6,0,L|430:156,1,96,8|0,0:0|0:0,0:0:0:0:
429,137,43340,1,0,0:0:0:0:
355,240,43513,1,2,0:0:0:0:
355,240,43685,1,2,0:0:0:0:
467,328,43858,1,2,0:0:0:0:
449,218,44030,1,2,0:0:0:0:
368,334,44202,6,0,P|322:330|265:277,2,96,8|0|0,0:0|0:0|0:0,0:0:0:0:
355,240,44892,2,0,L|349:152,1,64,2|2,0:0|0:0,0:0:0:0:
265,106,45237,1,2,0:0:0:0:
265,106,45409,1,2,0:0:0:0:
146,202,45582,6,0,L|139:325,1,96,8|0,0:0|0:0,0:0:0:0:
140,297,46099,1,0,0:0:0:0:
74,379,46271,1,2,0:0:0:0:
74,379,46444,1,2,0:0:0:0:
231,323,46616,1,2,0:0:0:0:
66,252,46789,1,2,0:0:0:0:
229,199,46961,6,0,B|333:173|315:264|431:229,1,191.999994140625,12|0,0:0|0:0,0:0:0:0:
385,141,47823,1,0,0:0:0:0:
385,141,47996,2,0,L|380:75,1,47.9999985351563,0|0,0:0|0:0,0:0:0:0:
282,28,48340,2,0,L|174:18,2,95.9999970703126,2|2|2,0:0|0:0|0:0,0:0:0:0:
385,141,49375,1,2,0:0:0:0:
229,199,49720,6,0,B|150:190|150:190|113:204|113:204|38:197,1,191.999994140625,0|0,0:0|0:0,0:0:0:0:
78,280,50582,1,0,0:0:0:0:
78,280,50754,2,0,P|73:322|79:348,1,47.9999985351563,0|0,0:0|0:0,0:0:0:0:
180,384,51099,2,0,L|287:379,2,95.9999970703126,2|2|2,0:0|0:0|0:0,0:0:0:0:
78,280,52133,1,2,0:0:0:0:
238,115,52478,6,0,B|241:197|241:197|229:225|229:225|233:316,1,191.999994140625,0|0,0:0|0:0,0:0:0:0:
333,363,53340,1,0,0:0:0:0:
333,363,53513,2,0,P|370:361|399:365,1,47.9999985351563,0|0,0:0|0:0,0:0:0:0:
480,293,53858,2,0,P|486:239|467:182,2,95.9999970703126,2|2|2,0:0|0:0|0:0,0:0:0:0:
333,363,54892,1,2,0:0:0:0:
142,288,55237,6,0,B|112:185|168:212|135:95,1,191.999994140625,0|0,0:0|0:0,0:0:0:0:
221,31,56099,1,0,0:0:0:0:
221,31,56271,2,0,L|279:38,1,47.9999985351563,0|0,0:0|0:0,0:0:0:0:
362,111,56616,6,0,P|407:121|470:98,2,95.9999970703126,2|2|2,0:0|0:0|0:0,0:0:0:0:
252,218,57651,1,2,0:0:0:0:
56,89,57996,5,6,0:0:0:0:
56,89,58513,1,2,0:0:0:0:
80,283,59030,1,2,0:0:0:0:
80,283,59547,1,2,0:0:0:0:
183,167,60065,6,0,L|243:175,1,47.9999985351563,8|8,0:0|0:0,0:0:0:0:
307,242,60409,2,0,L|369:232,1,47.9999985351563,8|0,0:0|0:0,0:0:0:0:
453,159,60754,5,2,0:0:0:0:
453,159,61271,1,2,0:0:0:0:
414,384,61789,1,2,0:0:0:0:
414,384,62306,1,2,0:0:0:0:
209,295,62823,5,8,0:0:0:0:
264,170,62996,1,0,0:0:0:0:
314,345,63168,1,8,0:0:0:0:
164,228,63340,1,0,0:0:0:0:
164,228,63427,1,0,0:0:0:0:
164,228,63513,6,0,L|157:152,1,64,10|10,0:0|0:0,0:0:0:0:
221,101,63858,2,0,L|214:29,1,64,10|10,0:0|0:0,0:0:0:0:
312,87,64202,2,0,P|352:92|391:81,1,64,10|10,0:0|0:0,0:0:0:0:
467,165,64547,2,0,P|433:160|401:166,1,64,10|10,0:0|0:0,0:0:0:0:
247,287,64892,5,10,0:0:0:0:
379,295,65065,1,10,0:0:0:0:
317,176,65237,1,10,0:0:0:0:
317,176,65409,1,10,0:0:0:0:
307,347,65582,5,10,0:0:0:0:
388,217,65755,1,10,0:0:0:0:
234,219,65927,1,10,0:0:0:0:
234,219,66099,1,10,0:0:0:0:
455,358,66271,6,0,L|462:310,3,32,2|2|2|2,0:0|0:0|0:0|0:0,0:0:0:0:
393,249,66616,2,0,L|386:201,3,32,2|2|2|2,0:0|0:0|0:0|0:0,0:0:0:0:
479,164,66961,1,2,0:0:0:0:
479,164,67047,1,2,0:0:0:0:
479,164,67133,1,2,0:0:0:0:
479,164,67220,1,2,0:0:0:0:
479,164,67306,2,0,L|486:116,3,32,2|2|2|2,0:0|0:0|0:0|0:0,0:0:0:0:
393,85,67651,6,0,L|388:49,6,20,2|2|2|2|2|2|2,0:0|0:0|0:0|0:0|0:0|0:0|0:0,0:0:0:0:
295,80,67996,6,0,L|282:61,6,20,2|2|2|2|2|2|2,0:0|0:0|0:0|0:0|0:0|0:0|0:0,0:0:0:0:
200,114,68340,6,0,L|176:112,6,20,2|2|2|2|2|2|2,0:0|0:0|0:0|0:0|0:0|0:0|0:0,0:0:0:0:
71,215,68685,6,0,L|57:122,1,80
180,112,69030,6,0,L|170:281,1,160,4|8,1:0|1:2,0:0:0:0:
265,331,69547,1,2,0:0:0:0:
265,331,69633,2,0,P|301:350|377:329,1,120,2|0,0:0|1:0,0:0:0:0:
458,283,70065,1,8,1:2:0:0:
354,212,70237,1,2,0:0:0:0:
453,66,70409,6,0,L|444:182,1,80,0|2,1:0|0:0,0:0:0:0:
355,58,70754,1,8,1:2:0:0:
214,153,70927,1,2,0:0:0:0:
214,153,71013,1,2,0:0:0:0:
214,153,71099,2,0,P|263:163|308:144,1,80,2|0,0:0|1:0,0:0:0:0:
215,41,71444,2,0,L|125:33,1,80,8|2,1:2|0:0,0:0:0:0:
88,129,71789,6,0,B|64:213|119:195|87:296,1,160,0|8,1:0|1:2,0:0:0:0:
223,355,72306,1,2,0:0:0:0:
223,355,72392,2,0,P|202:273|224:226,1,120,2|0,0:0|1:0,0:0:0:0:
384,199,72823,1,8,1:2:0:0:
297,291,72996,1,2,0:0:0:0:
237,165,73168,6,0,L|226:61,1,80,0|2,1:0|0:0,0:0:0:0:
152,225,73513,1,8,1:2:0:0:
348,127,73685,1,2,0:0:0:0:
348,127,73771,1,2,0:0:0:0:
348,127,73858,2,0,L|441:137,1,80,2|0,0:0|1:0,0:0:0:0:
334,252,74202,1,8,1:2:0:0:
474,264,74375,1,2,1:2:0:0:
270,345,74547,6,0,B|204:338|204:338|182:317|182:317|99:309,1,160,0|8,1:0|1:2,0:0:0:0:
43,235,75065,1,2,0:0:0:0:
43,235,75151,2,0,P|29:171|49:115,1,120,2|0,0:0|1:0,0:0:0:0:
170,184,75582,1,8,1:2:0:0:
144,44,75754,1,2,0:0:0:0:
296,134,75927,6,0,L|306:32,1,80,0|2,1:0|0:0,0:0:0:0:
437,57,76271,1,8,1:2:0:0:
333,225,76444,1,2,0:0:0:0:
333,225,76530,1,2,0:0:0:0:
333,225,76616,2,0,P|280:229|240:212,1,80,2|0,0:0|1:0,0:0:0:0:
403,149,76961,2,0,L|495:159,1,80,8|2,1:2|0:0,0:0:0:0:
452,308,77306,6,0,B|365:289|387:361|271:329,1,160,0|8,1:0|1:2,0:0:0:0:
107,300,77823,1,2,0:0:0:0:
107,300,77909,2,0,L|118:174,1,120,2|0,0:0|1:0,0:0:0:0:
276,175,78340,1,8,1:2:0:0:
205,328,78513,1,2,0:0:0:0:
64,116,78685,6,0,P|123:96|182:127,1,128,2|2,0:0|0:0,0:0:0:0:
307,279,79375,2,0,P|368:299|439:269,1,128,2|4,0:0|3:0,0:0:0:0:
491,197,79892,1,8,3:0:0:0:
406,60,80065,6,0,B|323:36|329:110|227:71,1,160,4|8,1:0|1:2,0:0:0:0:
125,33,80582,1,2,0:0:0:0:
125,33,80668,2,0,P|155:83|150:149,1,120,2|0,0:0|1:0,0:0:0:0:
62,238,81099,1,8,1:2:0:0:
47,111,81271,1,2,0:0:0:0:
197,223,81444,6,0,L|186:338,1,80,0|2,1:0|0:0,0:0:0:0:
287,238,81789,1,8,1:2:0:0:
146,373,81961,1,2,0:0:0:0:
146,373,82047,1,2,0:0:0:0:
146,373,82133,2,0,P|196:385|237:368,1,80,2|0,0:0|1:0,0:0:0:0:
340,313,82478,2,0,L|441:326,1,80,8|2,1:2|0:0,0:0:0:0:
475,229,82823,6,0,B|483:161|483:161|501:140|501:140|509:76,1,160,0|8,1:0|1:2,0:0:0:0:
382,33,83340,1,2,0:0:0:0:
382,33,83427,2,0,P|321:48|258:26,1,120,2|0,0:0|1:0,0:0:0:0:
209,156,83858,1,8,1:2:0:0:
350,122,84030,1,2,0:0:0:0:
112,108,84202,6,0,L|127:219,1,80,0|2,1:0|0:0,0:0:0:0:
71,314,84547,1,8,1:2:0:0:
266,261,84720,1,2,0:0:0:0:
266,261,84806,1,2,0:0:0:0:
266,261,84892,2,0,P|219:255|173:274,1,80,2|0,0:0|1:0,0:0:0:0:
338,367,85237,1,8,1:2:0:0:
376,232,85409,1,2,1:2:0:0:
255,30,85582,6,0,B|216:75|216:75|227:189,1,160,0|8,1:0|1:2,0:0:0:0:
350,235,86099,1,2,0:0:0:0:
350,235,86185,2,0,L|359:106,1,120,2|0,0:0|1:0,0:0:0:0:
124,147,86616,2,0,L|137:246,1,80,8|2,1:2|0:0,0:0:0:0:
284,297,86961,6,0,P|241:286|197:300,1,80,0|2,1:0|0:0,0:0:0:0:
105,340,87306,1,8,1:0:0:0:
366,371,87478,1,2,0:0:0:0:
366,371,87565,1,2,0:0:0:0:
366,371,87651,2,0,L|378:275,1,80,2|0,0:0|1:0,0:0:0:0:
266,198,87996,2,0,L|257:113,1,80,8|2,1:2|0:0,0:0:0:0:
375,28,88340,6,0,P|435:26|497:126,1,160,0|8,1:0|1:2,0:0:0:0:
408,122,88858,1,2,0:0:0:0:
408,122,88944,2,0,L|286:109,1,120,2|0,0:0|1:0,0:0:0:0:
188,195,89375,2,0,P|254:202|287:185,1,80,8|2,1:2|0:0,0:0:0:0:
118,112,89720,6,0,B|84:164|84:164|109:290,1,160,0|2,2:0|2:3,0:0:0:0:
179,331,90237,1,0,2:0:0:0:
179,331,90409,2,0,P|228:326|276:344,1,80,2|0,2:0|2:0,0:0:0:0:
344,378,90754,2,0,L|431:369,1,80,2|0,2:3|2:0,0:0:0:0:
471,220,91099,6,0,L|482:107,1,80,4|0,1:2|0:0,0:0:0:0:
362,47,91444,2,0,L|373:160,1,80,4|0,1:0|0:0,0:0:0:0:
357,238,91789,1,0,0:0:0:0:
357,238,91961,1,0,1:0:0:0:
172,327,92133,1,0,1:0:0:0:
250,187,92306,1,0,0:0:0:0:
364,345,92478,6,0,L|272:337,1,80,0|0,1:0|0:0,0:0:0:0:
100,351,92823,1,0,1:0:0:0:
190,220,92996,1,0,0:0:0:0:
190,220,93082,2,0,P|198:270|182:316,1,80
179,327,93340,1,0,1:0:0:0:
64,220,93513,2,0,L|68:121,1,80,0|0,1:0|0:0,0:0:0:0:
192,60,93858,6,0,P|237:70|278:58,1,80,0|0,1:0|0:0,0:0:0:0:
396,152,94202,2,0,P|349:144|308:158,1,80,0|0,1:0|0:0,0:0:0:0:
242,239,94547,1,0,0:0:0:0:
242,239,94720,1,0,1:0:0:0:
406,361,94892,1,0,1:0:0:0:
358,222,95064,1,0,0:0:0:0:
181,361,95237,6,0,L|260:352,1,80,0|0,1:0|0:0,0:0:0:0:
96,278,95582,1,0,1:0:0:0:
224,201,95754,1,0,0:0:0:0:
224,201,95840,2,0,L|217:293,1,80
215,313,96099,1,0,1:0:0:0:
282,138,96271,1,0,1:0:0:0:
129,213,96444,1,0,1:2:0:0:
354,181,96616,6,0,P|364:134|349:88,1,80,0|0,1:2|0:0,0:0:0:0:
277,30,96961,2,0,L|193:28,1,80,0|0,1:0|0:0,0:0:0:0:
90,90,97306,1,0,0:0:0:0:
90,90,97478,1,0,1:0:0:0:
239,212,97651,1,0,1:0:0:0:
211,68,97823,1,0,0:0:0:0:
35,218,97996,6,0,P|86:229|130:213,1,80,0|0,1:0|0:0,0:0:0:0:
281,293,98340,1,0,1:0:0:0:
174,384,98513,1,0,0:0:0:0:
174,384,98599,2,0,L|167:290,1,80
166,271,98858,1,0,1:0:0:0:
316,210,99030,2,0,P|277:201|239:212,1,80,0|0,1:0|0:0,0:0:0:0:
391,349,99375,6,0,P|382:284|394:255,1,80,0|0,1:0|0:0,0:0:0:0:
461,190,99720,2,0,L|454:87,1,80,0|0,1:0|0:0,0:0:0:0:
354,40,100065,1,0,0:0:0:0:
354,40,100237,1,0,1:0:0:0:
167,157,100409,1,0,1:0:0:0:
348,182,100582,1,0,0:0:0:0:
196,46,100754,6,0,L|97:36,1,80,0|0,1:0|0:0,0:0:0:0:
29,125,101099,1,0,1:0:0:0:
141,224,101271,1,0,0:0:0:0:
141,224,101358,2,0,L|242:217,1,80
252,218,101616,1,0,1:0:0:0:
138,104,101789,1,0,1:0:0:0:
45,252,101961,1,0,1:0:0:0:
163,353,102133,6,0,L|150:251,1,80,4|0,1:2|0:0,0:0:0:0:
246,142,102478,2,0,P|303:144|342:174,1,80,0|0,1:0|0:0,0:0:0:0:
439,269,102823,1,0,0:0:0:0:
267,236,102996,1,0,1:0:0:0:
450,166,103168,1,0,1:0:0:0:
352,333,103340,1,0,0:0:0:0:
190,324,103513,6,0,L|81:311,1,80,0|0,1:0|0:0,0:0:0:0:
24,206,103858,1,0,1:0:0:0:
179,129,104030,1,0,0:0:0:0:
179,129,104116,2,0,P|188:180|166:229,1,80
169,236,104375,1,0,1:0:0:0:
58,113,104547,2,0,L|67:14,1,80,0|0,1:0|0:0,0:0:0:0:
238,52,104892,6,0,P|282:62|322:55,1,80,0|0,1:0|0:0,0:0:0:0:
470,137,105237,2,0,P|427:132|383:153,1,80,0|0,1:0|0:0,0:0:0:0:
269,266,105582,1,0,0:0:0:0:
444,227,105754,1,0,1:0:0:0:
265,156,105927,1,0,1:0:0:0:
370,328,106099,1,0,0:0:0:0:
209,372,106271,6,0,L|109:362,1,80,0|0,1:0|0:0,0:0:0:0:
43,252,106616,1,0,1:0:0:0:
186,168,106789,1,0,0:0:0:0:
186,168,106875,2,0,L|181:262,1,80
181,280,107133,1,0,1:0:0:0:
30,338,107306,1,0,1:0:0:0:
62,192,107478,1,0,1:0:0:0:
259,281,107651,6,0,P|204:286|168:273,1,80,0|0,1:2|0:0,0:0:0:0:
281,183,107996,2,0,L|369:187,1,80,0|0,1:0|0:0,0:0:0:0:
477,310,108340,1,0,0:0:0:0:
411,121,108513,1,0,1:0:0:0:
336,299,108685,1,0,1:0:0:0:
502,194,108858,1,0,0:0:0:0:
332,60,109030,6,0,P|286:53|244:67,1,80,0|0,1:0|0:0,0:0:0:0:
97,42,109375,1,0,1:0:0:0:
186,166,109547,1,0,0:0:0:0:
186,166,109633,2,0,L|182:251,1,80
181,278,109892,1,0,1:0:0:0:
38,351,110065,1,0,1:0:0:0:
47,192,110237,1,0,0:0:0:0:
257,241,110409,6,0,P|316:234|343:247,1,80,0|0,1:0|0:0,0:0:0:0:
468,338,110754,2,0,P|409:344|381:332,1,80,0|0,1:0|0:0,0:0:0:0:
280,358,111099,1,0,0:0:0:0:
431,253,111271,1,0,1:0:0:0:
266,156,111444,1,0,1:0:0:0:
306,273,111616,1,0,0:0:0:0:
437,141,111789,6,0,L|341:144,1,80,0|0,1:0|0:0,0:0:0:0:
216,227,112133,1,0,1:0:0:0:
141,78,112306,1,0,0:0:0:0:
141,78,112392,2,0,P|186:70|237:93,1,80
246,94,112651,1,0,1:0:0:0:
154,298,112823,1,0,1:0:0:0:
39,170,112996,6,0,L|34:113,1,30.0000011444092,0|0,1:0|0:0,0:0:0:0:
