osu file format v14

[General]
AudioFilename: audio.mp3
AudioLeadIn: 0
PreviewTime: 68704
Countdown: 0
SampleSet: Soft
StackLeniency: 0.3
Mode: 0
LetterboxInBreaks: 0
WidescreenStoryboard: 0

[Editor]
Bookmarks: 46979
DistanceSpacing: 1
BeatDivisor: 4
GridSize: 32
TimelineZoom: 1.5

[Metadata]
Title:Fall Away
TitleUnicode:Fall Away
Artist:Feint
ArtistUnicode:Feint
Creator:Kujinn
Version:Easy
Source:
Tags:dnb drum n bass kergio akitoshi my angel kanan nextplay
BeatmapID:1369064
BeatmapSetID:517678

[Difficulty]
HPDrainRate:3
CircleSize:3
OverallDifficulty:3
ApproachRate:4
SliderMultiplier:0.899999999999999
SliderTickRate:1

[Events]
//Background and Video events
0,0,"BG.png",0,0
//Break Periods
//Storyboard Layer 0 (Background)
//Storyboard Layer 1 (Fail)
//Storyboard Layer 2 (Pass)
//Storyboard Layer 3 (Foreground)
//Storyboard Sound Samples

[TimingPoints]
65,344.827586206897,4,2,1,100,1,0
2133,-100,4,2,1,50,0,0
24892,-100,4,2,1,40,0,0
35927,-100,4,2,1,60,0,0
63341,-100,4,2,1,50,0,0
69030,-100,4,2,1,75,0,1
78685,-100,4,2,1,60,0,0
80065,-100,4,2,1,75,0,1
89720,-100,4,2,1,60,0,0

[Colours]
Combo1 : 124,82,148
Combo2 : 209,210,222
Combo3 : 111,113,200

[HitObjects]
111,284,2133,6,0,P|74:273|16:285,1,89.9999999999999,2|2,0:0|0:0,0:0:0:0:
0,197,2823,6,0,B|68:173|133:201|133:201|198:171|266:203|266:203|225:181|192:136,1,360,6|2,0:0|0:0,0:0:0:0:
284,116,4547,2,0,L|291:22,2,89.9999999999999,2|2|2,0:0|0:0|0:0,0:0:0:0:
357,167,5582,2,0,P|417:160|492:196,1,135,2|2,0:0|0:0,0:0:0:0:
398,294,6616,2,0,L|301:280,1,89.9999999999999,2|0,0:0|0:0,0:0:0:0:
231,327,7306,2,0,L|131:338,1,89.9999999999999,2|2,0:0|0:0,0:0:0:0:
58,300,7996,1,2,0:0:0:0:
119,234,8340,6,0,B|186:258|246:219|246:219|308:261|393:231|393:231|350:223|319:189,1,360,2|0,0:0|0:0,0:0:0:0:
396,139,10065,2,0,P|406:86|385:34,2,89.9999999999999,2|2|2,0:0|0:0|0:0,0:0:0:0:
317,95,11099,2,0,L|180:86,1,135,2|2,0:0|0:0,0:0:0:0:
68,159,12133,2,0,P|57:213|66:254,1,89.9999999999999,2|0,0:0|0:0,0:0:0:0:
211,276,13168,1,2,0:0:0:0:
284,328,13513,1,2,0:0:0:0:
369,301,13858,6,0,L|383:157,1,135,2|2,0:0|0:0,0:0:0:0:
308,59,14892,2,0,P|266:70|208:53,1,89.9999999999999,2|0,0:0|0:0,0:0:0:0:
148,113,15582,2,0,P|100:104|52:117,2,89.9999999999999,2|2|2,0:0|0:0|0:0,0:0:0:0:
105,192,16616,6,0,L|116:332,1,135,2|2,0:0|0:0,0:0:0:0:
242,374,17651,2,0,P|289:385|335:376,1,89.9999999999999,2|0,0:0|0:0,0:0:0:0:
379,205,18685,2,0,P|367:161|374:117,1,89.9999999999999,2|2,0:0|0:0,0:0:0:0:
439,51,19375,6,0,P|394:29|308:55,1,135,2|2,0:0|0:0,0:0:0:0:
212,136,20409,2,0,L|121:128,2,89.9999999999999,2|0|0,0:0|0:0|0:0,0:0:0:0:
235,223,21444,2,0,P|226:275|243:326,1,89.9999999999999,2|2,0:0|0:0,0:0:0:0:
314,268,22133,6,0,P|380:288|451:265,1,135,2|2,0:0|0:0,0:0:0:0:
380,150,23168,2,0,L|287:142,2,89.9999999999999,2|0|0,0:0|0:0|0:0,0:0:0:0:
463,117,24202,2,0,P|475:72|464:24,1,89.9999999999999,2|2,0:0|0:0,0:0:0:0:
384,68,24892,6,0,B|317:52|317:52|244:81,2,135,6|0|0,0:0|0:0|0:0,0:0:0:0:
463,117,26271,2,0,L|450:268,1,135,2|0,0:0|0:0,0:0:0:0:
333,318,27306,1,0,0:0:0:0:
251,280,27651,6,0,P|186:258|114:277,2,135,2|0|0,0:0|0:0|0:0,0:0:0:0:
333,318,29030,2,0,L|341:170,1,135,2|0,0:0|0:0,0:0:0:0:
250,79,30065,1,0,0:0:0:0:
182,137,30409,6,0,P|120:157|47:127,2,135,2|0|0,0:0|0:0|0:0,0:0:0:0:
250,79,31789,2,0,L|395:91,1,135,2|0,0:0|0:0,0:0:0:0:
468,195,32823,1,0,0:0:0:0:
390,240,33168,6,0,P|381:299|408:379,2,135,2|0|0,0:0|0:0|0:0,0:0:0:0:
468,195,34547,2,0,L|474:45,1,135,2|0,0:0|0:0,0:0:0:0:
343,22,35582,1,0,0:0:0:0:
266,69,35927,6,0,B|199:50|199:50|135:66,2,135,6|0|0,0:0|0:0|0:0,0:0:0:0:
343,22,37306,2,0,P|357:93|316:151,1,135,2|0,0:0|0:0,0:0:0:0:
224,232,38340,1,0,0:0:0:0:
274,306,38685,6,0,L|415:313,2,135,2|0|0,0:0|0:0|0:0,0:0:0:0:
224,232,40065,2,0,B|154:249|154:249|82:223,1,135,2|0,0:0|0:0,0:0:0:0:
36,105,41099,1,0,0:0:0:0:
89,32,41444,6,0,L|229:27,2,135,2|0|0,0:0|0:0|0:0,0:0:0:0:
36,105,42823,2,0,P|91:126|171:105,1,135,2|0,0:0|0:0,0:0:0:0:
285,169,43858,1,0,0:0:0:0:
224,232,44202,6,0,L|235:374,2,135,2|0|0,0:0|0:0|0:0,0:0:0:0:
285,169,45582,2,0,P|345:187|430:158,1,135,2|0,0:0|0:0,0:0:0:0:
506,71,46616,1,0,0:0:0:0:
422,36,46961,6,0,B|357:30|357:30|327:44|327:44|236:35,1,180,4|0,0:0|0:0,0:0:0:0:
66,101,49720,6,0,P|46:163|83:285,1,180,0|0,0:0|0:0,0:0:0:0:
227,351,52478,6,0,B|304:357|304:357|340:340|340:340|418:346,1,180,0|0,0:0|0:0,0:0:0:0:
427,97,55237,6,0,B|328:72|368:158|244:126,1,180,0|0,0:0|0:0,0:0:0:0:
61,322,57996,6,0,P|140:302|201:336,1,135,2|2,0:0|0:0,0:0:0:0:
312,370,59030,2,0,L|460:358,1,135,2|2,0:0|0:0,0:0:0:0:
472,226,60065,2,0,L|367:215,1,89.9999999999999,8|0,0:0|0:0,0:0:0:0:
315,156,60754,6,0,P|251:176|176:138,1,135,2|2,0:0|0:0,0:0:0:0:
75,81,61789,2,0,P|55:149|80:212,1,135,2|2,0:0|0:0,0:0:0:0:
173,301,62823,2,0,L|170:357,2,45,8|8|8,0:0|0:0|0:0,0:0:0:0:
256,192,63513,12,0,67651,0:0:0:0:
176,300,69030,6,0,P|122:278|42:298,2,135,4|2|8,1:0|0:0|1:2,0:0:0:0:
245,356,70409,2,0,L|348:351,1,89.9999999999999,0|8,1:0|1:2,0:0:0:0:
397,286,71099,2,0,P|407:237|392:190,1,89.9999999999999,2|8,0:0|1:2,0:0:0:0:
326,142,71789,2,0,P|405:111|460:135,2,135,0|2|8,1:0|0:0|1:2,0:0:0:0:
263,206,73168,2,0,L|173:200,1,89.9999999999999,0|8,1:0|1:2,0:0:0:0:
98,248,73858,1,2,0:0:0:0:
94,158,74202,1,8,1:2:0:0:
157,93,74547,6,0,P|97:68|23:96,2,135,0|2|8,1:0|0:0|1:2,0:0:0:0:
229,155,75927,2,0,L|323:151,1,89.9999999999999,0|8,1:0|1:2,0:0:0:0:
387,210,76616,2,0,P|378:254|395:314,1,89.9999999999999,2|8,0:0|1:2,0:0:0:0:
466,254,77306,2,0,L|476:104,2,135,0|2|8,1:0|0:0|1:2,0:0:0:0:
387,297,78685,2,0,P|325:329|222:279,1,180,2|2,0:0|0:0,0:0:0:0:
139,298,79720,1,4,3:0:0:0:
70,239,80065,6,0,P|51:291|81:372,2,135,4|2|8,1:0|0:0|1:2,0:0:0:0:
129,167,81444,2,0,P|182:176|219:167,1,89.9999999999999,0|8,1:0|1:2,0:0:0:0:
283,107,82133,2,0,L|392:115,1,89.9999999999999,2|8,0:0|1:2,0:0:0:0:
437,176,82823,2,0,P|457:246|428:311,2,135,0|2|8,1:2|0:0|1:2,0:0:0:0:
370,236,84202,2,0,L|274:228,1,89.9999999999999,0|8,1:0|1:2,0:0:0:0:
204,277,84892,1,2,0:0:0:0:
113,276,85237,1,8,1:2:0:0:
40,223,85582,6,0,P|27:297|69:355,2,135,0|2|8,1:0|0:0|1:2,0:0:0:0:
101,156,86961,2,0,L|94:57,1,89.9999999999999,0|8,1:0|1:0,0:0:0:0:
172,21,87651,2,0,P|219:10|276:27,1,89.9999999999999,2|8,0:0|1:2,0:0:0:0:
338,60,88340,2,0,B|405:77|405:77|468:59,2,135,0|2|8,1:0|0:0|1:2,0:0:0:0:
261,104,89720,2,0,P|249:61|259:18,2,89.9999999999999,0|2|2,2:0|2:3|0:0,0:0:0:0:
307,182,90754,1,2,2:3:0:0:
246,249,91099,6,0,P|195:258|150:239,2,89.9999999999999,4|0|0,1:2|1:0|0:0,0:0:0:0:
330,279,92133,1,0,1:0:0:0:
391,344,92478,2,0,L|494:351,1,89.9999999999999,0|0,1:0|1:0,0:0:0:0:
505,263,93168,2,0,P|512:219|495:161,1,89.9999999999999,0|0,0:0|1:0,0:0:0:0:
439,110,93858,6,0,L|444:2,2,89.9999999999999,0|0|0,1:0|1:0|0:0,0:0:0:0:
354,142,94892,1,0,1:0:0:0:
277,95,95237,2,0,P|233:85|178:103,1,89.9999999999999,0|0,1:0|1:0,0:0:0:0:
120,153,95927,1,0,0:0:0:0:
158,234,96271,1,0,1:0:0:0:
103,305,96616,6,0,P|59:313|5:297,2,89.9999999999999,0|0|0,1:2|1:0|0:0,0:0:0:0:
173,361,97651,1,0,1:0:0:0:
244,306,97996,2,0,L|333:307,1,89.9999999999999,0|0,1:0|1:0,0:0:0:0:
413,349,98685,2,0,P|421:300|403:252,1,89.9999999999999,0|0,0:0|1:0,0:0:0:0:
361,185,99375,6,0,L|367:84,2,89.9999999999999,0|0|0,1:0|1:0|0:0,0:0:0:0:
283,231,100409,1,0,1:0:0:0:
208,180,100754,2,0,P|152:169|107:186,1,89.9999999999999,0|0,1:0|1:0,0:0:0:0:
162,257,101444,2,0,P|154:297|171:352,1,89.9999999999999,0|0,0:0|1:0,0:0:0:0:
242,296,102133,6,0,L|338:294,2,89.9999999999999,4|0|0,1:2|1:0|0:0,0:0:0:0:
166,343,103168,1,0,1:0:0:0:
92,291,103513,2,0,P|54:302|1:290,1,89.9999999999999,0|0,1:0|1:0,0:0:0:0:
48,213,104202,2,0,P|37:162|48:115,1,89.9999999999999,0|0,0:0|1:0,0:0:0:0:
109,63,104892,6,0,L|216:56,2,89.9999999999999,0|0|0,1:0|1:0|0:0,0:0:0:0:
43,125,105927,1,0,1:0:0:0:
122,166,106271,2,0,L|231:160,1,89.9999999999999,0|0,1:0|1:0,0:0:0:0:
274,226,106961,1,0,0:0:0:0:
234,304,107306,1,0,1:0:0:0:
304,359,107651,6,0,P|358:369|401:354,2,89.9999999999999,0|0|0,1:2|1:0|0:0,0:0:0:0:
234,304,108685,1,0,1:0:0:0:
288,232,109030,2,0,L|382:227,1,89.9999999999999,0|0,1:0|1:0,0:0:0:0:
436,158,109720,2,0,P|441:106|425:55,1,89.9999999999999,0|0,0:0|1:0,0:0:0:0:
353,25,110409,6,0,L|260:20,2,89.9999999999999,0|0|0,1:0|1:0|0:0,0:0:0:0:
432,69,111444,1,0,1:0:0:0:
356,118,111789,2,0,L|265:123,1,89.9999999999999,0|0,1:0|1:0,0:0:0:0:
205,189,112478,1,0,0:0:0:0:
264,256,112823,2,0,L|327:260,1,45,0|2,1:0|1:2,0:0:0:0:
