osu file format v14

[General]
AudioFilename: audio.mp3
AudioLeadIn: 0
PreviewTime: 146823
Countdown: 1
SampleSet: Normal
StackLeniency: 0.7
Mode: 0
LetterboxInBreaks: 0
WidescreenStoryboard: 0

[Editor]
Bookmarks: 12340,69581,113719,135788,141823,146823,168892,190961,224064
DistanceSpacing: 0.5
BeatDivisor: 4
GridSize: 4
TimelineZoom: 1.5

[Metadata]
Title:Fall Away
TitleUnicode:Fall Away
Artist:Feint
ArtistUnicode:Feint
Creator:Ameyy
Version:Sweet Dreams
Source:
Tags:DnB D&B
BeatmapID:1060852
BeatmapSetID:498333

[Difficulty]
HPDrainRate:7
CircleSize:4
OverallDifficulty:8
ApproachRate:9
SliderMultiplier:1.4
SliderTickRate:1

[Events]
//Background and Video events
0,0,"bg.png",0,0
//Break Periods
2,25643,35878
2,118547,121395
2,124954,135188
//Storyboard Layer 0 (Background)
//Storyboard Layer 1 (Fail)
//Storyboard Layer 2 (Pass)
//Storyboard Layer 3 (Foreground)
//Storyboard Sound Samples
Sample,36478,0,"normal-hitfinish2.wav",70

[TimingPoints]
3374,-133.333333333333,4,2,1,40,0,0
3375,344.827586206897,4,2,0,40,1,0
25443,-133.333333333333,4,2,0,50,0,0
33719,-117.647058823529,4,2,0,60,0,0
36478,-100,4,2,0,60,0,0
47512,-117.647058823529,4,3,0,50,0,0
47857,-117.647058823529,4,2,0,50,0,0
50271,-117.647058823529,4,3,0,50,0,0
50616,-117.647058823529,4,2,0,50,0,0
53030,-117.647058823529,4,3,0,50,0,0
53375,-117.647058823529,4,2,0,50,0,0
55788,-117.647058823529,4,3,0,50,0,0
56133,-117.647058823529,4,2,0,50,0,0
58547,-133.333333333333,4,2,0,60,0,0
69581,-83.3333333333333,4,1,0,70,0,1
79237,-100,4,1,0,60,0,0
79581,-133.333333333333,4,1,0,50,0,0
79926,-181.818181818181,4,1,0,40,0,0
80271,-200,4,1,0,60,0,0
80616,-83.3333333333333,4,1,0,70,0,1
90271,-100,4,1,0,60,0,1
90616,-133.333333333333,4,1,0,50,0,1
90961,-181.818181818181,4,1,0,40,0,1
91306,-200,4,1,0,60,0,1
91650,-100,4,2,0,60,0,0
146823,-83.3333333333333,4,1,0,70,0,1

[HitObjects]
132,64,3375,6,0,P|120:128|100:156,1,70,2|0,0:0|0:0,0:0:0:0:
192,172,3719,2,0,P|184:228|188:256,1,70
264,216,4064,1,2,0:0:0:0:
312,148,4237,1,0,0:0:0:0:
356,220,4409,2,0,B|384:192|384:192|444:172,1,70
440,260,4754,5,2,0:0:0:70:normal-hitwhistle.wav
312,148,4926,1,0,0:0:0:0:
236,116,5099,2,0,L|148:116,1,70
204,192,5443,2,0,L|124:192,1,70,2|0,0:0|0:0,0:0:0:50:soft-hitclap4.wav
164,272,5788,2,0,L|72:272,1,70
112,356,6133,6,0,P|196:356|244:372,1,105,2|0,0:0|0:0,0:0:0:0:
256,352,6478,1,0,0:0:0:0:
308,288,6650,2,0,B|284:252|268:216|264:188|264:188|276:164|276:172,1,105
300,168,6995,1,0,0:0:0:0:
248,104,7168,6,0,P|180:124|112:68,1,140,0|2,0:0|0:0,0:0:0:0:
192,40,7685,1,0,0:0:0:0:
300,168,7857,2,0,L|364:240,1,70
264,244,8202,2,0,L|296:332,1,70,2|0,0:0|0:0,0:0:0:0:
346,220,8547,1,0,0:0:0:0:
292,156,8719,1,0,0:0:0:0:
288,312,8892,6,0,B|216:296|216:344|140:300,1,140,2|0,0:0|0:0,0:0:0:0:
104,236,9409,2,0,P|148:220|180:228,1,70,0|2,0:0|0:0,0:0:0:0:
132,380,9754,1,0,0:0:0:0:
60,336,9926,1,0,0:0:0:0:
24,260,10099,2,0,P|24:200|48:176,1,70,0|2,0:0|0:0,0:0:0:0:
104,156,10443,5,0,0:0:0:0:
184,136,10616,2,0,L|268:160,1,70
391,129,10961,2,0,L|320:104,1,70,2|0,0:0|0:0,0:0:0:0:
252,64,11306,1,0,0:0:0:0:
324,20,11478,1,0,0:0:0:0:
332,188,11650,6,0,L|192:256,1,140,2|0,0:0|0:0,0:0:0:0:
228,332,12168,2,0,P|152:316|120:256,1,140
92,188,12685,2,0,B|112:256|72:256|104:352,1,140,0|2,0:0|0:0,0:0:0:0:
140,128,13202,6,0,P|164:92|164:52,1,70
48,28,13547,2,0,P|80:68|100:72,1,70,0|2,0:0|0:0,0:0:0:0:
232,28,13892,1,0,0:0:0:0:
276,100,14064,2,0,L|316:184,1,70
280,244,14409,6,0,P|224:272|152:256,1,140,2|0,0:0|0:0,0:0:0:0:
352,244,14926,2,0,P|408:272|480:256,1,140
316,384,15443,2,0,B|316:332|316:332|308:300|308:300|308:240,1,140,0|2,0:0|0:0,0:0:0:0:
372,188,15961,5,0,0:0:0:0:
436,136,16133,2,0,L|408:68,1,70
332,36,16478,2,0,L|320:116,1,70,2|0,0:0|0:0,0:0:0:0:
264,172,16823,2,0,L|220:96,1,70
152,76,17168,6,0,P|108:120|180:252,2,210,2|0|0,0:0|0:0|0:0,0:0:0:0:
180,164,18375,1,0,0:0:0:0:
52,76,18547,1,0,0:0:0:0:normal-hitwhistle.wav
16,176,18719,1,0,0:0:0:0:
152,76,18892,2,0,L|88:152,1,70
104,212,19237,6,0,L|152:284,1,70,2|0,0:0|0:0,0:0:0:0:
228,264,19581,2,0,P|280:236|312:240,1,70
288,320,19926,2,0,P|336:308|372:208,1,140,2|0,0:0|0:0,0:0:0:0:
288,64,20443,2,0,P|336:76|372:176,1,140
300,188,20961,2,0,B|232:160|232:224|136:164,1,140,0|2,0:0|0:0,0:0:0:0:
116,108,21478,5,0,0:0:0:0:
116,248,21650,1,0,0:0:0:0:
204,104,21823,1,0,0:0:0:0:
208,256,21995,2,0,L|208:344,1,70,2|0,0:0|0:0,0:0:0:0:
204,104,22340,2,0,L|204:28,1,70
120,44,22685,6,0,L|120:208,1,140,2|0,0:0|0:0,0:0:0:0:
120,340,23202,2,0,L|120:176,1,140
40,52,23719,2,0,L|40:336,1,280
136,192,24754,5,2,0:0:0:70:normal-hitwhistle.wav
260,192,25099,1,0,0:0:0:0:
388,192,25443,1,2,0:0:0:70:normal-hitfinish2.wav
256,136,36478,6,0,P|248:80|260:20,2,105,12|0|0,0:0|0:0|0:0,0:0:0:70:normal-hitfinish2.wav
196,196,37168,2,0,L|144:276,1,70,8|0,0:0|0:0,0:0:0:0:
316,196,37512,2,0,L|368:276,1,70
256,348,37857,6,0,L|256:232,2,105,8|0|0,0:0|0:0|0:0,0:0:0:0:
168,292,38547,1,8,0:0:0:0:
340,292,38719,1,0,0:0:0:0:
252,160,38892,1,2,0:0:0:0:
256,352,39064,1,2,0:0:0:0:
340,152,39237,6,0,P|316:96|264:76,2,105,8|0|0,0:0|0:0|0:0,0:0:0:0:
252,160,39926,2,0,L|168:204,1,70,8|0,0:0|0:0,0:0:0:0:
180,296,40271,2,0,L|104:336,1,70
100,224,40616,6,0,B|80:132|80:132|52:148,2,105,8|0|0,0:0|0:0|0:0,0:0:0:0:
168,144,41306,1,8,0:0:0:0:
52,56,41478,1,0,0:0:0:0:
176,16,41650,1,0,0:0:0:0:
32,200,41823,1,0,0:0:0:0:
220,84,41995,6,0,P|284:60|336:52,2,105,8|0|0,0:0|0:0|0:0,0:0:0:0:
296,156,42685,2,0,L|320:236,1,70,8|0,0:0|0:0,0:0:0:0:
196,312,43030,2,0,L|220:224,1,70
300,304,43375,5,8,0:0:0:0:
400,184,43633,1,0,0:0:0:0:
380,19,43892,2,0,P|332:47|296:63,1,70,0|8,0:0|0:0,0:0:0:0:
216,36,44237,2,0,P|172:56|132:92,1,70,0|2,0:0|0:0,0:0:0:0:
239,129,44581,1,2,0:0:0:0:
25,232,44754,6,0,P|72:246|134:224,2,105,8|0|0,0:0|0:0|0:0,0:0:0:0:
80,144,45443,2,0,P|152:112|160:104,1,70,8|0,0:0|0:0,0:0:0:0:
220,44,45788,2,0,L|220:144,1,70
268,208,46133,6,0,L|268:328,2,105,8|0|0,0:0|0:0|0:0,0:0:0:0:
372,196,46823,1,8,0:0:0:0:
432,112,46995,1,0,0:0:0:0:
328,100,47168,1,0,0:0:0:0:
372,196,47340,1,0,0:0:0:0:
440,312,47512,6,0,B|432:308|432:308|432:316|432:316|428:308|428:308|428:316|428:316|424:312|424:312|336:312,1,119.000002269745
288,240,48030,2,0,P|260:276|256:312,1,59.5000011348725
292,372,48375,1,0,0:0:0:0:
244,160,48547,1,0,0:0:0:0:
244,160,48719,1,0,0:0:0:0:
200,80,48892,6,0,B|160:80|160:80|124:88|124:88|64:88,1,119.000002269745
308,116,49581,2,0,B|348:116|348:116|384:108|384:108|444:108,1,119.000002269745
396,24,50099,1,0,0:0:0:0:
426,108,50271,6,0,B|422:116|422:116|430:116|430:116|422:120|422:120|430:120|430:120|426:124|426:124|426:212,1,119.000002269745
344,244,50788,2,0,P|300:264|272:288,1,59.5000011348725
356,332,51133,1,0,0:0:0:0:
236,216,51306,1,0,0:0:0:0:
132,336,51478,1,0,0:0:0:0:
236,216,51650,2,0,P|180:192|96:192,1,119.000002269745
424,188,52340,2,0,P|364:192|310:216,1,119.000002269745
272,136,52857,1,0,0:0:0:0:
176,136,53030,6,0,B|184:132|184:132|184:140|184:140|188:132|188:132|188:140|188:140|192:136|192:136|280:136,1,119.000002269745
224,60,53547,1,0,0:0:0:0:
224,208,53719,1,0,0:0:0:0:
152,40,53892,1,0,0:0:0:0:
304,224,54064,1,0,0:0:0:0:
364,156,54237,1,0,0:0:0:0:
352,60,54409,6,0,P|299:80|270:150,1,119.000002269745
142,280,55099,2,0,P|196:258|223:207,1,119.000002269745
135,189,55616,1,0,0:0:0:0:
54,151,55788,6,0,B|58:159|58:159|50:159|50:159|58:163|58:163|50:163|50:163|54:167|54:167|54:246,1,119.000002269745
50,336,56306,1,0,0:0:0:0:
50,336,56478,1,0,0:0:0:0:
134,307,56650,1,0,0:0:0:0:
195,372,56823,1,0,0:0:0:0:
263,315,56995,1,0,0:0:0:0:
324,379,57168,6,0,P|354:334|324:256,1,119.000002269745
284,104,57857,2,0,P|270:160|301:209,1,119.000002269745
365,145,58375,1,0,0:0:0:0:
431,83,58547,5,0,0:0:0:0:
301,209,59064,1,0,0:0:0:0:
427,258,59581,5,0,0:0:0:0:
308,365,60099,1,0,0:0:0:0:
427,258,60616,1,0,0:0:0:0:
370,312,60788,1,0,0:0:0:0:
308,365,60961,1,0,0:0:0:0:
185,265,61306,5,0,0:0:0:0:
75,55,61823,1,0,0:0:0:0:
33,287,62340,5,0,0:0:0:0:
163,90,62857,1,0,0:0:0:0:
33,287,63375,1,0,0:0:0:0:
99,189,63547,1,0,0:0:0:0:
163,90,63719,1,0,0:0:0:0:
227,173,63892,6,0,L|263:143,2,26.2500010013581
308,240,64237,1,0,0:0:0:0:
159,237,64409,1,0,0:0:0:0:
366,308,64581,1,0,0:0:0:0:
107,303,64754,1,0,0:0:0:0:
197,356,64926,5,0,0:0:0:0:
303,244,65099,1,0,0:0:0:0:
411,130,65271,1,0,0:0:0:0:
420,234,65443,5,0,0:0:0:0:
349,53,65616,1,0,0:0:0:0:
303,244,65788,1,0,0:0:0:0:
369,378,65961,1,0,0:0:0:0:
303,244,66133,1,0,0:0:0:0:
233,109,66306,1,0,0:0:0:0:
200,208,66478,5,0,0:0:0:0:
294,19,66650,1,0,0:0:0:0:
383,212,66823,1,0,0:0:0:0:
396,248,66909,1,0,0:0:0:0:
399,287,66995,1,0,0:0:0:0:
378,320,67081,1,0,0:0:0:0:
343,339,67168,1,0,0:0:0:0:
304,347,67254,1,0,0:0:0:0:
264,346,67340,1,0,0:0:0:0:
231,335,67426,5,0,0:0:0:0:
203,314,67512,1,0,0:0:0:0:
184,291,67599,1,0,0:0:0:0:
175,268,67685,1,0,0:0:0:0:
171,244,67771,1,0,0:0:0:0:
170,225,67857,1,0,0:0:0:0:
170,209,67943,1,0,0:0:0:0:
170,193,68030,1,0,0:0:0:0:
170,182,68116,5,0,0:0:0:0:
170,171,68202,1,0,0:0:0:0:
170,160,68288,1,0,0:0:0:0:
170,149,68375,1,0,0:0:0:0:
170,138,68461,1,0,0:0:0:0:
170,127,68547,1,0,0:0:0:0:
170,116,68633,1,0,0:0:0:0:
170,105,68719,1,0,0:0:0:0:
171,94,68806,5,0,0:0:0:0:
171,83,68892,1,0,0:0:0:0:
170,72,68978,1,0,0:0:0:0:
170,61,69064,1,0,0:0:0:0:
274,98,69237,1,0,0:0:0:0:
79,42,69409,1,0,0:0:0:0:
274,98,69581,6,0,P|330:97|388:127,1,83.9999974365235
300,220,69926,1,0,0:0:0:0:
188,280,70099,1,0,0:0:0:0:
188,280,70185,1,0,0:0:0:0:
188,280,70271,1,0,0:0:0:0:
412,328,70443,5,0,0:0:0:0:
300,220,70616,1,0,0:0:0:0:
412,328,70788,1,0,0:0:0:0:
460,212,70961,2,0,P|424:156|416:80,1,125.999996154785
396,36,71306,2,0,L|308:80,1,83.9999974365235
200,36,71650,1,0,0:0:0:0:
140,144,71823,5,0,0:0:0:0:
140,144,71909,1,0,0:0:0:0:
140,144,71995,2,0,L|80:240,1,83.9999974365235
72,340,72340,2,0,P|132:328|168:296,1,83.9999974365235
228,216,72685,5,0,0:0:0:0:
332,148,72857,1,0,0:0:0:0:
364,148,72943,1,0,0:0:0:0:
396,148,73030,1,0,0:0:0:0:
304,44,73202,5,0,0:0:0:0:
228,216,73375,1,0,0:0:0:0:
488,144,73547,1,0,0:0:0:0:
436,256,73719,2,0,B|400:280|400:280|380:308|380:308|320:348,1,125.999996154785
276,328,74064,2,0,P|224:312|176:312,1,83.9999974365235
156,192,74409,5,0,0:0:0:0:
212,40,74581,1,0,0:0:0:0:
264,196,74754,1,0,0:0:0:0:
120,96,74926,1,0,0:0:0:0:
292,96,75099,6,0,P|352:144|356:244,1,167.999994873047
268,316,75616,1,0,0:0:0:0:
268,316,75702,1,0,0:0:0:0:
268,316,75788,1,0,0:0:0:0:
168,232,75961,5,0,0:0:0:0:
268,316,76133,1,0,0:0:0:0:
364,232,76306,1,0,0:0:0:0:
168,232,76478,2,0,P|136:176|136:88,1,125.999996154785
72,92,76823,2,0,L|72:184,1,83.9999974365235
48,300,77168,5,0,0:0:0:0:
184,312,77340,1,0,0:0:0:0:
184,312,77426,1,0,0:0:0:0:
184,312,77512,2,0,B|220:292|220:292|252:240,1,83.9999974365235
324,160,77857,5,0,0:0:0:0:
400,60,78030,1,0,0:0:0:0:
316,156,78202,1,0,0:0:0:0:
400,60,78375,1,0,0:0:0:0:
400,60,78461,1,0,0:0:0:0:
400,60,78547,1,0,0:0:0:0:
448,208,78719,5,0,0:0:0:0:
300,52,78892,1,0,0:0:0:0:
448,208,79064,1,0,0:0:0:0:
300,52,79237,6,0,L|192:104,1,105
260,156,79581,2,0,L|192:216,1,78.7500030040742
256,268,79926,2,0,L|216:332,1,57.7500017623902
244,336,80271,1,0,0:0:0:0:
352,216,80443,1,0,0:0:0:0:
257,115,80616,6,0,P|332:135|336:243,1,167.999994873047
412,324,81133,2,0,B|440:320|440:320|468:320,2,41.9999987182618
292,292,81478,1,0,0:0:0:0:
192,368,81650,1,0,0:0:0:0:
88,292,81823,1,0,0:0:0:0:
128,172,81995,6,0,B|200:156|160:116|264:92,1,125.999996154785
288,80,82340,2,0,L|372:80,1,83.9999974365235
324,196,82685,1,0,0:0:0:0:
288,300,82857,1,0,0:0:0:0:
436,184,83030,1,0,0:0:0:0:
288,80,83202,1,0,0:0:0:0:
204,208,83375,6,0,P|144:264|36:256,1,167.999994873047
92,144,83892,1,0,0:0:0:0:
108,112,83978,1,0,0:0:0:0:
120,80,84064,1,0,0:0:0:0:
240,44,84237,1,0,0:0:0:0:
48,12,84409,1,0,0:0:0:0:
240,44,84581,1,0,0:0:0:0:
288,160,84754,6,0,L|236:280,1,125.999996154785
276,328,85099,2,0,P|344:344|372:340,1,83.9999974365235
428,240,85443,6,0,L|396:104,1,125.999996154785
356,68,85788,2,0,P|312:48|260:48,1,83.9999974365235
188,136,86133,6,0,P|152:200|172:296,1,167.999994873047
276,232,86650,1,0,0:0:0:0:
276,232,86737,1,0,0:0:0:0:
276,232,86823,1,0,0:0:0:0:
324,116,86995,1,0,0:0:0:0:
264,316,87168,1,0,0:0:0:0:
408,160,87340,1,0,0:0:0:0:
457,275,87512,6,0,L|365:235,1,83.9999974365235
276,232,87857,2,0,L|183:192,1,83.9999974365235
123,97,88202,1,0,0:0:0:0:
106,262,88375,1,0,0:0:0:0:
271,115,88547,2,0,P|319:133|372:135,1,83.9999974365235
429,37,88892,6,0,P|472:104|458:204,1,167.999994873047
391,291,89409,2,0,L|352:354,2,41.9999987182618
286,219,89754,1,0,0:0:0:0:
215,323,89926,1,0,0:0:0:0:
285,218,90099,1,0,0:0:0:0:
211,142,90271,6,0,P|166:166|117:168,1,70
286,219,90616,2,0,P|321:255|344:264,1,52.5000020027161
205,304,90961,2,0,P|181:330|166:337,1,38.5000011749268
290,376,91306,2,0,P|324:397|332:397,1,35
399,300,91650,5,0,0:0:0:0:
430,199,91823,1,0,0:0:0:0:
389,102,91995,1,0,0:0:0:0:
295,52,92168,1,0,0:0:0:0:
190,47,92340,1,0,0:0:0:0:
100,100,92512,1,0,0:0:0:0:
55,195,92685,6,0,L|24:277,1,70
130,324,93030,2,0,L|135:255,1,70
232,296,93375,2,0,L|247:373,1,70
350,375,93719,2,0,L|332:308,1,70
396,224,94064,1,0,0:0:0:0:
436,320,94237,1,0,0:0:0:0:
328,144,94409,6,0,B|296:172|296:172|244:188,1,70
244,80,94754,1,0,0:0:0:0:
140,80,94926,1,0,0:0:0:0:
244,80,95099,1,0,0:0:0:0:
140,80,95271,1,0,0:0:0:0:
68,156,95443,6,0,P|48:192|36:248,2,70
144,228,95961,2,0,P|192:244|240:240,2,70
241,82,96478,2,0,P|232:120|200:156,1,70
132,80,96823,1,0,0:0:0:0:
204,4,96995,1,0,0:0:0:0:
312,160,97168,5,0,0:0:0:0:
396,92,97340,1,0,0:0:0:0:
424,196,97512,1,0,0:0:0:0:
312,160,97685,1,0,0:0:0:0:
396,92,97857,1,0,0:0:0:0:
424,196,98030,1,0,0:0:0:0:
312,160,98202,6,0,L|260:240,1,70
280,324,98547,1,0,0:0:0:0:
196,196,98719,1,0,0:0:0:0:
216,376,98892,1,0,0:0:0:0:
272,220,99064,1,0,0:0:0:0:
136,328,99237,1,0,0:0:0:0:
32,228,99409,1,0,0:0:0:0:
136,328,99581,1,0,0:0:0:0:
32,228,99754,1,0,0:0:0:0:
132,192,99926,6,0,L|196:120,1,70
204,36,100271,1,0,0:0:0:0:
216,256,100443,2,0,L|280:184,1,70
288,100,100788,1,0,0:0:0:0:
300,320,100961,2,0,L|364:248,1,70
401,110,101306,2,0,L|356:164,1,70
132,192,101650,2,0,L|87:138,1,70
153,295,101995,2,0,L|199:347,1,70
260,168,102340,5,0,0:0:0:0:
260,272,102512,1,0,0:0:0:0:
200,348,102685,2,0,P|268:368|340:328,1,140
384,252,103202,1,0,0:0:0:0:
447,159,103375,2,0,P|473:183|484:216,1,70
384,252,103719,5,0,0:0:0:0:
344,144,103892,1,0,0:0:0:0:
128,252,104064,1,0,0:0:0:0:
168,144,104237,1,0,0:0:0:0:
296,256,104409,1,0,0:0:0:0:
344,144,104582,1,0,0:0:0:0:
220,256,104754,5,0,0:0:0:0:
168,144,104927,1,0,0:0:0:0:
256,72,105099,1,0,0:0:0:0:
257,192,105271,1,0,0:0:0:0:
336,56,105443,6,0,P|308:4|208:12,1,140
182,87,105961,1,0,0:0:0:0:
129,177,106133,2,0,P|101:224|70:246,2,70
29,142,106650,5,0,0:0:0:0:
98,315,106823,1,0,0:0:0:0:
192,268,106995,1,0,0:0:0:0:
212,371,107168,1,0,0:0:0:0:
372,281,107340,1,0,0:0:0:0:
192,268,107512,1,0,0:0:0:0:
372,281,107685,1,0,0:0:0:0:
192,268,107857,2,0,P|184:224|208:176,1,70
284,148,108202,6,0,B|308:160|308:160|352:164,2,70
332,56,108719,1,0,0:0:0:0:
428,100,108892,1,0,0:0:0:0:
436,204,109064,1,0,0:0:0:0:
372,281,109237,6,0,L|276:248,1,70
200,272,109581,1,0,0:0:0:0:
51,181,109754,2,0,L|116:208,1,70
200,272,110099,1,0,0:0:0:0:
244,176,110271,1,0,0:0:0:0:
192,76,110443,1,0,0:0:0:0:
264,0,110616,2,0,P|292:48|296:76,1,70
192,76,110961,6,0,L|104:104,1,70
244,176,111306,2,0,L|324:152,1,70
196,268,111650,2,0,L|108:300,1,70
124,196,111995,1,0,0:0:0:0:
328,276,112168,5,0,0:0:0:0:
432,264,112340,2,0,B|424:216|380:184,1,70
396,96,112685,1,0,0:0:0:0:
228,188,112858,1,0,0:0:0:0:
124,196,113030,2,0,P|136:136|152:116,1,70
232,120,113375,6,0,B|212:152|252:152|216:212,1,70
256,192,121995,12,0,124754,0:0:0:0:
96,168,135788,5,0,0:0:0:0:
408,228,136133,1,0,0:0:0:0:
88,248,136478,1,0,0:0:0:0:
400,148,136823,1,0,0:0:0:0:
256,336,137168,5,0,0:0:0:0:
256,56,137512,1,0,0:0:0:0:
256,256,137857,1,0,0:0:0:0:
256,140,138202,1,0,0:0:0:0:
180,208,138375,1,0,0:0:0:0:
108,288,138547,5,0,0:0:0:0:
256,140,138892,1,0,0:0:0:0:
404,288,139237,1,0,0:0:0:0:
256,56,139581,5,0,0:0:0:0:
108,196,139926,1,0,0:0:0:0:
256,348,140271,1,0,0:0:0:0:
408,196,140616,1,0,0:0:0:0:
256,196,140961,1,0,0:0:0:0:
256,196,141306,5,0,0:0:0:0:
356,172,141478,1,0,0:0:0:0:
424,92,141650,1,0,0:0:0:0:
256,196,141823,5,0,0:0:0:0:
156,172,141995,1,0,0:0:0:0:
88,92,142167,1,0,0:0:0:0:
36,184,142340,1,0,0:0:0:0:
104,264,142512,5,0,0:0:0:0:
176,72,142685,1,0,0:0:0:0:
228,264,142857,1,0,0:0:0:0:
228,264,142943,1,0,0:0:0:0:
228,264,143030,1,0,0:0:0:0:
296,76,143202,1,0,0:0:0:0:
356,268,143374,1,0,0:0:0:0:
388,168,143547,1,0,0:0:0:0:
284,184,143719,1,0,0:0:0:0:
180,160,143892,1,0,0:0:0:0:
80,184,144064,1,0,0:0:0:0:
68,208,144150,5,0,0:0:0:0:
76,236,144237,1,0,0:0:0:0:
64,264,144323,1,0,0:0:0:0:
72,292,144409,2,0,L|72:348,2,35
168,316,144754,5,0,0:0:0:0:
188,300,144840,1,0,0:0:0:0:
216,292,144926,1,0,0:0:0:0:
240,276,145012,1,0,0:0:0:0:
268,268,145099,1,0,0:0:0:0:
288,252,145185,1,0,0:0:0:0:
316,244,145271,1,0,0:0:0:0:
340,228,145357,1,0,0:0:0:0:
368,224,145443,1,0,0:0:0:0:
416,104,145702,5,0,0:0:0:0:
248,268,145961,1,0,0:0:0:0:
96,104,146133,1,0,0:0:0:0:
248,268,146392,1,0,0:0:0:0:
416,104,146650,1,0,0:0:0:0:
252,20,146823,6,0,B|284:100|216:100|256:192,1,167.999994873047
360,252,147340,1,0,0:0:0:0:
360,252,147426,1,0,0:0:0:0:
360,252,147512,1,0,0:0:0:0:
452,164,147685,1,0,0:0:0:0:
476,288,147857,1,0,0:0:0:0:
356,248,148030,1,0,0:0:0:0:
236,216,148202,6,0,P|184:272|116:264,1,125.999996154785
80,252,148547,2,0,L|44:160,1,83.9999974365235
164,56,148892,1,0,0:0:0:0:
152,184,149064,1,0,0:0:0:0:
164,56,149237,2,0,P|240:76|336:48,1,167.999994873047
400,156,149754,6,0,L|344:232,1,83.9999974365235
268,320,150099,1,0,0:0:0:0:
232,328,150185,1,0,0:0:0:0:
196,316,150271,1,0,0:0:0:0:
144,208,150443,5,0,0:0:0:0:
96,344,150616,1,0,0:0:0:0:
92,136,150788,1,0,0:0:0:0:
272,168,150961,2,0,P|288:88|320:56,1,125.999996154785
344,84,151306,2,0,L|384:172,1,83.9999974365235
220,248,151650,2,0,P|204:328|172:360,1,125.999996154785
148,332,151995,2,0,L|108:244,1,83.9999974365235
180,148,152340,5,0,0:0:0:0:
296,192,152512,1,0,0:0:0:0:
412,144,152685,1,0,0:0:0:0:
296,280,152857,1,0,0:0:0:0:
296,280,152943,1,0,0:0:0:0:
296,280,153030,1,0,0:0:0:0:
420,272,153202,2,0,P|416:324|376:368,1,83.9999974365235
172,288,153547,2,0,P|176:236|192:212,1,41.9999987182618
192,188,153719,6,0,P|168:128|60:88,1,167.999994873047
254,249,154237,1,0,0:0:0:0:
337,276,154409,2,0,P|385:280|437:264,2,83.9999974365235
371,154,154926,5,0,0:0:0:0:
452,57,155099,2,0,L|393:125,1,83.9999974365235
309,29,155443,1,0,0:0:0:0:
250,140,155616,2,0,L|191:182,2,41.9999987182618
158,52,155961,5,0,0:0:0:0:
243,236,156133,1,0,0:0:0:0:
158,52,156306,1,0,0:0:0:0:
243,236,156478,2,0,P|223:303|186:332,1,83.9999974365235
83,251,156823,2,0,P|136:240|167:252,1,83.9999974365235
169,386,157168,2,0,P|140:354|128:305,1,83.9999974365235
9,274,157512,1,0,0:0:0:0:
9,274,157685,1,0,0:0:0:0:
180,185,157857,6,0,P|137:192|30:136,1,167.999994873047
139,67,158375,1,0,0:0:0:0:
139,67,158461,1,0,0:0:0:0:
139,67,158547,1,0,0:0:0:0:
259,31,158719,1,0,0:0:0:0:
285,208,158892,1,0,0:0:0:0:
139,67,159064,1,0,0:0:0:0:
255,115,159237,6,0,P|314:103|394:121,1,125.999996154785
408,169,159581,2,0,L|423:282,1,83.9999974365235
310,316,159926,1,0,0:0:0:0:
430,355,160099,1,0,0:0:0:0:
257,247,160271,2,0,P|224:304|238:351,2,83.9999974365235
145,187,160788,5,0,0:0:0:0:
145,187,160961,1,0,0:0:0:0:
238,101,161133,1,0,0:0:0:0:
271,102,161219,1,0,0:0:0:0:
304,102,161305,1,0,0:0:0:0:
372,208,161478,1,0,0:0:0:0:
271,22,161650,1,0,0:0:0:0:
145,187,161822,1,0,0:0:0:0:
171,310,161995,6,0,L|114:209,1,83.9999974365235
382,236,162340,2,0,L|341:310,1,83.9999974365235
167,170,162685,2,0,L|110:69,1,83.9999974365235
378,96,163030,2,0,L|336:169,1,83.9999974365235
256,72,163375,6,0,B|236:152|276:152|252:238,1,167.999994873047
160,328,163892,2,0,L|112:360,2,41.9999987182618
280,360,164237,1,0,0:0:0:0:
368,272,164409,1,0,0:0:0:0:
484,324,164581,1,0,0:0:0:0:
368,272,164754,6,0,P|396:200|396:152,1,125.999996154785
348,112,165099,2,0,P|280:148|240:144,1,83.9999974365235
148,160,165443,2,0,P|120:232|120:280,1,125.999996154785
168,320,165788,2,0,P|236:284|276:288,1,83.9999974365235
300,380,166133,6,0,P|348:316|328:216,1,167.999994873047
260,132,166650,1,0,0:0:0:0:
260,132,166737,1,0,0:0:0:0:
260,132,166823,1,0,0:0:0:0:
156,204,166995,1,0,0:0:0:0:
324,84,167168,1,0,0:0:0:0:
156,204,167340,1,0,0:0:0:0:
188,324,167512,6,0,L|256:236,1,83.9999974365235
324,84,167857,2,0,L|256:172,1,83.9999974365235
288,328,168202,2,0,L|348:240,1,83.9999974365235
232,80,168547,2,0,L|176:156,1,83.9999974365235
56,164,168892,5,0,0:0:0:0:
68,288,169064,1,0,0:0:0:0:
180,344,169237,1,0,0:0:0:0:
284,276,169409,1,0,0:0:0:0:
236,160,169581,1,0,0:0:0:0:
304,52,169754,1,0,0:0:0:0:
236,160,169926,6,0,L|152:132,1,83.9999974365235
284,276,170271,2,0,L|368:304,1,83.9999974365235
456,216,170616,1,0,0:0:0:0:
444,92,170788,1,0,0:0:0:0:
456,216,170961,1,0,0:0:0:0:
344,160,171133,1,0,0:0:0:0:
324,168,171306,1,0,0:0:0:0:
304,172,171478,1,0,0:0:0:0:
284,172,171650,2,0,P|244:212|124:180,1,167.999994873047
