osu file format v14

[General]
AudioFilename: Feint - Face Down (Cut Ver.).mp3
AudioLeadIn: 0
PreviewTime: 65645
Countdown: 0
SampleSet: Soft
StackLeniency: 0.8
Mode: 0
LetterboxInBreaks: 0
WidescreenStoryboard: 0

[Editor]
Bookmarks: 30416,31273
DistanceSpacing: 1
BeatDivisor: 4
GridSize: 4
TimelineZoom: 1

[Metadata]
Title:Face Down
TitleUnicode:Face Down
Artist:Feint
ArtistUnicode:Feint
Creator:phaZ
Version:Stjpa's Easy
Source:
Tags:Stjpa Bonsai dnb cut
BeatmapID:801442
BeatmapSetID:240329

[Difficulty]
HPDrainRate:2
CircleSize:2.5
OverallDifficulty:2
ApproachRate:3
SliderMultiplier:0.85
SliderTickRate:1

[Events]
//Background and Video events
0,0,"bg.png",0,0
//Break Periods
2,44330,53663
//Storyboard Layer 0 (Background)
//Storyboard Layer 1 (Fail)
//Storyboard Layer 2 (Pass)
//Storyboard Layer 3 (Foreground)
//Storyboard Sound Samples

[TimingPoints]
246,342.857142857143,4,2,1,50,1,0
22188,-100,4,2,1,50,0,0
55103,-100,4,1,2,50,0,0
64703,-100,4,1,1,60,0,0
66078,342.857142857143,4,1,1,75,1,1
85278,-100,4,1,1,75,0,0
88020,-100,4,1,2,75,0,1
107220,-100,4,1,2,75,0,0
109963,-100,4,2,1,50,0,1
110049,-100,4,2,1,50,0,0
118363,-100,4,2,1,35,0,0

[Colours]
Combo1 : 240,244,62
Combo2 : 64,252,31
Combo3 : 36,194,255
Combo4 : 30,120,187
Combo5 : 226,253,187

[HitObjects]
84,144,22188,5,4,0:2:0:0:
136,212,22531,2,0,P|220:232|264:204,1,127.5,8|0,0:0|0:0,0:0:0:0:
300,144,23388,2,0,P|348:104|410:106,2,127.5,0|8|0,0:0|0:0|0:0,0:0:0:0:
348,216,24760,1,0,0:0:0:0:
364,344,25274,6,0,P|312:348|276:336,1,85,8|0,0:0|0:0,0:0:0:0:
196,340,25960,1,8,0:0:0:0:
160,264,26303,2,0,P|148:228|111:199,1,85,0|8,0:0|0:0,0:0:0:0:
84,120,26988,1,0,0:0:0:0:
120,44,27331,1,8,0:0:0:0:
204,28,27674,6,0,L|272:80,1,85,0|8,0:0|0:0,0:0:0:0:
356,84,28360,2,0,L|332:184,1,85,0|8,0:0|0:0,0:0:0:0:
364,248,29045,1,0,0:0:0:0:
316,320,29388,2,0,P|253:316|158:256,1,170,8|8,0:0|0:0,0:0:0:0:
52,196,30588,6,0,L|4:276,2,85
116,140,31617,2,0,P|204:124|256:136,2,127.5,0|8|0,0:0|0:0|0:0,0:0:0:0:
112,224,32988,1,0,0:0:0:0:
212,304,33503,6,0,P|275:310|336:294,1,127.5,8|0,0:0|0:0,0:0:0:0:
416,260,34359,2,0,P|456:308|444:380,2,127.5,0|8|0,0:0|0:0|0:0,0:0:0:0:
356,200,35731,1,0,0:0:0:0:
388,76,36245,6,0,L|292:60,1,85,8|0,0:0|0:0,0:0:0:0:
224,96,36930,1,8,0:0:0:0:
160,40,37274,2,0,P|112:32|68:56,1,85,0|8,0:0|0:0,0:0:0:0:
36,120,37959,1,0,0:0:0:0:
4,200,38302,1,8,0:0:0:0:
80,240,38645,6,0,P|185:208|124:116,1,255,2|8,0:0|0:0,0:0:0:0:
76,44,40017,2,0,B|160:8|252:68|272:156,1,255,2|8,0:0|0:0,0:0:0:0:
260,236,41388,2,0,P|326:323|391:234,1,255,2|8,0:0|0:0,0:0:0:0:
372,152,42759,2,0,P|437:64|502:153,1,255,2|8,0:0|3:2,0:0:0:0:
476,232,44130,5,4,1:2:0:0:
80,188,55103,6,0,L|124:116,1,85,4|4,1:3|0:3,0:0:0:0:
124,32,55788,2,0,L|209:32,1,85,4|4,0:3|0:3,0:0:0:0:
240,112,56474,2,0,P|288:68|296:36,2,85,4|4|4,0:3|0:3|0:3,0:0:0:0:
200,188,57502,1,4,0:3:0:0:
128,236,57845,6,0,L|192:304,1,85,4|4,0:3|0:3,0:0:0:0:
236,368,58531,2,0,L|324:336,1,85,4|4,0:3|0:3,0:0:0:0:
392,300,59217,2,0,P|360:264|292:264,2,85,4|4|4,0:3|0:3|0:3,0:0:0:0:
448,364,60245,1,4,0:3:0:0:
480,284,60588,6,0,L|464:176,1,85,4|4,0:3|0:3,0:0:0:0:
384,196,61274,2,0,L|340:95,1,85,4|4,0:3|0:3,0:0:0:0:
264,128,61960,2,0,L|196:42,1,85,4|4,0:3|0:3,0:0:0:0:
128,80,62646,2,0,L|40:14,1,85,4|4,0:3|0:3,0:0:0:0:
20,104,63331,6,0,P|4:252|152:344,1,340,4|4,0:3|0:3,0:0:0:0:
276,120,65730,5,8,1:0:0:0:
212,64,66078,6,0,P|168:44|120:44,2,85,4|8|0,0:2|0:0|0:0,0:0:0:0:
276,120,67107,1,8,0:0:0:0:
332,184,67449,2,0,P|396:184|420:168,1,85,0|8,0:0|0:0,0:0:0:0:
444,96,68135,2,0,P|380:96|356:112,1,85,0|8,0:0|0:0,0:0:0:0:
276,120,68820,5,0,0:0:0:0:
200,80,69163,2,0,P|112:96|84:180,1,170,8|8,0:0|0:0,0:0:0:0:
32,232,70192,2,0,L|84:312,1,85,0|8,0:0|0:0,0:0:0:0:
156,272,70878,2,0,L|216:348,1,85,0|8,0:0|0:0,0:0:0:0:
284,300,71564,6,0,P|320:328|368:332,2,85,4|8|0,0:2|0:0|0:0,0:0:0:0:
268,216,72592,1,8,0:0:0:0:
344,176,72935,2,0,L|392:100,1,85,0|8,0:0|0:0,0:0:0:0:
400,20,73621,2,0,P|448:40|468:68,1,85,0|8,0:0|0:0,0:0:0:0:
460,152,74307,5,0,0:0:0:0:
416,224,74649,2,0,L|452:320,2,85,8|0|8,0:0|0:0|0:0,0:0:0:0:
344,176,75678,2,0,L|376:88,2,85,0|8|0,0:0|0:0|0:0,0:0:0:0:
284,236,76707,1,8,0:0:0:0:
212,188,77049,6,0,P|208:152|236:96,2,85,4|8|0,0:2|0:0|0:0,0:0:0:0:
284,236,78078,1,8,0:0:0:0:
304,320,78421,2,0,P|268:336|212:324,1,85,0|8,0:0|0:0,0:0:0:0:
140,332,79107,2,0,L|120:244,1,85,0|8,0:0|0:0,0:0:0:0:
60,192,79792,5,0,0:0:0:0:
116,128,80135,2,0,P|196:96|280:136,1,170,8|8,0:0|0:0,0:0:0:0:
332,184,81163,2,0,L|284:260,1,85,0|8,0:0|0:0,0:0:0:0:
208,228,81849,2,0,L|160:304,1,85,0|8,0:0|0:0,0:0:0:0:
84,272,82535,6,0,L|36:348,2,85,4|8|0,0:2|0:0|0:0,0:0:0:0:
128,200,83564,1,8,0:0:0:0:
72,136,83907,2,0,P|120:116|168:124,1,85,0|8,0:0|0:0,0:0:0:0:
232,148,84592,2,0,L|224:244,1,85,0|8,0:0|0:0,0:0:0:0:
160,288,85278,6,0,L|212:364,1,85
280,312,85964,2,0,L|364:368,1,85
420,308,86649,6,0,P|416:180|304:140,1,255,0|8,0:0|0:0,0:0:0:0:
256,200,88021,6,0,P|264:240|304:284,2,85,4|8|0,0:0|0:0|0:0,0:0:0:0:
208,132,89049,1,8,0:0:0:0:
156,64,89392,2,0,P|224:48|256:64,1,85,0|8,0:0|0:0,0:0:0:0:
288,120,90078,2,0,P|328:140|368:136,1,85,0|8,0:0|0:0,0:0:0:0:
444,100,90763,5,0,0:0:0:0:
476,180,91106,2,0,P|452:256|368:300,1,170,8|8,0:0|0:0,0:0:0:0:
308,348,92135,2,0,L|260:272,1,85,0|8,0:0|0:0,0:0:0:0:
180,292,92820,2,0,L|132:216,1,85,0|8,0:0|0:0,0:0:0:0:
80,156,93506,6,0,P|36:152|0:112,2,85,0|8|0,0:0|0:0|0:0,0:0:0:0:
164,140,94535,1,8,0:0:0:0:
232,92,94878,2,0,P|280:68|316:72,1,85,0|8,0:0|0:0,0:0:0:0:
380,120,95564,2,0,P|352:148|292:152,1,85,0|8,0:0|0:0,0:0:0:0:
228,180,96249,5,0,0:0:0:0:
176,248,96592,2,0,L|100:188,2,85,8|0|8,0:0|0:0|0:0,0:0:0:0:
224,320,97621,2,0,L|128:352,2,85,0|8|0,0:0|0:0|0:0,0:0:0:0:
284,260,98649,1,8,0:0:0:0:
368,276,98992,5,4,0:0:0:0:
436,224,99335,2,0,P|432:140|364:92,1,170,8|8,0:0|0:0,0:0:0:0:
300,40,100363,2,0,L|228:100,1,85,0|8,0:0|0:0,0:0:0:0:
164,48,101049,2,0,L|92:108,1,85,0|8,0:0|0:0,0:0:0:0:
96,188,101735,6,0,P|148:196|192:176,1,85,0|8,0:0|0:0,0:0:0:0:
264,184,102421,1,0,0:0:0:0:
308,112,102764,1,8,0:0:0:0:
380,68,103106,2,0,P|412:112|412:156,1,85,0|8,0:0|0:0,0:0:0:0:
400,224,103792,2,0,P|356:256|312:256,1,85,0|8,0:0|0:0,0:0:0:0:
252,296,104478,5,4,0:0:0:0:
180,340,104820,2,0,P|100:352|48:272,1,170,8|8,0:0|0:0,0:0:0:0:
72,208,105849,2,0,L|140:156,1,85,0|8,0:0|0:0,0:0:0:0:
208,208,106535,2,0,L|276:156,1,85,0|8,0:0|0:0,0:0:0:0:
360,144,107221,6,0,L|356:240,1,85
420,288,107907,2,0,L|340:340,1,85
264,324,108592,6,0,P|144:300|144:112,1,340,0|4,0:0|1:0,0:0:0:0:
356,104,110820,5,0,0:0:0:0:
436,132,111163,2,0,P|428:60|376:20,2,127.5,0|8|0,0:0|0:0|0:0,0:0:0:0:
392,204,112535,1,0,0:0:0:0:
312,300,113049,6,0,P|276:328|220:332,1,85,8|0,0:0|0:0,0:0:0:0:
168,288,113735,1,8,0:0:0:0:
88,264,114078,2,0,P|76:212|92:168,1,85,0|8,0:0|0:0,0:0:0:0:
160,140,114764,1,0,0:0:0:0:
184,60,115107,1,8,0:0:0:0:
352,56,115792,6,0,P|356:128|316:176,1,127.5,8|0,0:0|0:0,0:0:0:0:
288,248,116649,2,0,P|208:272|160:244,2,127.5,0|8|0,0:0|0:0|0:0,0:0:0:0:
324,170,118020,1,0,0:0:0:0:
376,104,118364,5,0,0:0:0:0:
324,36,118707,1,0,0:0:0:0:
272,104,119049,1,0,0:0:0:0:
220,36,119392,1,0,0:0:0:0:
