osu file format v14

[General]
AudioFilename: Feint - Face Down (Cut Ver.).mp3
AudioLeadIn: 0
PreviewTime: 65645
Countdown: 0
SampleSet: Normal
StackLeniency: 0.6
Mode: 0
LetterboxInBreaks: 0
WidescreenStoryboard: 1

[Editor]
Bookmarks: 31791,42762,109619,112707
DistanceSpacing: 0.5
BeatDivisor: 4
GridSize: 4
TimelineZoom: 1.7

[Metadata]
Title:Face Down
TitleUnicode:Face Down
Artist:Feint
ArtistUnicode:Feint
Creator:phaZ
Version:Hard
Source:
Tags:Stjpa Bonsai dnb cut
BeatmapID:733049
BeatmapSetID:240329

[Difficulty]
HPDrainRate:5
CircleSize:4
OverallDifficulty:6.3
ApproachRate:7.9
SliderMultiplier:1.55
SliderTickRate:1

[Events]
//Background and Video events
0,0,"bg.png",0,0
//Break Periods
//Storyboard Layer 0 (Background)
//Storyboard Layer 1 (Fail)
//Storyboard Layer 2 (Pass)
//Storyboard Layer 3 (Foreground)
//Storyboard Sound Samples

[TimingPoints]
246,342.857142857143,4,2,98,15,1,0
16703,-400,4,2,99,15,0,0
17388,-400,4,2,98,15,0,0
17431,-400,4,2,99,15,0,0
18074,-400,4,1,0,15,0,0
18760,-400,4,2,98,15,0,0
18803,-400,4,1,0,15,0,0
19446,-400,4,2,99,15,0,0
20131,-400,4,2,98,15,0,0
20174,-400,4,2,99,15,0,0
20817,-400,4,2,99,15,0,0
21503,-400,4,2,98,15,0,0
21546,-400,4,2,0,15,0,0
22188,-133.333333333333,4,2,1,30,0,0
34360,-133.333333333333,4,2,1,30,0,0
43360,-133.333333333333,4,2,1,8,0,0
43446,-123.456790123457,4,2,1,40,0,0
44130,-114.942528735632,4,2,2,50,0,0
44816,-114.942528735632,4,2,1,25,0,0
44988,-114.942528735632,4,2,2,50,0,0
54417,-114.942528735632,4,1,1,50,0,0
64702,-114.942528735632,4,1,0,50,0,0
65045,-114.942528735632,4,1,1,75,0,0
65730,-66.6666666666667,4,1,1,90,0,0
66078,342.857142857143,4,1,1,80,1,1
85278,-100,4,1,1,80,0,0
88020,-100,4,1,2,70,0,1
107220,-100,4,1,2,70,0,0
109963,-133.333333333333,4,1,1,70,0,1
110049,-133.333333333333,4,2,1,20,0,0

[Colours]
Combo1 : 240,244,62
Combo2 : 64,252,31
Combo3 : 36,194,255
Combo4 : 30,120,187
Combo5 : 226,253,187

[HitObjects]
80,65,16703,6,0,P|54:94|39:130,1,77.5,2|0,0:0|0:0,0:0:0:0:
130,215,18074,2,0,P|165:199|195:174,1,77.5,2|0,2:0|0:0,0:0:0:0:
311,222,19446,2,0,P|314:261|328:297,1,77.5,2|0,0:0|0:0,0:0:0:0:
453,300,20817,2,0,P|467:265|469:226,1,77.5,2|0,0:0|0:0,0:0:0:0:
466,34,22189,6,0,P|476:62|474:91,1,58.1250022172929,4|0,0:0|0:0,0:0:0:0:
405,73,22531,2,0,P|348:62|296:86,1,116.250004434586,2|0,0:3|0:0,0:0:0:0:
266,150,23045,2,0,L|266:207,1,58.1250022172929,4|8,3:0|0:0,0:0:0:0:
194,203,23388,1,0,3:0:0:0:
194,203,23559,6,0,L|194:146,1,58.1250022172929,4|0,0:3|0:0,0:0:0:0:
150,89,23903,2,0,P|93:97|61:143,1,116.250004434586,8|0,3:2|0:0,0:0:0:0:
110,195,24416,1,4,0:3:0:0:
70,253,24588,1,8,0:0:0:0:
121,301,24759,1,0,0:0:0:0:
88,362,24931,6,0,P|144:366|185:328,1,116.250004434586,4|8,0:3|0:0,0:0:0:0:
241,286,25445,2,0,P|282:325|338:320,1,116.250004434586,0|4,3:0|0:3,0:0:0:0:
360,252,25960,2,0,P|319:214|263:218,2,116.250004434586,8|0|8,3:2|3:0|0:0,0:0:0:0:
430,264,26817,2,0,P|469:222|464:166,1,116.250004434586,0|4,3:0|0:3,0:0:0:0:
416,115,27331,1,8,3:2:0:0:
416,115,27674,5,4,0:3:0:0:
299,191,28017,2,0,P|242:193|194:161,1,116.250004434586,8|0,3:2|0:0,0:0:0:0:
186,93,28531,2,0,L|206:38,1,58.1250022172929,4|8,0:3|0:0,0:0:0:0:
135,35,28874,6,0,B|113:89|113:89|70:126,1,116.250004434586,0|8,3:0|0:0,0:0:0:0:
80,248,29388,2,0,B|100:193|100:193|146:155|146:155|202:144,1,174.375006651879,8|4,3:2|0:3,0:0:0:0:
236,208,30074,2,0,L|180:220,2,58.1250022172929,8|0|4,0:0|3:0|0:3,0:0:0:0:
280,264,30588,6,0,L|392:240,2,116.250004434586,0|0|0,3:0|3:0|3:0,0:0:0:0:
146,243,31617,2,0,P|94:218|78:164,1,116.250004434586,0|4,3:0|0:3,0:0:0:0:
132,119,32131,2,0,P|183:142|199:196,1,116.250004434586,8|0,3:2|0:0,0:0:0:0:
208,268,32645,1,4,3:0:0:0:
277,275,32816,1,8,0:0:0:0:
237,334,32988,1,0,3:0:0:0:
307,341,33159,6,0,P|334:348|358:365,1,58.1250022172929,4|0,0:3|0:0,0:0:0:0:
393,304,33503,2,0,P|446:283|481:237,1,116.250004434586,8|0,3:2|0:0,0:0:0:0:
470,170,34016,2,0,L|441:108,1,58.1250022172929,4|8,3:0|0:0,0:0:0:0:
376,130,34359,1,0,0:0:0:0:
376,130,34531,6,0,L|400:181,1,58.1250022172929,4|0,0:3|0:0,0:0:0:0:
314,97,34874,2,0,B|252:104|274:137|212:144,1,116.250004434586,8|0,3:2|0:0,0:0:0:0:
212,75,35388,1,4,0:3:0:0:
150,108,35559,1,8,0:0:0:0:
150,38,35731,1,0,3:0:0:0:
80,28,35903,6,0,L|61:141,1,116.250004434586,4|8,0:3|0:0,0:0:0:0:
127,170,36417,2,0,L|109:284,1,116.250004434586,0|4,3:0|0:3,0:0:0:0:
161,331,36931,2,0,P|110:355|59:334,2,116.250004434586,8|0|8,3:2|3:0|0:0,0:0:0:0:
219,290,37788,2,0,P|270:316|324:299,1,116.250004434586,0|4,3:0|0:3,0:0:0:0:
365,235,38302,1,8,3:2:0:0:
365,235,38645,6,0,L|388:176,1,58.1250022172929,2|0,0:0|0:0,0:0:0:0:
388,108,38988,2,0,P|341:47|302:40,1,116.250004434586,8|0,3:2|0:0,0:0:0:0:
232,48,39502,2,0,L|215:103,1,58.1250022172929,4|8,3:0|0:0,0:0:0:0:
144,80,39845,1,0,3:0:0:0:
144,80,40016,6,0,L|159:23,1,58.1250022172929,2|0,0:0|0:0,0:0:0:0:
117,151,40359,1,8,0:0:0:0:
117,151,40531,2,0,L|89:160,2,29.0625011086464
175,192,40874,1,4,0:3:0:0:
236,223,41045,2,0,P|266:222|292:211,2,58.1250022172929,8|0|2,0:0|3:0|0:0,0:0:0:0:
179,264,41560,6,0,L|110:357,2,116.250004434586,0|0|4,3:0|3:0|3:0,0:0:0:0:
234,111,42588,1,0,3:0:0:0:
234,111,42760,2,0,P|292:108|332:151,1,116.250004434586,2|8,0:0|3:2,0:0:0:0:
343,216,43274,2,0,L|348:244,2,29.0625011086464,4|0|0,0:3|0:0|0:0,0:0:0:0:
398,170,43617,2,0,L|409:94,2,62.7750015325928,4|8|4,0:3|0:0|0:3,0:0:0:0:
458,208,44131,6,0,P|402:241|342:215,1,134.850001131706,6|10,1:2|0:0,0:0:0:0:
194,275,44816,1,2,1:2:0:0:
183,199,44988,1,2,1:2:0:0:
254,227,45159,1,8,0:0:0:0:
194,275,45331,6,0,P|134:260|106:193,1,134.850001131706,2|0,1:2|0:0,0:0:0:0:
123,122,45845,2,0,B|167:106|167:106|207:118|207:118|251:102,1,134.850001131706,10|0,3:2|0:0,0:0:0:0:
324,112,46359,5,0,1:0:0:0:
394,140,46531,1,8,1:2:0:0:
332,184,46702,1,0,0:0:0:0:
401,209,46874,6,0,P|432:199|455:174,1,67.4250005658531,2|0,1:2|0:0,0:0:0:0:
394,140,47216,2,0,P|406:110|401:76,1,67.4250005658531,10|0,0:0|1:0,0:0:0:0:
358,17,47559,1,2,0:0:0:0:
285,24,47731,2,0,L|217:17,2,67.4250005658531,2|8|2,0:0|1:2|0:0,0:0:0:0:
325,86,48245,6,0,L|286:214,1,134.850001131706,0|10,1:0|0:0,0:0:0:0:
211,214,48760,2,0,L|172:85,1,134.850001131706,0|2,1:0|0:0,0:0:0:0:
113,38,49274,1,10,1:2:0:0:
0,135,49617,6,0,P|60:184|56:246,1,134.850001131706,2|10,1:2|1:2,0:0:0:0:
193,280,50302,1,2,2:2:0:0:
208,205,50474,1,2,2:2:0:0:
265,254,50645,1,8,2:0:0:0:
265,254,50817,6,0,P|283:191|243:139,1,134.850001131706,2|0,1:2|0:0,0:0:0:0:
188,91,51331,2,0,P|168:152|207:204,1,134.850001131706,10|0,1:2|0:0,0:0:0:0:
244,140,51845,5,2,1:2:0:0:
244,140,52017,2,0,P|260:110|259:77,2,67.4250005658531,10|2|0,0:0|1:2|1:0,0:0:0:0:
208,205,52531,2,0,P|142:226|100:283,2,134.850001131706,2|2|2,1:2|1:2|1:2,0:0:0:0:
320,304,53560,2,0,P|385:290|423:237,1,134.850001131706,2|0,1:2|0:0,0:0:0:0:
430,163,54074,1,8,0:0:0:0:
375,115,54245,5,4,0:3:0:0:
375,115,54331,1,4,0:3:0:0:
375,115,54416,2,0,L|309:132,1,67.4250005658531,8|4,0:0|0:3,0:0:0:0:
281,46,54759,2,0,L|346:28,1,67.4250005658531,8|4,0:0|0:3,0:0:0:0:
229,112,55103,6,0,P|185:161|121:174,1,134.850001131706,4|4,0:3|0:3,0:0:0:0:
120,174,55788,1,0,0:3:0:0:
84,108,55960,2,0,L|74:41,2,67.4250005658531,0|4|0,0:0|0:3|0:0,0:0:0:0:
17,140,56474,6,0,L|35:273,1,134.850001131706,4|4,0:3|0:3,0:0:0:0:
111,328,56988,2,0,L|129:194,1,134.850001131706
153,124,57502,1,4,0:3:0:0:
214,84,57674,1,0,0:0:0:0:
287,89,57845,6,0,P|319:98|346:118,1,67.4250005658531,4|0,0:3|0:0,0:0:0:0:
295,173,58188,2,0,P|322:192|354:202,1,67.4250005658531,4|0,0:3|0:0,0:0:0:0:
429,192,58531,1,4,0:3:0:0:
416,264,58703,2,0,P|352:285|287:269,1,134.850001131706
214,293,59216,6,0,P|185:277|159:256,1,67.4250005658531,4|0,0:3|0:0,0:0:0:0:
84,269,59559,2,0,P|68:243|54:208,1,67.4250005658531,4|0,0:3|0:0,0:0:0:0:
73,136,59902,1,4,0:3:0:0:
141,161,60074,1,0,0:0:0:0:
131,87,60245,1,4,0:3:0:0:
131,87,60588,6,4,P|164:77|197:77,1,67.4250005658531,4|4,0:3|0:3,0:3:0:0:
285,161,60931,2,4,P|253:168|219:169,1,67.4250005658531,4|4,0:3|0:3,0:3:0:0:
284,66,61274,2,4,P|316:55|349:56,1,67.4250005658531,4|4,0:3|0:3,0:3:0:0:
446,132,61616,1,0,0:0:0:0:
455,227,61788,6,4,P|481:249|512:264,2,67.4250005658531,4|4|4,3:3|3:3|3:3,3:3:0:0:
328,252,62303,2,4,P|305:277|291:307,2,67.4250005658531,4|4|4,3:3|0:3|3:3,0:3:0:0:
364,128,62816,1,4,0:3:0:0:
284,175,62988,1,4,0:3:0:0:
282,82,63159,1,4,0:3:0:0:
282,82,63331,6,4,L|278:41,3,33.7125002829266,4|4|4|4,0:3|0:3|0:3|0:3,0:3:0:0:
242,69,63674,2,4,L|226:33,3,33.7125002829266,4|4|4|4,0:3|0:3|0:3|0:3,0:3:0:0:
202,93,64017,2,4,L|198:52,3,33.7125002829266,4|4|4|4,0:3|0:3|0:3|0:3,0:3:0:0:
162,80,64360,2,4,L|146:44,3,33.7125002829266,4|4|4|4,0:3|0:3|0:3|0:3,0:3:0:0:
126,105,64703,5,4,0:3:0:0:
102,205,65046,1,0,0:0:0:0:
3,180,65388,1,0,0:0:0:0:
23,80,65731,1,4,0:2:0:0:
23,80,66078,6,0,L|47:232,1,155,4|0,0:3|0:0,0:0:0:0:
160,356,66764,1,4,0:3:0:0:
183,280,66935,1,0,0:0:0:0:
256,248,67106,1,8,0:0:0:0:
332,264,67278,1,0,0:0:0:0:
344,268,67363,1,0,0:0:0:0:
356,272,67449,2,0,P|384:245|398:209,1,77.5,4|0,0:3|0:0,0:0:0:0:
405,126,67792,6,0,B|333:89|333:89|286:31,1,155,8|0,0:0|0:0,0:0:0:0:
286,31,68306,1,4,0:3:0:0:
241,97,68478,2,0,L|291:159,1,77.5,8|0,0:0|0:0,0:0:0:0:
347,221,68821,2,0,P|313:289|243:317,2,155,4|8|0,0:3|0:0|0:0,0:0:0:0:
317,140,69678,1,4,0:3:0:0:
402,159,69849,2,0,P|424:190|428:227,1,77.5,8|0,0:1|0:0,0:0:0:0:
371,298,70192,6,0,P|333:302|297:286,1,77.5,4|0,0:3|0:0,0:0:0:0:
222,245,70535,2,0,P|146:253|83:296,1,155,8|0,0:0|0:0,0:0:0:0:
37,235,71049,1,4,0:3:0:0:
95,184,71221,1,8,0:0:0:0:
51,114,71392,1,0,0:0:0:0:
51,114,71478,1,0,0:0:0:0:
51,114,71564,6,0,L|65:268,1,155,4|8,0:3|0:0,0:0:0:0:
160,128,72249,1,0,0:0:0:0:
220,76,72421,1,4,0:3:0:0:
300,80,72592,1,0,0:0:0:0:
348,142,72763,1,0,0:0:0:0:
354,153,72849,1,0,0:0:0:0:
360,164,72934,2,0,P|350:201|354:239,1,77.5,4|0,0:3|0:0,0:0:0:0:
441,264,73278,6,0,B|441:213|441:213|460:162|460:162|460:112,1,155,8|0,0:0|0:0,0:0:0:0:
460,112,73792,1,4,0:3:0:0:
380,84,73964,2,0,L|380:6,1,77.5,8|0,0:0|0:0,0:0:0:0:
294,104,74306,5,4,0:3:0:0:
248,176,74478,2,0,P|264:249|319:302,2,155,0|0|4,0:0|0:0|0:3,0:0:0:0:
294,104,75335,1,8,0:0:0:0:
274,17,75506,2,0,B|234:28|234:28|183:75|183:75|140:85,1,155,0|4,0:0|0:3,0:0:0:0:
168,159,76021,2,0,B|125:169|125:169|74:216|74:216|34:227,1,155,8|0,0:0|0:0,0:0:0:0:
51,304,76535,1,4,0:3:0:0:
123,336,76706,2,0,P|163:339|198:325,1,77.5,8|0,0:0|0:0,0:0:0:0:
241,261,77049,6,0,L|419:221,1,155,4|8,0:3|0:0,0:0:0:0:
308,36,77735,1,0,0:0:0:0:
236,0,77906,1,0,0:0:0:0:
160,24,78077,1,0,0:3:0:0:
136,99,78249,1,0,0:0:0:0:
136,99,78335,1,0,0:0:0:0:
136,99,78421,2,0,P|152:133|185:155,1,77.5,4|0,0:3|0:0,0:0:0:0:
190,244,78764,6,0,B|140:244|108:212|108:212|44:212,1,155,8|0,0:0|0:0,0:0:0:0:
100,132,79278,1,4,0:3:0:0:
185,155,79449,2,0,P|224:161|260:149,1,77.5,8|0,0:0|0:0,0:0:0:0:
328,108,79792,2,0,L|362:259,2,155,4|8|0,0:3|0:0|0:0,0:0:0:0:
408,108,80649,1,4,0:3:0:0:
408,108,80821,2,0,L|425:183,1,77.5,8|0,0:0|0:0,0:0:0:0:
512,296,81164,6,0,L|494:220,1,77.5,4|0,0:3|0:0,0:0:0:0:
425,183,81506,2,0,P|349:178|280:212,1,155,8|0,0:0|0:0,0:0:0:0:
244,292,82021,1,4,0:3:0:0:
160,268,82192,1,8,0:0:0:0:
116,360,82364,1,0,0:0:0:0:
116,360,82449,1,0,0:0:0:0:
116,360,82535,6,0,P|65:303|67:227,1,155,4|8,0:3|0:0,0:0:0:0:
200,136,83221,1,0,0:0:0:0:
212,216,83392,1,4,0:3:0:0:
280,260,83563,1,0,0:0:0:0:
360,248,83735,1,4,0:3:0:0:
372,240,83820,1,0,0:0:0:0:
384,232,83906,2,0,L|395:155,1,77.5,8|0,0:0|0:0,0:0:0:0:
407,74,84249,6,0,P|362:133|288:128,1,155,8|0,0:0|0:0,0:0:0:0:
255,57,84764,1,4,0:3:0:0:
255,57,84935,2,0,P|293:49|329:60,1,77.5,8|0,0:0|0:0,0:0:0:0:
362,133,85278,6,0,L|379:208,1,77.5,4|0,0:3|0:0,0:0:0:0:
300,224,85621,2,0,L|317:299,1,77.5,4|0,0:3|0:0,0:0:0:0:
216,208,85964,2,0,L|233:283,1,77.5,4|0,0:3|0:0,0:0:0:0:
158,307,86306,2,0,L|175:382,1,77.5,4|0,0:3|0:0,0:0:0:0:
60,308,86649,6,0,L|44:272,3,38.75,4|0|0|0,0:3|0:0|0:0|0:0,0:0:0:0:
84,232,86992,2,0,L|75:194,3,38.75,4|0|0|0,0:3|0:0|0:0|0:0,0:0:0:0:
121,161,87335,2,0,L|119:122,3,38.75,4|0|0|0,0:3|0:0|0:0|0:0,0:0:0:0:
168,96,87678,6,0,P|207:94|244:81,1,77.5,4|0,0:2|0:0,0:0:0:0:
144,24,88021,6,0,L|189:172,1,155,4|8,0:0|0:0,0:0:0:0:
218,256,88535,1,0,0:0:0:0:
215,344,88706,2,0,B|253:341|253:341|283:316,1,77.5,0|4,0:0|0:3,0:0:0:0:
313,243,89049,1,8,0:0:0:0:
386,276,89221,1,0,0:0:0:0:
386,276,89306,1,0,0:0:0:0:
386,276,89392,1,4,0:3:0:0:
481,115,89735,6,0,B|400:120|400:120|345:170,1,155,8|0,0:0|0:0,0:0:0:0:
345,170,90249,1,4,0:3:0:0:
335,248,90421,2,0,B|299:234|299:234|275:205,1,77.5,8|0,0:0|0:0,0:0:0:0:
252,132,90764,2,0,L|328:-8,2,155,4|8|0,0:3|0:0|0:0,0:0:0:0:
180,160,91621,1,4,0:3:0:0:
191,83,91792,2,0,B|152:86|152:86|121:107,1,77.5,8|0,0:0|0:0,0:0:0:0:
113,201,92135,6,0,B|139:228|139:228|176:238,1,77.5,4|0,0:3|0:0,0:0:0:0:
256,256,92478,2,0,B|304:272|304:272|340:312|340:312|388:328,1,155,8|0,0:0|0:0,0:0:0:0:
472,328,92992,1,4,0:3:0:0:
472,243,93164,1,8,0:0:0:0:
388,243,93335,1,0,0:0:0:0:
388,243,93421,1,0,0:0:0:0:
388,243,93506,6,0,L|284:120,1,155,4|8,0:3|0:0,0:0:0:0:
260,48,94020,1,0,0:0:0:0:
180,52,94192,1,0,0:0:0:0:
160,128,94364,1,4,0:3:0:0:
210,191,94535,2,0,L|236:264,1,77.5,8|0,0:0|0:0,0:0:0:0:
236,264,94792,1,0,0:0:0:0:
236,264,94878,1,4,0:3:0:0:
87,219,95221,6,0,B|113:291|113:291|87:365,1,155,8|0,0:0|0:0,0:0:0:0:
87,366,95735,1,4,0:3:0:0:
27,299,95906,2,0,L|0:371,1,77.5,8|0,0:0|0:0,0:0:0:0:
3,226,96249,5,0,0:0:0:0:
29,153,96421,2,0,L|86:8,2,155,0|0|4,0:0|0:0|0:3,0:0:0:0:
74,218,97278,1,8,0:0:0:0:
152,228,97449,2,0,B|225:252|225:252|241:288|241:288|277:300,1,155,0|4,0:0|0:3,0:0:0:0:
356,308,97964,2,0,B|392:320|392:320|408:356|408:356|481:380,1,155,8|0,0:0|0:0,0:0:0:0:
512,304,98478,1,4,0:3:0:0:
512,304,98649,2,0,L|512:226,1,77.5,8|0,0:0|0:0,0:0:0:0:
512,148,98992,6,0,B|436:156|436:156|358:141,1,155,4|8,0:3|0:0,0:0:0:0:
280,120,99506,1,0,0:0:0:0:
248,28,99678,2,0,L|328:44,1,77.5,0|4,0:0|0:3,0:0:0:0:
280,120,100021,1,8,0:0:0:0:
200,140,100192,1,0,0:0:0:0:
200,140,100278,1,0,0:0:0:0:
200,140,100364,1,4,0:3:0:0:
280,288,100706,6,0,B|295:247|295:247|352:215|352:215|397:224,1,155,8|0,0:0|0:0,0:0:0:0:
364,300,101221,1,4,0:3:0:0:
364,300,101392,2,0,L|404:368,1,77.5,8|0,0:0|0:0,0:0:0:0:
476,344,101735,2,0,B|496:296|496:296|488:248|488:248|507:197,2,155,4|8|0,0:3|0:0|0:0,0:0:0:0:
400,376,102592,1,4,0:3:0:0:
320,372,102764,2,0,L|253:332,1,77.5
176,216,103106,6,0,L|242:255,1,77.5,4|0,0:3|0:0,0:0:0:0:
180,308,103449,2,0,L|47:228,1,155,8|0,0:0|0:0,0:0:0:0:
32,152,103964,1,4,0:3:0:0:
80,92,104135,1,8,0:0:0:0:
160,92,104306,1,0,0:0:0:0:
160,92,104392,1,0,0:0:0:0:
160,92,104478,6,0,B|240:84|240:84|298:37,1,155,4|8,0:3|0:0,0:0:0:0:
356,92,104992,1,0,0:0:0:0:
380,168,105164,2,0,L|302:175,1,77.5,0|4,0:0|0:3,0:0:0:0:
434,110,105506,2,0,L|511:102,1,77.5,8|0,0:0|0:0,0:0:0:0:
511,102,105764,1,0,0:0:0:0:
511,102,105849,1,4,0:3:0:0:
484,244,106192,6,0,B|436:272|436:272|392:272|392:272|344:300,1,155,8|0,0:0|0:0,0:0:0:0:
280,344,106706,1,4,0:3:0:0:
280,344,106878,2,0,B|240:345|240:345|209:324,1,77.5,8|0,0:0|0:0,0:0:0:0:
144,280,107221,6,0,L|114:209,1,77.5,4|0,0:3|0:0,0:0:0:0:
183,172,107564,2,0,L|153:101,1,77.5,4|0,0:3|0:0,0:0:0:0:
269,173,107906,2,0,L|239:102,1,77.5,4|0,0:3|0:0,0:0:0:0:
314,73,108249,2,0,L|284:2,1,77.5,4|0,0:3|0:0,0:0:0:0:
400,64,108592,6,0,L|400:102,3,38.75,4|0|0|0,0:3|0:0|0:0|0:0,0:0:0:0:
440,128,108935,2,0,L|433:166,3,38.75,4|0|0|0,0:3|0:0|0:0|0:0,0:0:0:0:
468,197,109278,2,0,L|454:233,3,38.75,4|0|0|0,0:3|0:0|0:0|0:0,0:0:0:0:
482,268,109621,6,0,B|446:284|446:284|420:311,1,77.5,4|0,0:2|0:0,0:0:0:0:
344,383,109964,5,4,0:0:0:0:
344,383,110307,2,0,P|286:379|237:349,1,116.250004434586,8|0,0:0|0:0,0:0:0:0:
240,264,110821,2,0,L|274:217,1,58.1250022172929,4|8,0:3|0:0,0:0:0:0:
216,164,111164,1,0,0:0:0:0:
216,164,111335,6,0,L|181:210,1,58.1250022172929,4|0,0:3|0:0,0:0:0:0:
104,228,111678,2,0,P|104:184|44:136,1,116.250004434586,8|0,0:0|0:0,0:0:0:0:
11,75,112192,2,0,P|10:47|20:19,2,58.1250022172929,4|8|0,0:3|0:0|0:0,0:0:0:0:
83,56,112707,6,0,P|136:28|192:48,1,116.250004434586,4|8,0:3|0:0,0:0:0:0:
236,104,113221,2,0,P|290:88|340:116,1,116.250004434586,0|4,0:0|0:3,0:0:0:0:
332,192,113735,2,0,P|277:207|228:180,2,116.250004434586,8|4|8,0:0|0:3|0:0,0:0:0:0:
400,228,114592,2,0,P|415:282|388:331,1,116.250004434586,0|4,0:0|0:3,0:0:0:0:
316,356,115107,1,8,0:0:0:0:
316,356,115449,5,4,0:3:0:0:
164,328,115792,2,0,P|112:307|85:257,1,116.250004434586,8|0,0:0|0:0,0:0:0:0:
73,181,116307,2,0,L|69:121,1,58.1250022172929,4|8,0:3|0:0,0:0:0:0:
133,33,116649,1,0,0:0:0:0:
133,33,116821,6,0,L|136:90,1,58.1250022172929,4|0,0:3|0:0,0:0:0:0:
189,149,117164,2,0,B|249:129|245:157|303:137,1,116.250004434586,8|0,0:0|0:0,0:0:0:0:
365,184,117678,1,4,0:3:0:0:
365,184,117849,2,0,P|380:160|382:131,1,58.1250022172929,8|0,0:0|0:0,0:0:0:0:
357,49,118192,1,0,0:0:0:0:
357,49,118364,6,0,L|240:55,2,116.250004434586
509,69,119392,1,0,0:0:0:0:
