osu file format v14

[General]
AudioFilename: Feint - Face Down (Cut Ver.).mp3
AudioLeadIn: 0
PreviewTime: 65645
Countdown: 0
SampleSet: Normal
StackLeniency: 0.5
Mode: 0
LetterboxInBreaks: 0
WidescreenStoryboard: 1

[Editor]
DistanceSpacing: 1
BeatDivisor: 8
GridSize: 4
TimelineZoom: 1.4

[Metadata]
Title:Face Down
TitleUnicode:Face Down
Artist:Feint
ArtistUnicode:Feint
Creator:phaZ
Version:Extra
Source:
Tags:Stjpa Bonsai dnb cut
BeatmapID:745224
BeatmapSetID:240329

[Difficulty]
HPDrainRate:6.6
CircleSize:4.2
OverallDifficulty:8.7
ApproachRate:9.2
SliderMultiplier:1.4
SliderTickRate:1

[Events]
//Background and Video events
0,0,"bg.png",0,0
//Break Periods
//Storyboard Layer 0 (Background)
//Storyboard Layer 1 (Fail)
//Storyboard Layer 2 (Pass)
//Storyboard Layer 3 (Foreground)
//Storyboard Sound Samples

[TimingPoints]
246,342.857142857143,4,2,98,15,1,0
16703,-400,4,2,99,15,0,0
17388,-400,4,2,98,15,0,0
17431,-400,4,2,99,15,0,0
18074,-400,4,1,0,15,0,0
18760,-400,4,2,98,15,0,0
18803,-400,4,1,0,15,0,0
19446,-400,4,2,99,15,0,0
20131,-400,4,2,98,15,0,0
20174,-400,4,2,99,15,0,0
20817,-400,4,2,99,15,0,0
21503,-400,4,2,98,15,0,0
21546,-400,4,2,0,15,0,0
22188,-123.456790123457,4,2,1,20,0,0
44131,-100,4,2,2,50,0,0
44817,-100,4,2,1,25,0,0
44988,-100,4,2,2,50,0,0
49531,-100,4,2,2,5,0,0
49617,-100,4,2,2,50,0,0
54417,-82.6446280991736,4,1,1,50,0,0
64703,-75.0018750468762,4,1,0,50,0,0
65646,-82.6446280991736,4,1,1,75,0,0
65731,-50,4,1,1,90,0,0
65902,-50,4,1,1,5,0,0
66078,342.857142857143,4,1,1,80,1,1
66078,-82.6446280991736,4,1,1,80,0,1
70363,-82.6446280991736,4,3,5,80,0,1
70535,-82.6446280991736,4,1,1,80,0,1
82706,-82.6446280991736,4,3,5,80,0,1
82878,-82.6446280991736,4,1,1,80,0,1
85278,-82.6446280991736,4,1,1,80,0,0
88020,-82.6446280991736,4,1,2,70,0,1
107220,-82.6446280991736,4,1,2,70,0,0
109963,-133.333333333333,4,1,1,70,0,1
110049,-133.333333333333,4,2,1,15,0,0

[Colours]
Combo1 : 240,244,62
Combo2 : 64,252,31
Combo3 : 36,194,255
Combo4 : 30,120,187
Combo5 : 226,253,187

[HitObjects]
148,196,16703,6,0,L|167:316,1,122.5,2|0,0:3|2:0,0:0:0:0:
258,308,18074,6,0,L|264:185,1,122.5,2|0,2:3|2:0,2:0:0:0:
381,203,19446,6,0,L|348:320,1,122.5,2|0,0:3|0:0,0:0:0:0:
436,351,20817,6,0,L|491:241,1,122.5,2|0,0:3|2:0,0:0:0:0:
504,102,22189,6,0,P|481:87|453:79,1,56.7000013842774,4|2,1:2|0:0,0:0:0:0:
376,64,22531,2,0,B|264:76,1,113.400002768555,8|2,1:2|0:0,0:0:0:0:
208,136,23045,2,0,P|231:151|258:157,1,56.7000013842774,4|8,1:3|0:0,0:0:0:0:
188,64,23388,1,0,1:0:0:0:
108,56,23559,2,0,L|51:49,1,56.7000013842774,4|2,0:3|0:0,0:0:0:0:
8,148,23902,2,0,L|64:148,1,56.7000013842774,8|0,1:2|0:0,0:0:0:0:
64,148,24159,1,8,0:0:0:0:
64,148,24245,1,2,0:0:0:0:
136,192,24416,5,4,1:3:0:0:
172,264,24588,1,8,0:0:0:0:
168,344,24759,1,2,1:2:0:0:
168,344,24931,6,0,P|192:357|220:361,1,56.7000013842774,4|2,0:3|0:0,0:0:0:0:
336,208,25274,2,0,P|308:211|283:225,1,56.7000013842774,8|0,0:0|1:0,0:0:0:0:
283,225,25531,1,8,0:0:0:0:
283,225,25616,1,2,0:0:0:0:
336,296,25788,1,4,0:3:0:0:
416,288,25959,1,8,1:2:0:0:
416,288,26131,1,0,0:0:0:0:
485,247,26302,6,0,P|490:221|484:188,1,56.7000013842774,4|2,1:3|0:0,0:0:0:0:
362,79,26645,2,0,P|357:107|362:135,1,56.7000013842774,8|4,0:0|1:3,0:0:0:0:
362,135,26902,1,8,0:0:0:0:
362,135,26988,1,2,0:0:0:0:
300,188,27159,1,4,0:3:0:0:
220,196,27331,2,0,B|191:196|191:196|163:191,1,56.7000013842774,8|2,1:2|0:0,0:0:0:0:
100,44,27674,6,0,P|128:52|152:72,1,56.7000013842774,4|2,0:3|0:0,0:0:0:0:
88,128,28016,2,0,B|68:184,1,56.7000013842774,8|0,1:2|0:0,0:0:0:0:
69,181,28274,1,8,0:0:0:0:
69,181,28359,1,2,0:0:0:0:
75,262,28531,2,0,P|102:255|125:239,1,56.7000013842774,4|8,0:3|0:0,0:0:0:0:
4,228,28874,1,0,1:0:0:0:
4,308,29045,2,0,L|16:368,1,56.7000013842774,4|2,0:3|0:0,0:0:0:0:
116,384,29388,2,0,L|116:327,1,56.7000013842774,8|0,1:2|0:0,0:0:0:0:
116,327,29645,1,8,0:0:0:0:
116,327,29731,1,2,0:0:0:0:
196,312,29902,5,4,0:3:0:0:
256,260,30074,1,8,1:2:0:0:
280,184,30245,1,2,1:2:0:0:
280,184,30416,5,4,0:3:0:0:
197,34,30588,2,0,L|202:92,1,56.7000013842774,2|8,1:2|0:0,0:0:0:0:
280,184,30931,2,0,L|278:156,2,28.3500006921387,0|8|2,1:0|0:0|0:0,0:0:0:0:
116,88,31274,2,0,L|120:145,1,56.7000013842774,4|8,1:3|0:0,0:0:0:0:
199,238,31617,2,0,L|197:210,2,28.3500006921387,0|0|2,1:0|0:0|0:0,0:0:0:0:
248,300,31959,1,4,0:3:0:0:
324,320,32131,2,0,B|352:320|380:312,1,56.7000013842774,8|4,1:2|0:3,0:0:0:0:
380,312,32388,1,8,0:0:0:0:
380,312,32474,1,2,0:0:0:0:
380,232,32645,5,4,1:3:0:0:
420,164,32816,1,8,0:0:0:0:
496,136,32988,1,0,1:0:0:0:
496,136,33159,6,0,P|489:108|475:83,1,56.7000013842774,4|2,0:3|0:2,0:3:0:0:
400,60,33502,2,0,B|343:56,1,56.7000013842774,8|0,1:2|0:0,0:0:0:0:
343,56,33759,1,8,0:0:0:0:
343,56,33845,1,2,0:0:0:0:
271,92,34016,2,0,P|286:115|311:129,1,56.7000013842774,4|8,1:3|0:0,0:0:0:0:
235,20,34359,1,0,1:0:0:0:
156,12,34531,2,0,B|99:8,1,56.7000013842774,4|2,0:3|0:0,0:0:0:0:
60,112,34874,2,0,B|116:112,1,56.7000013842774,8|0,1:2|0:0,0:0:0:0:
116,112,35131,1,8,0:0:0:0:
116,112,35216,1,2,0:0:0:0:
116,196,35388,5,4,1:3:0:0:
148,268,35559,1,8,0:0:0:0:
220,304,35731,1,2,1:2:0:0:
220,304,35902,6,0,P|246:293|274:291,1,56.7000013842774,4|2,0:3|0:0,0:0:0:0:
136,376,36245,2,0,P|107:373|81:363,1,56.7000013842774,8|0,0:0|1:0,0:0:0:0:
82,363,36502,1,8,0:0:0:0:
82,363,36588,1,2,0:0:0:0:
36,300,36759,1,4,0:3:0:0:
5,372,36931,1,8,1:2:0:0:
5,372,37102,1,2,0:0:0:0:
132,280,37274,6,0,P|143:255|148:224,1,56.7000013842774,4|2,1:3|0:0,0:0:0:0:
72,76,37616,2,0,P|61:101|56:132,1,56.7000013842774,8|0,0:0|1:0,0:0:0:0:
56,129,37874,1,8,0:0:0:0:
56,129,37959,1,2,0:0:0:0:
136,124,38131,1,4,0:3:0:0:
216,136,38302,2,0,B|243:143|243:143|266:159,1,56.7000013842774,8|2,1:2|0:0,0:0:0:0:
216,360,38645,6,0,P|200:336|191:309,1,56.7000013842774,6|2,0:3|0:0,0:0:0:0:
272,299,38988,2,0,B|276:243,1,56.7000013842774,8|0,1:2|0:0,0:0:0:0:
276,243,39245,1,8,0:0:0:0:
276,243,39331,1,2,0:0:0:0:
340,172,39502,2,0,B|344:116,1,56.7000013842774,4|8,1:3|0:0,0:0:0:0:
408,45,39845,1,0,1:0:0:0:
487,93,40016,6,0,P|503:117|512:144,1,56.7000013842774,6|2,0:3|0:0,0:0:0:0:
428,156,40359,2,0,B|424:212,1,56.7000013842774,8|0,1:2|0:0,0:0:0:0:
424,212,40616,1,8,0:0:0:0:
424,212,40702,1,2,0:0:0:0:
360,264,40874,5,4,0:3:0:0:
278,258,41045,1,8,1:2:0:0:
224,198,41216,1,2,1:2:0:0:
224,198,41388,5,6,0:3:0:0:
224,352,41559,2,0,L|281:357,1,56.7000013842774,2|8,1:2|0:0,0:0:0:0:
191,264,41902,2,0,L|168:280,2,28.3500006921387,0|0|2,1:0|0:0|0:0,0:0:0:0:
88,376,42245,2,0,L|145:381,1,56.7000013842774,4|8,1:3|0:0,0:0:0:0:
55,288,42588,2,0,L|31:303,2,28.3500006921387,0|0|2,1:0|0:0|0:3,0:0:0:0:
55,288,42931,5,4,0:3:0:0:
122,170,43102,2,0,L|118:114,1,56.7000013842774,8|4,1:2|0:3,0:0:0:0:
118,113,43359,1,8,0:0:0:0:
118,113,43445,1,2,0:0:0:0:
204,36,43616,1,0,1:0:0:0:
271,103,43788,2,2,B|297:113|297:113|325:111,1,56.7000013842774,8|0,0:1|1:0,1:2:0:0:
511,185,44131,6,0,P|447:208|388:176,1,140,6|10,1:2|1:2,0:0:0:0:
388,176,44816,1,10,1:2:0:0:
396,300,44988,2,0,L|416:372,1,70,2|8,1:2|0:0,0:0:0:0:
295,197,45331,2,2,P|232:224|209:288,1,140,2|0,1:2|0:0,1:2:0:0:
300,288,45845,2,2,P|276:224|214:195,1,140,10|0,1:2|0:0,1:2:0:0:
163,368,46359,1,2,1:2:0:0:
163,368,46531,2,2,P|195:381|230:376,1,70,10|2,1:2|0:0,0:0:0:0:
150,266,46874,6,2,P|93:227|25:235,1,140,2|10,1:2|0:0,1:2:0:0:
69,328,47388,1,0,1:0:0:0:
229,301,47560,2,2,P|234:266|228:232,2,70,2|2|8,0:0|0:0|1:2,0:0:0:0:
163,368,48074,1,2,0:0:0:0:
150,266,48245,2,2,L|289:269,1,140,0|10,1:0|0:0,1:2:0:0:
461,366,48760,2,0,L|321:363,1,140,0|2,1:0|0:0,1:0:0:0:
257,175,49274,2,0,P|208:161|160:179,1,105,10|0,1:2|0:0,1:0:0:0:
132,192,49617,6,0,P|76:216|8:172,2,140,2|10|2,1:2|1:2|1:2,0:0:0:0:
176,108,50474,2,0,L|208:44,1,70,2|8,1:2|0:0,0:0:0:0:
368,164,50817,2,2,P|338:216|267:245,1,140,2|0,1:2|0:0,1:2:0:0:
266,139,51331,2,2,P|330:162|368:220,1,140,10|0,1:2|0:0,1:2:0:0:
197,322,51845,1,2,1:2:0:0:
197,322,52016,2,0,P|175:296|164:263,1,70,10|2,1:2|1:2,0:0:0:0:
267,245,52359,5,2,1:2:0:0:
346,312,52531,2,2,P|336:342|308:372,1,70,2|8,1:2|0:0,1:2:0:0:
420,280,52874,2,2,P|426:310|417:350,1,70,2|0,1:2|0:0,1:2:0:0:
468,215,53216,2,2,P|488:238|500:277,1,70,2|8,1:2|0:0,1:2:0:0:
377,204,53560,6,2,P|410:144|475:123,1,140,2|0,1:2|0:0,1:2:0:0:
468,215,54074,1,10,1:2:0:0:
408,286,54245,5,4,1:3:0:0:
414,283,54331,1,4,1:3:0:0:
420,280,54417,2,0,L|500:305,1,84.6999976090241,8|4,0:0|2:3,0:0:0:0:
280,332,54759,2,0,L|347:383,1,84.6999976090241,8|4,0:0|2:3,0:0:0:0:
135,299,55102,6,0,P|101:324|62:340,1,84.6999976090241,4|0,0:3|0:0,0:0:0:0:
220,205,55445,2,0,P|245:171|261:132,1,84.6999976090241,4|0,0:3|0:0,0:0:0:0:
27,202,55788,1,4,0:3:0:0:
132,106,55959,1,0,0:0:0:0:
27,202,56131,1,4,0:3:0:0:
132,106,56302,1,0,0:0:0:0:
274,76,56474,6,0,P|331:101|365:154,1,127.049996413536,4|0,0:3|2:0,0:0:0:0:
365,154,56816,2,0,L|345:236,1,84.6999976090241,4|0,0:3|0:0,0:0:0:0:
195,105,57159,2,0,L|274:76,1,84.6999976090241,4|0,0:3|0:3,0:3:0:0:
406,16,57502,1,4,0:3:0:0:
365,154,57674,1,0,0:0:0:0:
495,93,57846,6,0,P|509:132|507:174,1,84.6999976090241,4|0,0:3|0:0,0:0:0:0:
349,297,58188,2,0,P|307:288|272:264,1,84.6999976090241,4|0,0:3|0:0,0:0:0:0:
276,39,58531,1,4,0:3:0:0:
365,154,58702,1,0,0:0:0:0:
276,39,58874,1,4,0:3:0:0:
365,154,59045,1,0,0:0:0:0:
454,269,59216,6,0,L|505:335,1,84.6999976090241,4|0,0:3|0:0,0:0:0:0:
352,374,59560,2,0,L|301:308,1,84.6999976090241,4|0,0:3|0:0,0:0:0:0:
276,168,59902,1,4,0:3:0:0:
196,288,60074,1,0,0:0:0:0:
170,148,60245,2,0,P|115:117|53:125,1,127.049996413536,4|0,0:3|2:0,0:0:0:0:
26,167,60588,5,4,0:3:0:0:
11,247,60759,1,4,3:3:0:0:
252,167,60931,1,4,0:3:0:0:
236,87,61102,1,4,3:3:0:0:
102,299,61274,1,4,0:3:0:0:
313,113,61445,1,4,0:3:0:0:
87,219,61616,1,4,3:3:0:0:
371,320,61788,5,4,0:3:0:0:
203,198,61960,1,4,3:3:0:0:
392,112,62131,1,4,0:3:0:0:
253,309,62302,5,4,0:3:0:0:
273,100,62474,1,4,0:3:0:0:
443,222,62646,1,4,3:3:0:0:
133,297,62816,5,4,0:3:0:0:
273,100,62988,1,4,0:3:0:0:
512,123,63160,1,4,0:3:0:0:
273,100,63331,6,0,L|229:95,1,42.3499988045121,4|4,0:3|3:0,0:0:0:0:
187,301,63502,2,0,L|203:340,1,42.3499988045121,4|4,0:3|3:0,0:0:0:0:
227,181,63674,2,0,L|192:156,1,42.3499988045121,4|4,0:3|3:0,0:0:0:0:
59,332,63845,2,0,L|54:374,1,42.3499988045121,4|0,0:3|3:0,0:0:0:0:
324,244,64017,2,0,L|289:221,1,42.3499988045121,4|4,0:3|3:0,0:0:0:0:
65,215,64188,2,0,L|63:258,1,42.3499988045121,4|4,0:3|3:0,0:0:0:0:
388,108,64360,2,0,L|346:104,1,42.3499988045121,4|4,0:3|3:0,0:0:0:0:
135,195,64531,2,0,L|153:233,1,42.3499988045121,4|4,0:3|3:0,0:0:0:0:
465,243,64703,6,0,P|516:199|504:132,1,139.9964966697,4|0,0:3|2:0,0:0:0:0:
485,108,65046,1,0,3:0:0:0:
456,96,65387,1,0,3:0:0:0:
420,96,65731,6,0,P|357:65|352:1,1,140,4|0,1:2|2:0,0:0:0:0:
432,225,66078,6,0,P|464:244|506:258,1,84.6999976090241,4|2,0:0|0:2,0:0:0:0:
264,180,66420,2,0,P|276:216|298:254,1,84.6999976090241,8|2,0:0|3:2,0:0:0:0:
324,281,66678,1,0,0:0:0:0:
354,296,66764,1,2,0:2:0:0:
387,58,66935,1,4,0:3:0:0:
432,225,67106,1,8,0:0:0:0:
211,0,67278,1,2,0:2:0:0:
184,15,67364,1,0,0:0:0:0:
164,38,67449,6,0,P|150:74|140:118,1,84.6999976090241,4|2,0:3|0:2,0:0:0:0:
351,295,67792,2,0,P|342:253|328:213,1,84.6999976090241,8|2,0:0|2:0,0:0:0:0:
310,190,68049,1,0,0:0:0:0:
288,169,68135,1,2,2:0:0:0:
164,38,68306,5,4,0:3:0:0:
202,199,68478,1,8,0:0:0:0:
250,9,68649,1,2,3:2:0:0:
116,228,68821,6,0,B|92:309|34:270|10:352,1,169.399995218048,4|8,0:3|0:0,0:0:0:0:
112,126,69335,1,2,3:2:0:0:
112,126,69421,1,0,3:0:0:0:
112,126,69506,2,0,P|152:131|187:155,2,84.6999976090241,2|4|8,2:0|0:3|0:0,0:0:0:0:
376,312,70021,1,2,0:2:0:0:
376,312,70192,6,0,L|365:227,1,84.6999976090241,4|2,0:3|1:3,0:0:0:0:
228,141,70535,2,0,L|239:225,1,84.6999976090241,8|2,0:0|3:2,0:0:0:0:
244,256,70792,1,0,0:0:0:0:
248,286,70878,5,2,0:2:0:0:
288,66,71049,1,4,0:3:0:0:
116,258,71221,1,8,0:0:0:0:
365,228,71392,1,2,0:2:0:0:
149,85,71563,6,0,P|141:43|148:3,1,84.6999976090241,4|2,0:3|0:2,0:0:0:0:
64,216,71906,2,0,P|31:189|11:154,1,84.6999976090241,8|2,0:0|3:2,0:0:0:0:
3,123,72164,1,0,0:0:0:0:
3,93,72249,1,2,0:2:0:0:
220,225,72420,1,4,0:3:0:0:
149,85,72592,1,8,0:0:0:0:
142,347,72764,1,2,0:2:0:0:
114,363,72849,1,0,0:0:0:0:
83,370,72935,2,0,P|40:371|2:356,1,84.6999976090241,4|2,0:3|0:2,0:0:0:0:
220,225,73277,2,0,P|259:209|301:210,1,84.6999976090241,8|2,0:0|3:2,0:0:0:0:
332,218,73535,1,0,0:0:0:0:
360,232,73621,1,2,2:0:0:0:
504,272,73792,5,4,0:3:0:0:
352,364,73964,1,8,0:0:0:0:
512,140,74135,1,2,0:2:0:0:
512,140,74221,1,0,0:0:0:0:
512,140,74306,5,4,0:3:0:0:
504,272,74478,2,0,P|463:265|427:242,1,84.6999976090241,2|8,0:2|0:0,0:0:0:0:
399,68,74821,2,0,P|427:36|463:14,1,84.6999976090241,0|0,0:0|2:0,0:0:0:0:
146,65,75164,2,0,P|188:73|224:96,1,84.6999976090241,4|8,0:3|0:0,0:0:0:0:
186,322,75506,2,0,P|252:271|270:190,1,169.399995218048,2|4,0:2|0:3,0:0:0:0:
139,199,76021,1,8,0:0:0:0:
56,301,76192,1,2,3:2:0:0:
56,301,76278,1,0,0:0:0:0:
56,301,76364,2,0,P|56:344|71:383,1,84.6999976090241,2|4,2:0|0:3,0:0:0:0:
139,199,76706,2,0,P|100:185|58:185,1,84.6999976090241,8|2,0:0|0:2,0:0:0:0:
256,368,77049,6,0,P|298:375|339:368,1,84.6999976090241,4|2,0:3|0:2,0:0:0:0:
344,240,77392,2,0,P|381:220|406:188,1,84.6999976090241,8|2,0:0|3:2,0:0:0:0:
423,158,77649,1,0,0:0:0:0:
432,125,77735,1,2,0:2:0:0:
189,227,77906,1,4,0:3:0:0:
256,368,78078,1,8,0:0:0:0:
300,138,78249,1,2,0:2:0:0:
319,114,78335,1,0,0:0:0:0:
329,85,78421,6,0,P|343:44|344:2,1,84.6999976090241,4|2,0:3|0:2,0:0:0:0:
154,148,78764,2,0,P|156:190|170:230,1,84.6999976090241,8|2,0:0|3:2,0:0:0:0:
179,260,79021,1,0,1:0:0:0:
198,285,79106,1,2,2:0:0:0:
390,311,79278,5,4,0:3:0:0:
276,212,79449,1,8,0:0:0:0:
312,384,79621,1,2,2:0:0:0:
354,139,79792,6,0,B|365:84|406:76|447:68|457:12,1,169.399995218048,4|8,0:3|0:0,0:0:0:0:
240,96,80306,1,2,3:2:0:0:
240,96,80392,1,0,0:0:0:0:
240,96,80478,2,0,P|232:138|239:180,2,84.6999976090241,2|4|8,2:0|0:3|0:0,0:0:0:0:
65,246,80992,1,2,0:2:0:0:
65,246,81164,6,0,L|0:193,1,84.6999976090241,4|2,0:3|3:2,0:0:0:0:
192,201,81506,2,0,L|257:254,1,84.6999976090241,8|2,0:0|3:2,0:0:0:0:
281,274,81764,1,0,0:0:0:0:
305,293,81849,5,2,0:2:0:0:
194,98,82021,1,4,0:3:0:0:
0,193,82192,1,8,0:0:0:0:
143,14,82364,1,2,0:2:0:0:
93,225,82535,6,0,P|80:265|84:308,1,84.6999976090241,4|2,0:3|1:3,0:0:0:0:
211,280,82878,2,0,P|227:319|257:349,1,84.6999976090241,8|2,0:0|3:2,0:0:0:0:
289,363,83135,1,0,0:0:0:0:
324,368,83221,1,2,0:2:0:0:
197,149,83392,1,4,0:3:0:0:
93,225,83564,1,8,0:0:0:0:
295,202,83735,1,2,0:2:0:0:
312,228,83821,1,0,0:0:0:0:
335,246,83906,2,2,P|373:265|416:269,1,84.6999976090241,4|2,0:3|0:2,3:2:0:0:
506,37,84248,2,2,P|464:40|426:60,1,84.6999976090241,8|2,0:0|3:2,3:2:0:0:
405,79,84506,1,0,0:0:0:0:
384,101,84592,1,2,2:0:0:0:
352,327,84764,5,4,0:3:0:0:
300,148,84935,1,8,0:0:0:0:
436,280,85106,1,2,0:2:0:0:
436,280,85192,1,0,0:0:0:0:
436,280,85278,6,0,L|447:321,3,42.3499988045121,4|0|0|0,2:3|3:0|3:0|3:0,0:0:0:0:
300,148,85621,2,0,L|289:108,3,42.3499988045121,4|0|2|0,2:3|3:0|3:2|3:0,0:0:0:0:
343,274,85964,2,0,L|332:315,3,42.3499988045121,4|0|2|0,2:3|3:0|3:2|3:0,0:0:0:0:
393,142,86306,2,0,L|384:102,3,42.3499988045121,4|0|2|0,2:3|3:0|3:2|3:0,0:0:0:0:
301,276,86649,5,2,0:3:0:0:
259,257,86735,1,0,3:0:0:0:
233,220,86821,1,0,3:0:0:0:
230,175,86906,1,0,3:0:0:0:
206,126,86992,5,2,0:3:0:0:
160,116,87078,1,0,3:0:0:0:
117,132,87164,1,2,3:2:0:0:
91,170,87249,1,0,3:0:0:0:
89,215,87335,1,2,3:2:0:0:
116,253,87421,1,0,3:0:0:0:
144,300,87506,5,2,0:3:0:0:
124,341,87592,1,0,3:0:0:0:
89,369,87678,2,0,P|45:380|1:380,1,84.6999976090241,8|2,0:0|0:2,0:0:0:0:
0,172,88021,6,0,L|4:256,1,84.6999976090241,4|2,0:0|2:0,0:0:0:0:
95,110,88364,2,0,L|91:26,1,84.6999976090241,8|2,0:0|3:2,0:0:0:0:
95,13,88621,1,0,0:0:0:0:
97,0,88706,1,2,0:2:0:0:
304,52,88878,1,4,0:3:0:0:
153,204,89049,2,0,B|196:206|196:206|238:200,1,84.6999976090241,8|2,0:0|0:2,0:0:0:0:
266,195,89306,1,2,0:2:0:0:
291,188,89392,6,0,B|344:172|344:172|400:180|400:180|453:160,1,169.399995218048,4|8,0:3|0:0,0:0:0:0:
415,299,89906,2,0,B|377:282|377:282|346:254,1,84.6999976090241,2|2,2:0|2:0,0:0:0:0:
454,159,90249,1,4,0:3:0:0:
511,329,90421,2,0,B|484:363|484:363|452:390,1,84.6999976090241,8|2,0:0|0:2,0:0:0:0:
339,291,90764,6,0,L|179:345,1,169.399995218048,4|8,0:3|0:0,0:0:0:0:
125,113,91278,1,2,3:2:0:0:
145,130,91364,1,0,0:0:0:0:
166,146,91449,1,2,2:0:0:0:
245,215,91621,1,4,0:3:0:0:
236,67,91792,1,8,0:0:0:0:
147,248,91964,1,2,0:2:0:0:
245,214,92135,6,0,B|281:192|281:192|314:167,1,84.6999976090241,4|2,0:3|2:0,0:0:0:0:
69,178,92478,2,0,B|35:152|35:152|0:130,1,84.6999976090241,8|2,0:0|2:0,0:0:0:0:
143,260,92821,1,2,0:2:0:0:
231,104,92992,1,4,0:3:0:0:
125,83,93164,1,8,0:0:0:0:
245,215,93335,1,2,0:2:0:0:
334,59,93506,6,0,B|316:21|316:21|279:0,1,84.6999976090241,4|2,0:3|2:0,0:0:0:0:
325,164,93849,2,0,B|343:202|343:202|380:223,1,84.6999976090241,8|2,0:0|3:2,0:0:0:0:
395,233,94106,1,0,0:0:0:0:
410,241,94192,1,2,0:2:0:0:
240,361,94364,1,4,0:3:0:0:
219,152,94535,2,0,B|178:155|178:155|141:175,1,84.6999976090241,8|2,0:0|0:2,0:0:0:0:
131,200,94792,1,2,0:2:0:0:
121,225,94878,6,0,B|96:272|96:272|96:336|96:336|69:381,1,169.399995218048,4|8,0:3|0:0,0:0:0:0:
211,355,95392,2,0,B|199:315|199:315|174:281,1,84.6999976090241,2|2,2:0|2:0,0:0:0:0:
69,381,95735,1,4,0:3:0:0:
283,377,95906,2,0,B|322:363|322:363|357:339,1,84.6999976090241,8|2,0:0|0:2,0:0:0:0:
501,253,96249,5,4,0:3:0:0:
465,115,96421,2,0,B|426:128|426:128|393:154,1,84.6999976090241,2|8,0:2|0:0,0:0:0:0:
386,338,96764,2,0,B|419:366|419:366|457:383,1,84.6999976090241,0|0,0:0|2:0,0:0:0:0:
129,374,97106,2,0,B|169:357|169:357|202:331,1,84.6999976090241,4|8,0:3|0:0,0:0:0:0:
137,99,97449,2,0,B|210:142|210:142|236:222,1,169.399995218048,2|4,0:2|0:3,0:0:0:0:
97,234,97964,1,8,0:0:0:0:
0,129,98135,1,2,3:2:0:0:
0,129,98221,1,0,0:0:0:0:
0,129,98306,2,0,B|-2:87|-2:87|8:47,1,84.6999976090241,2|4,2:0|0:3,0:0:0:0:
97,234,98649,2,0,B|57:244|57:244|15:242,1,84.6999976090241,8|2,0:0|0:2,0:0:0:0:
230,338,98992,6,0,B|272:341|272:341|309:359,1,84.6999976090241,4|2,0:3|2:0,0:0:0:0:
178,254,99335,2,0,B|135:252|135:252|97:234,1,84.6999976090241,8|2,0:0|3:2,0:0:0:0:
85,222,99592,1,2,0:2:0:0:
76,208,99678,1,2,0:2:0:0:
162,43,99849,1,4,0:3:0:0:
262,201,100021,2,0,L|338:164,1,84.6999976090241,8|2,0:0|0:2,0:0:0:0:
364,159,100278,1,2,0:2:0:0:
389,154,100364,6,0,B|372:104|372:104|328:56|328:56|311:7,1,169.399995218048,4|8,0:3|0:0,0:0:0:0:
224,126,100878,2,0,B|261:147|261:147|303:153,1,84.6999976090241,2|2,2:0|2:0,0:0:0:0:
311,8,101221,1,0,0:0:0:0:
104,41,101392,2,0,B|84:77|84:77|77:119,1,84.6999976090241,8|2,0:0|0:2,0:0:0:0:
162,259,101735,6,0,L|295:365,1,169.399995218048,4|8,0:3|0:0,0:0:0:0:
422,158,102249,1,2,3:2:0:0:
398,169,102335,1,0,0:0:0:0:
374,180,102421,1,2,2:0:0:0:
278,219,102592,1,4,0:3:0:0:
334,84,102764,1,8,0:0:0:0:
360,284,102935,1,2,0:2:0:0:
456,244,103106,6,0,B|489:218|489:218|511:183,1,84.6999976090241,4|2,0:3|2:0,0:0:0:0:
278,219,103449,2,0,B|242:195|242:195|201:188,1,84.6999976090241,8|2,0:0|2:0,0:0:0:0:
327,118,103792,1,2,0:2:0:0:
358,296,103964,1,4,0:3:0:0:
438,133,104135,1,8,0:0:0:0:
278,219,104306,1,2,0:2:0:0:
407,363,104478,6,0,B|447:353|447:353|480:327,1,84.6999976090241,4|2,0:3|2:0,0:0:0:0:
305,320,104821,2,0,B|265:329|265:329|232:355,1,84.6999976090241,8|2,0:0|3:2,0:0:0:0:
221,369,105078,1,0,0:0:0:0:
213,384,105164,1,2,0:2:0:0:
138,183,105335,1,4,0:3:0:0:
348,220,105506,2,0,L|350:135,1,84.6999976090241,8|2,0:0|0:2,0:0:0:0:
336,104,105764,1,2,0:2:0:0:
306,83,105849,6,0,B|260:72|260:72|184:84|184:84|140:74,1,169.399995218048,4|8,0:3|0:0,0:0:0:0:
204,217,106364,2,0,B|239:195|239:195|267:163,1,84.6999976090241,2|2,2:0|2:0,0:0:0:0:
140,74,106706,1,4,0:3:0:0:
95,247,106878,2,0,B|118:283|118:283|150:311,1,84.6999976090241,8|2,0:0|0:2,0:0:0:0:
357,352,107221,6,0,L|398:342,3,42.3499988045121,4|0|2|0,3:0|3:0|3:2|3:0,0:0:0:0:
297,248,107564,2,0,L|338:238,3,42.3499988045121,4|0|2|0,3:0|3:0|3:2|3:0,0:0:0:0:
471,258,107906,2,0,L|512:248,3,42.3499988045121,4|0|0|0,3:0|3:0|3:0|3:0,0:0:0:0:
410,153,108249,2,0,L|452:144,3,42.3499988045121,4|0|2|0,3:0|3:0|3:2|3:0,0:0:0:0:
276,144,108592,5,2,1:3:0:0:
235,123,108678,1,0,3:0:0:0:
206,88,108764,1,0,3:0:0:0:
197,43,108849,1,0,3:0:0:0:
152,8,108935,5,2,1:3:0:0:
105,11,109021,1,0,3:0:0:0:
69,40,109106,1,2,3:2:0:0:
53,83,109192,1,0,3:0:0:0:
67,128,109278,1,2,3:2:0:0:
108,152,109364,1,0,3:0:0:0:
139,198,109449,5,2,1:3:0:0:
141,243,109535,1,0,3:0:0:0:
128,287,109621,2,0,B|109:325|109:325|82:357,1,84.6999976090241,8|2,0:0|0:2,0:0:0:0:
2,264,109964,6,0,B|54:248|54:248|105:252,1,105.000004005432,4|10,1:2|1:2,0:0:0:0:
312,352,110649,2,0,L|262:339,1,52.5000020027161,0|2,1:0|1:2,0:0:0:0:
280,224,110992,1,8,0:0:0:0:
280,224,111164,2,0,L|330:237,1,52.5000020027161,2|0,1:2|1:0,0:0:0:0:
336,44,111678,2,0,B|280:48|280:48|239:75,1,105.000004005432,10|0,1:2|0:0,0:0:0:0:
352,128,112192,6,0,L|404:124,1,52.5000020027161,2|8,1:2|0:0,0:0:0:0:
240,75,112535,2,0,L|187:78,1,52.5000020027161,2|0,1:2|1:0,0:0:0:0:
172,296,113049,6,0,P|148:285|127:269,1,52.5000020027161,8|0,0:0|1:0,0:0:0:0:
172,172,113392,1,0,0:0:0:0:
251,153,113564,1,0,0:0:0:0:
227,230,113735,1,10,1:2:0:0:
251,153,113906,1,0,0:0:0:0:
328,115,114078,6,0,P|379:109|431:118,1,105.000004005432,2|8,1:2|0:0,0:0:0:0:
480,192,114592,1,0,1:0:0:0:
480,192,114764,1,0,0:0:0:0:
428,256,114935,1,0,0:0:0:0:
428,256,115106,1,10,1:2:0:0:
236,331,115449,6,0,P|287:324|334:346,1,105.000004005432,0|10,1:0|1:2,0:0:0:0:
124,352,116135,2,0,L|67:333,1,52.5000020027161,0|2,1:0|1:2,0:0:0:0:
144,220,116478,1,8,0:0:0:0:
144,220,116649,2,0,L|193:236,1,52.5000020027161,2|0,1:2|1:0,0:0:0:0:
334,345,117164,2,0,B|355:295|355:295|351:245,1,105.000004005432,10|0,1:2|0:0,0:0:0:0:
240,136,117678,5,2,1:2:0:0:
328,152,117849,1,10,1:2:0:0:
398,95,118021,1,2,1:2:0:0:
492,244,118192,5,0,1:0:0:0:
492,244,118364,2,0,L|505:193,1,52.5000020027161,2|0,1:2|0:0,0:0:0:0:
368,248,118706,2,0,L|381:197,1,52.5000020027161,2|0,1:2|0:0,0:0:0:0:
416,356,119049,2,0,L|429:305,1,52.5000020027161,2|0,1:2|0:0,0:0:0:0:
292,360,119392,1,2,0:0:0:0:
