osu file format v14

[General]
AudioFilename: Feint - Face Down (Cut Ver.).mp3
AudioLeadIn: 0
PreviewTime: 65645
Countdown: 0
SampleSet: None
StackLeniency: 0.6
Mode: 0
LetterboxInBreaks: 0
WidescreenStoryboard: 0

[Editor]
Bookmarks: 33159,44131,77049
DistanceSpacing: 0.2
BeatDivisor: 4
GridSize: 4
TimelineZoom: 2.599999

[Metadata]
Title:Face Down
TitleUnicode:Face Down
Artist:Feint
ArtistUnicode:Feint
Creator:phaZ
Version:Bonsai's Insane
Source:
Tags:Stjpa Bonsai dnb cut
BeatmapID:801441
BeatmapSetID:240329

[Difficulty]
HPDrainRate:7
CircleSize:4.2
OverallDifficulty:7.5
ApproachRate:9
SliderMultiplier:1.4
SliderTickRate:1

[Events]
//Background and Video events
0,0,"bg.png",0,0
//Break Periods
2,44330,53645
//Storyboard Layer 0 (Background)
//Storyboard Layer 1 (Fail)
//Storyboard Layer 2 (Pass)
//Storyboard Layer 3 (Foreground)
//Storyboard Sound Samples

[TimingPoints]
246,342.857142857143,4,2,98,15,1,0
16703,-181.818181818182,4,2,99,15,0,0
22188,-123.456790123457,4,2,1,20,0,0
44131,-100,4,2,2,50,0,0
54417,-90.9090909090909,4,3,1,50,0,0
64703,-83.3333333333333,4,1,1,50,0,0
66078,342.857142857143,4,3,1,80,1,1
66078,-83.3333333333333,4,3,1,80,0,1
85278,-83.3333333333333,4,3,1,80,0,0
88020,-83.3333333333333,4,3,1,80,0,1
107220,-83.3333333333333,4,3,1,80,0,0
109963,-123.456790123457,4,2,1,35,0,1
110049,-123.456790123457,4,2,1,27,0,0
110820,-123.456790123457,4,2,1,20,0,0

[Colours]
Combo1 : 240,244,62
Combo2 : 64,252,31
Combo3 : 36,194,255
Combo4 : 30,120,187
Combo5 : 226,253,187

[HitObjects]
80,232,16703,5,0,0:0:0:0:
144,273,18074,1,0,0:0:0:0:
220,277,19446,1,0,0:0:0:0:
289,243,20817,1,0,0:0:0:0:
327,176,22188,5,0,1:2:0:0:
162,188,22531,2,0,L|85:168,2,56.7000013842774,2|0|0,0:2|0:2|0:2,0:2:0:0:
226,260,23045,2,0,L|280:274,1,56.7000013842774,2|0,0:2|0:2,0:2:0:0:
345,346,23388,1,2,0:2:0:0:
372,253,23559,2,0,P|375:221|360:182,1,56.7000013842774,0|0,1:2|0:2,0:2:0:0:
222,131,23903,6,0,P|171:155|101:134,1,113.400002768555,2|0,0:2|0:2,0:2:0:0:
142,38,24416,1,2,1:2:0:0:
234,9,24588,1,2,0:2:0:0:
323,44,24759,1,2,0:2:0:0:
346,137,24931,2,0,L|327:214,1,56.7000013842774,0|0,1:2|0:2,0:2:0:0:
385,343,25274,6,0,L|398:287,1,56.7000013842774,2|0,0:2|0:2,0:2:0:0:
430,187,25616,1,2,0:2:0:0:
332,192,25788,1,2,1:2:0:0:
430,187,25959,1,2,0:2:0:0:
328,271,26130,1,2,1:2:0:0:
304,291,26216,1,0,0:2:0:0:
280,311,26302,6,0,L|218:308,1,56.7000013842774,2|0,1:2|0:2,0:2:0:0:
121,224,26645,2,0,L|183:227,1,56.7000013842774,2|0,0:2|0:2,0:2:0:0:
252,147,26988,1,2,0:2:0:0:
256,116,27073,1,0,0:2:0:0:
261,85,27159,1,2,1:2:0:0:
342,30,27331,2,0,P|374:27|413:42,1,56.7000013842774,2|0,0:2|0:2,0:2:0:0:
475,169,27674,6,0,L|468:225,1,56.7000013842774,0|0,1:2|0:2,0:2:0:0:
361,297,28017,2,0,P|305:301|262:337,1,113.400002768555,2|0,0:2|0:2,0:2:0:0:
162,359,28531,2,0,L|87:353,1,56.7000013842774,2|0,1:2|0:2,0:2:0:0:
41,268,28873,1,2,1:2:0:0:
41,268,29045,6,0,P|73:267|110:248,1,56.7000013842774,0|0,1:2|0:2,0:2:0:0:
189,156,29388,2,0,L|182:78,1,56.7000013842774,2|0,0:2|0:2,0:2:0:0:
180,28,29645,1,0,0:2:0:0:
180,28,29730,1,0,0:2:0:0:
105,89,29902,1,2,1:2:0:0:
114,184,30073,1,2,0:2:0:0:
195,235,30245,1,2,0:2:0:0:
308,154,30416,5,0,1:2:0:0:
204,154,30588,2,0,P|172:155|135:174,1,56.7000013842774,2|0,0:2|0:2,0:2:0:0:
99,314,30931,2,0,P|131:313|168:294,1,56.7000013842774,2|0,0:2|0:2,0:2:0:0:
308,154,31274,2,0,P|340:155|377:174,1,56.7000013842774,2|0,1:2|0:2,0:2:0:0:
417,310,31616,2,0,P|385:309|348:290,1,56.7000013842774,2|0,1:2|0:2,0:2:0:0:
260,219,31959,5,0,0:2:0:0:
260,219,32131,2,0,L|251:296,1,56.7000013842774,2|0,1:2|0:2,0:2:0:0:
246,354,32388,1,0,0:2:0:0:
246,354,32474,2,0,L|192:358,2,28.3500006921387,0|0|0,0:2|0:2|1:1,0:2:0:0:
341,339,32816,1,2,1:2:0:0:
408,269,32988,1,2,0:2:0:0:
411,172,33159,1,0,1:2:0:0:
163,239,33503,6,0,P|107:235|64:199,1,113.400002768555,2|0,0:2|0:2,0:2:0:0:
42,105,34016,2,0,L|52:29,1,56.7000013842774,2|0,1:2|0:2,0:2:0:0:
150,19,34359,1,2,1:2:0:0:
150,19,34531,6,0,L|142:75,1,56.7000013842774,0|0,1:2|0:2,0:2:0:0:
130,171,34873,1,2,0:2:0:0:
217,129,35045,1,0,0:2:0:0:
247,127,35130,1,0,0:2:0:0:
278,125,35216,1,0,0:2:0:0:
324,209,35388,1,2,1:2:0:0:
402,154,35559,1,2,0:2:0:0:
459,231,35730,1,2,0:2:0:0:
379,285,35902,1,0,1:2:0:0:
217,129,36245,6,0,P|218:97|237:60,1,56.7000013842774,2|0,0:2|0:2,0:2:0:0:
313,32,36588,1,2,0:2:0:0:
313,32,36759,1,2,1:2:0:0:
366,112,36930,1,2,0:2:0:0:
358,208,37102,1,2,1:2:0:0:
297,282,37273,1,2,1:2:0:0:
297,282,37616,6,0,P|265:289|233:315,1,56.7000013842774,2|0,0:2|1:2,0:2:0:0:
179,373,37959,1,2,0:2:0:0:
179,373,38130,1,2,0:2:0:0:
152,280,38302,1,2,1:2:0:0:
448,324,38645,5,0,1:2:0:0:
318,147,38988,6,0,L|245:145,1,56.7000013842774,2|0,0:2|0:2,0:2:0:0:
190,144,39245,1,0,0:2:0:0:
190,144,39330,1,0,0:2:0:0:
133,222,39502,1,2,1:2:0:0:
86,137,39674,2,0,L|90:80,1,56.7000013842774,0|2,0:2|0:2,0:2:0:0:
191,23,40016,5,0,1:2:0:0:
188,308,40359,5,2,0:2:0:0:
244,230,40530,1,0,0:2:0:0:
274,225,40616,1,0,0:2:0:0:
304,220,40702,2,0,L|345:214,2,28.3500006921387,0|0|0,0:2|0:2|1:2,0:2:0:0:
279,313,41045,1,2,0:2:0:0:
354,372,41216,1,2,0:2:0:0:
493,352,41388,5,0,1:2:0:0:
392,276,41559,6,0,L|383:205,1,56.7000013842774,2|0,0:2|0:2,0:2:0:0:
283,140,41902,2,0,L|290:196,1,56.7000013842774,2|0,0:2|0:2,0:2:0:0:
212,298,42245,2,0,L|203:227,1,56.7000013842774,2|0,1:2|0:2,0:2:0:0:
117,153,42588,1,2,1:2:0:0:
256,192,42759,12,4,44130,0:2:0:0:
164,255,54245,5,4,0:3:0:0:
164,255,54330,1,4,0:3:0:0:
164,255,54417,2,0,P|226:264|256:255,1,77.0000023498536,8|4,0:1|3:3,0:0:0:0:
325,325,54759,2,0,P|358:272|359:242,1,77.0000023498536,8|4,0:1|3:3,0:0:0:0:
353,128,55102,5,4,0:0:0:0:
353,128,55445,2,0,L|268:131,1,77.0000023498536,4|0,1:3|0:0,0:0:0:0:
162,196,55788,1,4,1:3:0:0:
285,232,55959,1,0,1:0:0:0:
170,293,56130,1,4,0:0:0:0:
295,332,56303,6,0,P|345:317|385:216,1,154.000004699707,4|0,1:3|0:0,0:0:0:0:
289,141,56817,2,0,P|239:156|199:257,1,154.000004699707,4|0,1:3|0:0,0:0:0:0:
295,332,57330,1,4,1:3:0:0:
164,332,57503,1,4,1:3:0:0:
295,332,57673,1,0,1:0:0:0:
290,242,57845,5,4,1:3:0:0:
290,242,58188,2,0,P|262:185|237:169,1,77.0000023498536,4|0,1:3|0:3,0:3:0:0:
139,111,58530,1,4,1:3:0:0:
139,111,58702,1,0,1:3:0:0:
71,222,58873,1,4,1:3:0:0:
71,222,59045,1,0,1:3:0:0:
181,291,59216,5,4,1:3:0:0:
181,291,59559,2,0,P|152:316|116:328,1,77.0000023498536,4|0,1:3|0:3,0:3:0:0:
5,263,59902,1,4,1:3:0:0:
5,263,60073,1,0,1:3:0:0:
109,183,60245,1,4,1:3:0:0:
324,300,60588,6,0,L|400:294,1,77.0000023498536,4|0,1:3|0:3,0:3:0:0:
511,156,60931,2,0,L|395:165,1,77.0000023498536,4|0,1:3|0:3,0:3:0:0:
303,175,61273,1,4,1:3:0:0:
303,175,61445,2,0,P|287:210|260:236,1,77.0000023498536,0|4,1:3|0:3,0:3:0:0:
144,279,61788,6,0,P|151:206|215:136,1,154.000004699707,4|0,1:3|0:3,0:3:0:0:
326,109,62303,2,0,L|158:95,1,154.000004699707,4|0,1:3|0:3,0:3:0:0:
41,83,62816,1,4,1:3:0:0:
116,0,62988,1,4,1:3:0:0:
172,96,63159,1,0,1:3:0:0:
70,178,63331,6,0,L|44:230,1,38.5000011749268,4|0,0:3|0:3,0:3:0:0:
110,251,63502,2,0,L|105:308,1,38.5000011749268,4|0,0:3|0:3,0:3:0:0:
170,316,63674,2,0,L|187:371,1,38.5000011749268,4|0,0:3|0:3,0:3:0:0:
251,350,63845,2,0,L|287:394,1,38.5000011749268,4|0,0:3|0:3,0:3:0:0:
341,338,64017,6,0,L|396:319,1,38.5000011749268,4|0,0:3|0:3,0:3:0:0:
364,258,64188,2,0,L|408:220,1,38.5000011749268,4|0,0:3|0:3,0:3:0:0:
367,169,64360,2,0,L|393:117,1,38.5000011749268,4|0,0:3|0:3,0:3:0:0:
334,88,64531,2,0,L|339:30,1,38.5000011749268,4|0,0:3|0:3,0:3:0:0:
261,39,64703,5,4,0:3:0:0:
259,57,65045,1,4,0:3:0:0:
257,73,65388,1,4,0:3:0:0:
414,55,65731,5,8,0:0:0:0:
323,235,66078,6,0,P|273:260|219:261,1,83.9999974365235,4|0,0:0|0:2,0:0:0:0:
122,148,66421,2,0,P|172:123|225:121,1,83.9999974365235,8|2,0:1|0:2,0:0:0:0:
276,155,66678,1,2,0:2:0:0:
276,155,66764,2,0,L|375:160,1,83.9999974365235,2|4,0:2|0:0,0:0:0:0:
499,125,67107,1,8,0:1:0:0:
489,283,67278,1,0,0:0:0:0:
359,159,67449,6,0,B|320:143|320:143|274:153,1,83.9999974365235,4|2,0:0|0:2,0:0:0:0:
174,241,67792,1,8,0:1:0:0:
183,89,67964,1,2,0:2:0:0:
184,68,68049,1,2,0:2:0:0:
184,46,68135,2,2,L|160:9,2,41.9999987182618,2|2|4,0:2|0:2|0:0,0:2:0:0:
179,166,68478,1,8,0:1:0:0:
316,202,68649,1,0,0:0:0:0:
211,284,68821,6,0,P|155:286|105:265,1,83.9999974365235,4|0,0:0|0:2,0:0:0:0:
56,110,69164,1,8,0:1:0:0:
25,249,69335,1,2,0:2:0:0:
23,270,69421,1,2,0:2:0:0:
21,290,69506,1,2,0:2:0:0:
149,199,69678,1,4,0:0:0:0:
133,367,69849,1,8,0:1:0:0:
254,283,70021,1,0,0:0:0:0:
254,283,70192,6,0,P|308:291|360:276,2,83.9999974365235,4|2|8,0:0|0:2|0:1,0:0:0:0:
149,199,70707,2,0,L|78:203,1,41.9999987182618,2|2,0:2|0:2,0:0:0:0:
196,139,70878,1,2,0:2:0:0:
122,274,71049,1,4,0:0:0:0:
265,191,71221,1,8,0:1:0:0:
75,339,71564,6,0,P|115:350|156:347,1,83.9999974365235,4|0,0:0|0:0,0:0:0:0:
299,211,71907,1,8,0:1:0:0:
274,336,72078,1,2,0:2:0:0:
276,356,72164,1,2,0:2:0:0:
278,376,72249,1,2,0:2:0:0:
156,347,72421,1,4,0:0:0:0:
343,325,72592,1,8,0:1:0:0:
216,269,72764,1,0,0:0:0:0:
361,167,72935,6,0,B|398:149|398:149|453:147,1,83.9999974365235,4|2,0:0|0:2,0:0:0:0:
512,293,73278,2,0,P|469:289|430:272,1,83.9999974365235,8|2,0:1|0:2,0:0:0:0:
364,249,73535,1,2,0:2:0:0:
364,249,73621,2,0,L|322:277,1,41.9999987182618,2|2,0:2|0:2,0:2:0:0:
419,204,73792,1,4,0:0:0:0:
255,209,73964,2,0,L|142:215,1,83.9999974365235,8|0,0:1|0:0,0:0:0:0:
17,253,74307,5,4,0:0:0:0:
73,106,74478,2,8,P|96:71|130:46,1,83.9999974365235,2|8,0:2|0:1,0:1:0:0:
226,128,74821,2,0,P|264:111|306:109,1,83.9999974365235,2|0,0:2|0:2,0:0:0:0:
334,232,75164,2,0,P|375:239|411:260,1,83.9999974365235,4|8,0:0|0:1,0:0:0:0:
450,381,75507,6,0,B|395:380|395:380|344:352|344:352|264:347,1,167.999994873047,4|4,0:0|0:0,0:0:0:0:
150,384,76021,2,0,P|182:308|167:226,1,167.999994873047,8|0,0:1|0:1,0:0:0:0:
50,144,76535,1,4,0:0:0:0:
209,151,76707,2,0,L|303:153,1,83.9999974365235,8|0,0:1|0:0,0:0:0:0:
419,49,77049,6,0,P|413:90|421:131,1,83.9999974365235,4|0,0:0|0:1,0:0:0:0:
512,265,77392,1,8,0:1:0:0:
394,202,77564,1,2,0:2:0:0:
373,200,77649,1,2,0:2:0:0:
351,198,77735,1,2,0:2:0:0:
495,150,77907,1,4,0:0:0:0:
439,308,78078,1,8,0:1:0:0:
394,202,78249,1,0,0:0:0:0:
317,352,78421,6,0,B|277:363|277:363|223:357,1,83.9999974365235,4|2,0:0|0:2,0:0:0:0:
109,245,78764,2,0,P|149:234|191:238,1,83.9999974365235,8|2,0:1|0:2,0:0:0:0:
264,261,79021,1,2,0:2:0:0:
280,248,79107,1,2,0:2:0:0:
297,235,79192,1,2,0:2:0:0:
313,222,79278,1,4,0:0:0:0:
203,313,79449,1,8,0:1:0:0:
324,325,79621,1,0,0:0:0:0:
191,238,79792,6,0,P|163:159|183:79,1,167.999994873047,4|8,0:0|0:1,0:0:0:0:
321,39,80307,1,2,0:2:0:0:
300,38,80392,1,2,0:2:0:0:
278,37,80478,1,2,0:2:0:0:
335,121,80649,1,4,0:0:0:0:
211,15,80821,1,8,0:1:0:0:
124,103,80992,1,0,0:0:0:0:
297,119,81164,6,0,L|417:123,1,83.9999974365235,4|2,0:0|0:2,0:0:0:0:
493,259,81507,2,0,L|409:256,1,83.9999974365235,8|2,0:1|0:2,0:0:0:0:
348,303,81764,1,2,0:2:0:0:
348,303,81849,2,0,L|264:300,1,83.9999974365235,2|4,0:2|0:0,0:0:0:0:
109,361,82192,1,8,0:1:0:0:
88,100,82535,6,0,P|49:82|8:79,1,83.9999974365235,4|0,0:0|0:1,0:0:0:0:
43,243,82878,2,0,L|166:236,1,83.9999974365235,8|2,0:1|0:2,0:0:0:0:
183,180,83135,1,2,0:2:0:0:
183,180,83221,2,2,P|199:161|215:131,1,41.9999987182618,2|2,0:2|0:2,0:2:0:0:
200,67,83392,1,4,0:0:0:0:
260,221,83564,1,8,0:1:0:0:
107,166,83735,1,0,0:0:0:0:
258,132,83907,6,0,P|299:126|340:135,1,83.9999974365235,4|2,0:0|0:2,0:0:0:0:
463,262,84249,2,0,L|455:164,1,83.9999974365235,8|2,0:1|0:2,0:0:0:0:
447,101,84507,1,2,0:2:0:0:
447,101,84592,1,2,0:2:0:0:
379,227,84764,1,4,0:0:0:0:
258,132,84935,2,0,P|217:123|175:128,1,83.9999974365235,8|0,0:1|0:1,0:0:0:0:
33,223,85278,5,4,0:0:0:0:
42,236,85621,1,4,0:0:0:0:
51,249,85964,1,4,0:0:0:0:
60,262,86307,1,4,0:0:0:0:
195,195,86649,5,4,0:0:0:0:
208,214,86734,1,0,0:0:0:0:
220,231,86820,1,4,0:0:0:0:
232,248,86906,1,0,0:0:0:0:
260,256,86992,1,4,0:0:0:0:
272,274,87077,1,0,0:0:0:0:
284,291,87163,1,4,0:0:0:0:
296,308,87249,1,0,0:0:0:0:
325,313,87335,6,0,L|350:356,1,41.9999987182618,4|0,0:0|0:0,0:0:0:0:
350,241,87507,2,0,L|326:206,1,41.9999987182618,4|0,0:0|0:0,0:0:0:0:
436,272,87678,1,8,0:1:0:0:
116,128,88021,6,0,P|79:108|51:77,1,83.9999974365235,4|0,0:0|0:2,0:0:0:0:
205,16,88364,2,0,L|328:10,1,83.9999974365235,8|2,0:1|0:2,0:0:0:0:
368,9,88621,1,2,0:2:0:0:
368,9,88707,1,2,0:2:0:0:
324,130,88878,1,4,0:0:0:0:
205,16,89049,1,8,0:1:0:0:
159,143,89221,1,0,0:0:0:0:
324,130,89392,6,0,B|365:129|365:129|401:152,1,83.9999974365235,4|2,0:0|0:2,0:0:0:0:
478,305,89735,2,0,P|435:304|396:290,1,83.9999974365235,8|2,0:1|0:2,0:0:0:0:
335,246,89992,1,2,0:2:0:0:
335,246,90078,2,0,L|270:247,1,41.9999987182618,2|2,0:2|0:2,0:0:0:0:
208,305,90249,1,4,0:0:0:0:
288,162,90421,1,8,0:1:0:0:
296,331,90592,1,0,0:0:0:0:
201,195,90764,6,0,B|120:171|120:171|23:205,1,167.999994873047,4|8,0:0|0:1,0:0:0:0:
97,362,91278,1,2,0:2:0:0:
117,357,91364,1,2,0:2:0:0:
137,351,91449,1,2,0:2:0:0:
0,306,91621,1,4,0:0:0:0:
151,257,91792,2,0,L|265:218,1,83.9999974365235,8|0,0:1|0:0,0:0:0:0:
379,133,92135,6,0,P|364:172|364:214,2,83.9999974365235,4|2|8,0:0|0:2|0:1,0:0:0:0:
501,28,92649,1,2,0:2:0:0:
501,28,92735,1,2,0:2:0:0:
501,28,92821,2,0,B|460:39|460:39|414:33,1,83.9999974365235,2|4,0:2|0:0,0:0:0:0:
240,50,93164,1,8,0:1:0:0:
442,254,93507,6,0,P|441:295|427:335,1,83.9999974365235,4|0,0:0|0:2,0:0:0:0:
243,349,93849,1,8,0:1:0:0:
339,218,94021,1,2,0:2:0:0:
340,197,94107,1,2,0:2:0:0:
341,176,94192,2,0,L|380:132,1,41.9999987182618,2|2,0:2|0:2,0:0:0:0:
263,178,94364,1,4,0:0:0:0:
421,213,94535,1,8,0:1:0:0:
267,281,94707,1,0,0:0:0:0:
112,347,94878,6,0,B|108:305|108:305|90:267,1,83.9999974365235,4|2,0:0|0:2,0:0:0:0:
0,125,95221,2,0,L|110:117,1,83.9999974365235,8|2,0:1|0:2,0:0:0:0:
163,116,95478,1,2,0:2:0:0:
163,116,95564,1,2,0:2:0:0:
66,194,95735,1,4,0:0:0:0:
225,181,95907,2,0,P|266:183|305:199,1,83.9999974365235,8|0,0:1|0:2,0:0:0:0:
394,365,96249,5,4,0:0:0:0:
381,210,96421,2,0,P|389:169|410:133,1,83.9999974365235,2|8,0:2|0:1,0:0:0:0:
496,22,96764,2,0,P|456:35|414:34,1,83.9999974365235,2|0,0:2|0:2,0:0:0:0:
277,7,97107,2,0,P|308:34|328:71,1,83.9999974365235,4|8,0:0|0:1,0:0:0:0:
275,195,97449,6,0,B|232:159|232:159|210:105|210:105|151:51,1,167.999994873047,4|4,0:0|0:0,0:0:0:0:
16,43,97964,2,0,P|19:125|67:193,1,167.999994873047,8|0,0:1|0:1,0:0:0:0:
241,135,98478,1,4,0:0:0:0:
241,135,98649,2,0,L|162:218,1,83.9999974365235,8|0,0:1|0:0,0:0:0:0:
71,315,98992,6,0,P|112:314|152:327,1,83.9999974365235,4|0,0:0|0:2,0:0:0:0:
324,355,99335,1,8,0:1:0:0:
205,260,99507,1,2,0:2:0:0:
188,247,99592,1,2,0:2:0:0:
170,234,99678,1,2,0:2:0:0:
296,268,99849,1,4,0:0:0:0:
156,348,100021,2,0,P|116:361|74:360,1,83.9999974365235,8|0,0:1|0:2,0:0:0:0:
2,181,100364,6,0,B|42:169|42:169|84:171,1,83.9999974365235,4|2,0:0|0:2,0:0:0:0:
205,260,100707,2,0,L|232:142,1,83.9999974365235,8|2,0:1|0:2,0:0:0:0:
303,163,100964,1,2,0:2:0:0:
300,183,101049,1,2,0:2:0:0:
296,203,101135,1,2,0:2:0:0:
292,223,101221,1,4,0:0:0:0:
249,75,101392,1,8,0:1:0:0:
219,201,101564,1,0,0:0:0:0:
360,106,101735,6,0,P|442:106|511:152,1,167.999994873047,4|8,0:0|0:1,0:0:0:0:
394,283,102249,1,2,0:2:0:0:
398,263,102335,1,2,0:2:0:0:
402,243,102421,1,2,0:2:0:0:
483,359,102592,1,4,0:0:0:0:
323,359,102764,2,0,L|213:357,1,83.9999974365235,8|0,0:1|0:0,0:0:0:0:
56,351,103107,6,0,P|87:323|107:286,1,83.9999974365235,4|2,0:0|0:2,0:0:0:0:
185,139,103449,2,0,L|75:141,1,83.9999974365235,8|2,0:1|0:2,0:0:0:0:
65,214,103707,1,2,0:2:0:0:
65,214,103792,2,0,L|148:212,1,83.9999974365235,2|4,0:2|0:0,0:0:0:0:
314,315,104135,1,8,0:1:0:0:
398,59,104478,6,0,P|439:55|479:66,1,83.9999974365235,4|0,0:0|0:2,0:0:0:0:
424,211,104821,2,0,L|316:216,1,83.9999974365235,8|2,0:1|0:2,0:0:0:0:
264,221,105078,1,2,0:2:0:0:
264,221,105164,1,2,0:2:0:0:
384,295,105335,1,4,0:0:0:0:
374,137,105507,1,8,0:1:0:0:
485,271,105678,1,0,0:0:0:0:
340,214,105849,6,0,P|298:208|258:219,1,83.9999974365235,4|2,0:0|0:2,0:0:0:0:
147,316,106192,2,0,L|144:213,1,83.9999974365235,8|2,0:1|0:2,0:0:0:0:
145,156,106449,1,2,0:2:0:0:
145,156,106535,2,0,L|179:102,1,41.9999987182618,2|2,0:2|0:2,0:0:0:0:
217,194,106707,1,4,0:0:0:0:
62,172,106878,1,8,0:1:0:0:
133,34,107049,1,0,0:0:0:0:
291,57,107221,5,4,0:0:0:0:
287,73,107564,1,4,0:0:0:0:
284,89,107907,1,4,0:0:0:0:
280,105,108249,1,4,0:0:0:0:
109,153,108592,5,4,0:0:0:0:
113,173,108678,1,0,0:0:0:0:
118,193,108764,2,0,L|131:256,1,41.9999987182618,4|0,0:0|0:0,0:0:0:0:
200,297,108935,1,4,0:0:0:0:
204,277,109021,1,0,0:0:0:0:
209,257,109107,2,0,L|222:194,1,41.9999987182618,4|0,0:0|0:0,0:0:0:0:
295,157,109278,1,4,0:0:0:0:
299,177,109364,1,0,0:0:0:0:
304,197,109450,2,0,L|317:260,1,41.9999987182618,4|0,0:0|0:0,0:0:0:0:
370,317,109621,1,8,0:1:0:0:
439,87,109964,5,2,0:0:0:0:
294,156,110307,2,0,P|268:160|229:155,2,56.7000013842774,2|0|0,0:2|0:2|0:2,0:2:0:0:
350,70,110821,2,0,L|345:8,1,56.7000013842774,2|0,0:0|0:0,0:0:0:0:
231,39,111164,2,0,P|178:47|113:157,2,170.100004152832,2|2|2,0:0|0:0|0:0,0:0:0:0:
289,129,112364,1,2,0:0:0:0:
351,216,112535,1,2,0:0:0:0:
409,306,112707,1,0,0:0:0:0:
178,321,113049,6,0,L|115:319,1,56.7000013842774,2|0,0:0|0:0,0:0:0:0:
66,232,113392,2,0,L|1:228,2,56.7000013842774,2|2|2,0:0|0:0|0:0,0:0:0:0:
168,239,113907,1,2,0:0:0:0:
269,244,114078,1,2,0:0:0:0:
187,68,114421,6,0,L|125:65,1,56.7000013842774,2|0,0:0|0:0,0:0:0:0:
72,149,114764,1,2,0:0:0:0:
72,149,114935,1,2,0:0:0:0:
174,154,115107,1,2,0:0:0:0:
328,275,115449,5,0,0:0:0:0:
143,256,115792,2,0,P|126:202|72:166,1,113.400002768555,2|0,0:2|0:2,0:2:0:0:
1,233,116307,2,0,L|51:259,1,56.7000013842774,2|0,0:0|0:0,0:0:0:0:
107,344,116649,1,2,0:0:0:0:
203,334,116821,1,0,0:0:0:0:
227,167,117164,6,0,P|273:136|329:139,1,113.400002768555,2|0,0:2|0:2,0:2:0:0:
339,244,117678,1,2,0:0:0:0:
354,344,117849,2,0,L|430:365,1,56.7000013842774,2|2,0:0|0:0,0:0:0:0:
504,322,118192,1,0,0:0:0:0:
489,188,118364,5,2,0:0:0:0:
466,190,118707,1,2,0:0:0:0:
443,192,119049,1,2,0:0:0:0:
420,193,119392,1,2,0:0:0:0:
