osu file format v14

[General]
AudioFilename: audio.mp3
AudioLeadIn: 0
PreviewTime: 64687
Countdown: 0
SampleSet: Normal
StackLeniency: 0.7
Mode: 2
LetterboxInBreaks: 0
WidescreenStoryboard: 1

[Editor]
DistanceSpacing: 1
BeatDivisor: 4
GridSize: 32
TimelineZoom: 2.5

[Metadata]
Title:Face Down (Cut Ver.)
TitleUnicode:Face Down (Cut Ver.)
Artist:Feint
ArtistUnicode:Feint
Creator:Nelly
Version:Salad
Source:
Tags:electronic instrumental dnb drum and bass liquicity voyage melodic edm dance music
BeatmapID:2845065
BeatmapSetID:1376539

[Difficulty]
HPDrainRate:4
CircleSize:3
OverallDifficulty:7
ApproachRate:7
SliderMultiplier:1.5
SliderTickRate:1

[Events]
//Background and Video events
0,0,"bg.jpg",0,0
//Break Periods
//Storyboard Layer 0 (Background)
//Storyboard Layer 1 (Fail)
//Storyboard Layer 2 (Pass)
//Storyboard Layer 3 (Foreground)
//Storyboard Layer 4 (Overlay)
//Storyboard Sound Samples

[TimingPoints]
230,342.857142857143,4,2,1,40,1,0
63315,-100,4,2,1,40,0,0
65972,-100,4,2,1,5,0,0
66058,-100,4,1,1,65,0,1
87658,-100,4,1,1,65,0,0
88001,-100,4,1,1,65,0,1
109944,-100,4,1,2,65,0,0
111315,-100,4,1,2,58,0,0
112687,-100,4,1,2,50,0,0
114058,-100,4,1,2,42,0,0
115430,-100,4,1,2,35,0,0

[Colours]
Combo1 : 108,182,255
Combo2 : 135,248,242

[HitObjects]
152,299,22172,6,0,L|147:149,1,150,4|0,0:0|0:0,0:0:0:0:
297,103,22858,1,0,0:0:0:0:
371,105,23030,1,0,0:0:0:0:
221,296,23372,6,0,P|183:284|219:149,1,225,0|0,0:0|0:0,0:0:0:0:
444,248,24401,1,0,0:0:0:0:
471,180,24572,1,0,0:0:0:0:
441,113,24744,1,0,0:0:0:0:
373,86,24915,6,0,L|224:89,1,150,0|2,0:0|0:0,0:0:0:0:
374,267,25601,1,2,0:0:0:0:
377,192,25772,1,0,0:0:0:0:
229,158,26115,1,0,0:0:0:0:
154,154,26287,6,0,L|151:304,1,150,2|2,0:0|0:0,0:0:0:0:
301,324,26972,2,0,L|304:174,1,150,2|2,0:0|0:0,0:0:0:0:
19,87,27658,5,0,0:0:0:0:
169,283,28001,2,0,P|188:249|92:123,1,225,0|0,0:0|0:0,0:0:0:0:
241,88,28858,6,0,P|303:86|356:222,1,225,0|0,0:0|0:0,0:0:0:0:
58,285,30058,1,0,0:0:0:0:
34,222,30230,1,0,0:0:0:0:
70,171,30401,5,0,0:0:0:0:
145,160,30572,1,2,0:0:0:0:
294,255,30915,2,0,L|144:251,2,150,2|2|2,0:0|0:0|0:0,0:0:0:0:
370,257,31772,6,0,L|373:107,1,150,0|2,0:0|0:0,0:0:0:0:
147,87,32630,1,0,0:0:0:0:
72,84,32801,1,0,0:0:0:0:
342,211,33144,5,2,0:0:0:0:
492,324,33487,2,0,P|502:254|395:162,1,225,0|0,0:0|0:0,0:0:0:0:
245,59,34344,6,0,L|470:52,1,225,0|0,0:0|0:0,0:0:0:0:
245,260,35372,1,0,0:0:0:0:
221,191,35544,1,0,0:0:0:0:
256,126,35715,1,0,0:0:0:0:
326,108,35887,6,0,L|176:106,1,150,0|2,0:0|0:0,0:0:0:0:
326,301,36572,1,2,0:0:0:0:
392,266,36744,1,0,0:0:0:0:
423,200,36915,1,2,0:0:0:0:
408,128,37087,1,0,0:0:0:0:
354,78,37258,6,0,L|204:74,1,150,0|2,0:0|0:0,0:0:0:0:
355,280,37944,1,2,0:0:0:0:
377,203,38115,1,0,0:0:0:0:
302,206,38287,1,2,0:0:0:0:
17,302,38630,6,0,L|13:153,1,150,0|0,0:0|0:0,0:0:0:0:
163,105,39315,1,0,0:0:0:0:
238,101,39487,1,0,0:0:0:0:
388,235,39830,1,0,0:0:0:0:
313,231,40001,5,0,0:0:0:0:
164,222,40344,2,0,P|131:212|168:76,1,225,0|0,0:0|0:0,0:0:0:0:
243,76,41030,1,0,0:0:0:0:
247,150,41201,1,0,0:0:0:0:
89,181,41372,5,0,0:0:0:0:
85,255,41544,1,2,0:0:0:0:
235,280,41887,2,0,L|386:275,2,150,2|2|2,0:0|0:0|0:0,0:0:0:0:
160,280,42744,6,0,L|156:129,1,150,2|0,0:0|0:0,0:0:0:0:
381,80,43601,1,0,0:0:0:0:
456,77,43772,1,0,0:0:0:0:
381,80,43944,1,0,0:0:0:0:
224,106,44115,6,0,L|221:255,1,150,4|8,0:0|0:0,0:0:0:0:
371,270,44801,1,2,0:0:0:0:
373,195,44972,1,2,0:0:0:0:
224,98,45315,6,0,P|162:96|109:232,1,225,2|10,0:0|0:0,0:0:0:0:
331,294,46344,1,2,0:0:0:0:
256,287,46515,1,10,0:0:0:0:
253,212,46687,1,2,0:0:0:0:
411,281,46858,6,0,P|440:263|409:173,1,150,4|8,0:0|0:0,0:0:0:0:
333,164,47372,1,0,0:0:0:0:
259,74,47544,2,0,L|409:72,1,150,2|10,0:0|0:0,0:0:0:0:
123,275,48230,6,0,P|70:266|70:184,1,150,2|8,0:0|0:0,0:0:0:0:
146,168,48744,1,0,0:0:0:0:
221,81,48915,2,0,L|71:79,1,150,2|10,0:0|0:0,0:0:0:0:
357,280,49601,6,0,L|361:130,1,150,2|8,0:0|0:0,0:0:0:0:
211,63,50287,1,2,0:0:0:0:
137,60,50458,1,2,0:0:0:0:
287,279,50801,6,0,P|336:272|355:127,1,225,2|10,0:0|0:0,0:0:0:0:
130,123,51830,1,2,0:0:0:0:
205,116,52001,1,10,0:0:0:0:
280,109,52172,1,2,0:0:0:0:
123,224,52344,5,4,0:0:0:0:
119,294,52515,1,2,0:0:0:0:
269,326,52858,2,0,L|422:323,1,150,2|2,0:0|0:0,0:0:0:0:
269,237,53544,6,0,P|241:209|318:80,1,225,2|8,0:0|0:0,0:0:0:0:
394,282,54230,1,10,1:3:0:0:
468,270,54401,1,8,1:0:0:0:
491,200,54572,1,10,1:3:0:0:
462,132,54744,1,8,1:0:0:0:
395,102,54915,1,10,1:3:0:0:
236,100,55087,6,0,P|189:148|235:198,1,150,2|2,0:3|0:3,0:0:0:0:
387,199,55772,1,2,0:3:0:0:
462,204,55944,2,0,P|489:248|429:314,1,150,2|2,0:0|0:0,0:0:0:0:
275,306,56458,6,0,L|126:302,1,150,2|2,0:3|0:3,0:0:0:0:
121,232,56972,1,0,0:0:0:0:
270,161,57315,1,2,0:0:0:0:
345,164,57487,1,2,0:3:0:0:
270,161,57658,1,2,0:0:0:0:
112,153,57830,6,0,P|68:145|71:56,1,150,6|2,0:3|0:3,0:0:0:0:
145,43,58344,1,2,0:0:0:0:
220,240,58515,2,0,L|67:235,1,150,2|2,0:3|0:3,0:0:0:0:
356,349,59201,6,0,L|358:198,1,150,2|2,0:3|0:3,0:0:0:0:
208,107,59887,1,2,0:3:0:0:
283,104,60058,1,2,0:0:0:0:
358,102,60230,1,2,0:3:0:0:
73,296,60572,6,0,P|38:279|69:195,1,150,2|2,0:3|0:3,0:0:0:0:
220,185,61258,1,2,0:3:0:0:
295,91,61430,2,0,L|146:88,1,150,2|2,0:3|0:3,0:0:0:0:
303,280,61944,6,0,P|347:272|344:183,1,150,2|2,0:3|0:3,0:0:0:0:
270,167,62458,1,2,0:3:0:0:
120,159,62801,1,2,0:3:0:0:
116,83,62972,1,2,0:3:0:0:
191,75,63144,1,2,0:3:0:0:
348,70,63315,5,2,0:3:0:0:
423,78,63487,1,2,0:3:0:0:
348,70,63658,1,2,0:3:0:0:
258,207,63830,1,2,0:3:0:0:
254,132,64001,1,2,0:3:0:0:
343,279,64172,1,2,0:3:0:0:
347,204,64344,1,2,0:3:0:0:
258,188,64515,1,2,0:3:0:0:
100,182,64687,5,6,0:3:0:0:
256,192,65030,12,8,65715,0:0:0:0:
342,104,66058,6,0,P|386:112|383:200,1,150,4|8,0:0|0:0,0:0:0:0:
234,241,66744,1,2,0:2:0:0:
229,166,66915,1,2,0:3:0:0:
305,151,67087,1,8,0:0:0:0:
20,312,67430,6,0,L|23:162,1,150,2|8,0:3|0:0,0:0:0:0:
173,64,68115,1,2,0:2:0:0:
98,62,68287,1,2,0:3:0:0:
23,61,68458,1,8,0:0:0:0:
308,307,68801,6,0,L|311:157,1,150,6|8,0:3|0:0,0:0:0:0:
161,125,69487,1,2,0:2:0:0:
86,126,69658,1,2,0:3:0:0:
161,125,69830,1,8,0:0:0:0:
446,231,70172,6,0,P|475:197|423:124,1,150,2|8,0:3|0:0,0:0:0:0:
273,43,70858,1,2,0:2:0:0:
348,41,71030,1,2,0:3:0:0:
423,40,71201,1,8,0:0:0:0:
138,279,71544,6,0,P|101:258|137:178,1,150,2|8,0:3|0:0,0:0:0:0:
288,172,72230,1,2,0:2:0:0:
363,173,72401,1,2,0:3:0:0:
438,172,72572,1,8,0:0:0:0:
154,177,72915,6,0,P|110:169|113:80,1,150,2|8,0:3|0:0,0:0:0:0:
263,143,73601,1,2,0:2:0:0:
259,68,73772,1,2,0:3:0:0:
184,53,73944,1,8,0:0:0:0:
469,214,74287,5,2,0:3:0:0:
473,139,74458,1,0,0:0:0:0:
293,86,74801,2,0,L|446:83,2,150,0|2|0,0:0|0:3|0:0,0:0:0:0:
135,99,75658,6,0,P|89:151|133:205,1,150,0|8,0:0|0:0,0:0:0:0:
284,302,76344,1,0,0:0:0:0:
209,300,76515,1,0,0:0:0:0:
134,298,76687,1,8,0:0:0:0:
419,261,77030,6,0,P|463:253|460:164,1,150,4|8,0:0|0:0,0:0:0:0:
311,135,77715,1,2,0:2:0:0:
386,130,77887,1,2,0:3:0:0:
390,59,78058,1,8,0:0:0:0:
105,265,78401,6,0,L|254:261,1,150,2|8,0:3|0:0,0:0:0:0:
105,147,79087,1,2,0:2:0:0:
30,144,79258,1,2,0:3:0:0:
105,147,79430,1,8,0:0:0:0:
390,156,79772,6,0,P|434:207|387:256,1,150,6|8,0:3|0:0,0:0:0:0:
238,254,80458,1,2,0:2:0:0:
163,252,80630,1,2,0:3:0:0:
88,251,80801,1,8,0:0:0:0:
373,295,81144,6,0,P|401:264|347:189,1,150,2|8,0:3|0:0,0:0:0:0:
198,97,81830,1,2,0:2:0:0:
272,95,82001,1,2,0:3:0:0:
347,94,82172,1,8,0:0:0:0:
62,307,82515,6,0,L|57:155,1,150,2|8,0:3|0:0,0:0:0:0:
207,154,83201,1,2,0:2:0:0:
211,79,83372,1,2,0:3:0:0:
136,64,83544,1,8,0:0:0:0:
421,285,83887,6,0,P|465:277|462:188,1,150,2|8,0:3|0:0,0:0:0:0:
312,151,84572,1,2,0:2:0:0:
386,149,84744,1,2,0:3:0:0:
461,148,84915,1,8,0:0:0:0:
177,284,85258,5,2,0:3:0:0:
102,282,85430,1,0,0:0:0:0:
253,205,85772,2,0,L|404:200,2,150,0|0|0,0:0|0:0|0:0,0:0:0:0:
178,203,86630,5,2,0:3:0:0:
175,128,86801,1,2,0:3:0:0:
250,108,86972,1,2,0:3:0:0:
323,110,87144,1,2,0:3:0:0:
382,155,87315,1,2,0:3:0:0:
405,225,87487,1,2,0:3:0:0:
383,296,87658,1,8,0:0:0:0:
99,317,88001,6,0,L|93:166,1,150,4|8,0:0|0:0,0:0:0:0:
243,141,88687,1,2,0:2:0:0:
247,64,88858,1,0,0:0:0:0:
172,55,89030,1,8,0:0:0:0:
457,320,89372,6,0,L|463:169,1,150,2|8,0:3|0:0,0:0:0:0:
313,84,90058,2,0,L|462:78,1,150,0|8,0:0|0:0,0:0:0:0:
313,333,90744,6,0,L|307:182,1,150,6|8,0:3|0:0,0:0:0:0:
157,271,91430,2,0,L|151:120,1,150,2|8,0:2|0:0,0:0:0:0:
301,65,92115,6,0,L|457:60,1,150,2|8,0:3|0:0,0:0:0:0:
301,255,92801,1,2,0:2:0:0:
297,178,92972,1,2,0:3:0:0:
372,169,93144,1,8,0:0:0:0:
88,270,93487,6,0,P|42:253|67:170,1,150,2|8,0:3|0:0,0:0:0:0:
213,158,94172,1,2,0:2:0:0:
287,157,94344,1,2,0:3:0:0:
362,156,94515,1,8,0:0:0:0:
77,317,94858,6,0,P|61:269|126:206,1,150,2|8,0:3|0:0,0:0:0:0:
276,113,95544,2,0,L|126:110,1,150,0|8,0:0|0:0,0:0:0:0:
412,291,96230,5,2,0:3:0:0:
415,216,96401,1,0,0:0:0:0:
266,130,96744,2,0,L|417:125,1,150,0|2,0:0|0:3,0:0:0:0:
130,314,97430,6,0,P|96:303|128:220,1,150,0|2,0:0|0:3,0:0:0:0:
200,220,97944,1,8,0:0:0:0:
350,122,98287,1,2,0:2:0:0:
276,121,98458,1,2,0:3:0:0:
201,120,98630,1,8,0:0:0:0:
486,304,98972,6,0,L|491:153,1,150,4|8,0:0|0:0,0:0:0:0:
341,78,99658,1,2,0:2:0:0:
415,75,99830,1,0,0:0:0:0:
490,72,100001,1,8,0:0:0:0:
205,339,100344,6,0,L|200:188,1,150,2|8,0:3|0:0,0:0:0:0:
50,288,101030,2,0,L|45:137,1,150,0|8,0:0|0:0,0:0:0:0:
330,75,101715,6,0,L|176:72,1,150,6|8,0:3|0:0,0:0:0:0:
30,193,102401,2,0,L|184:190,1,150,2|8,0:2|0:0,0:0:0:0:
330,341,103087,6,0,L|325:190,1,150,2|8,0:3|0:0,0:0:0:0:
175,138,103772,1,2,0:2:0:0:
100,142,103944,1,2,0:3:0:0:
175,138,104115,1,8,0:0:0:0:
460,273,104458,6,0,P|490:247|435:169,1,150,2|8,0:3|0:0,0:0:0:0:
293,145,105144,1,0,0:0:0:0:
289,68,105315,1,2,0:3:0:0:
364,59,105487,1,8,0:0:0:0:
79,303,105830,6,0,P|47:283|90:205,1,150,2|8,0:3|0:0,0:0:0:0:
240,118,106515,2,0,L|91:113,1,150,0|8,0:0|0:0,0:0:0:0:
376,282,107201,5,2,0:3:0:0:
380,207,107372,1,2,0:2:0:0:
231,113,107715,2,0,L|381:108,2,150,2|2|2,0:2|0:2|0:2,0:0:0:0:
140,243,108572,5,2,0:3:0:0:
136,168,108744,1,2,0:3:0:0:
226,306,108915,1,2,0:3:0:0:
230,231,109087,1,2,0:3:0:0:
140,85,109258,1,2,0:3:0:0:
65,89,109430,1,2,0:3:0:0:
140,85,109601,1,8,0:0:0:0:
425,124,109944,5,4,0:0:0:0:
256,192,110287,12,0,115430,0:0:0:0:
