osu file format v14

[General]
AudioFilename: audio.mp3
AudioLeadIn: 0
PreviewTime: 77576
Countdown: 0
SampleSet: Normal
StackLeniency: 0.2
Mode: 0
LetterboxInBreaks: 0
WidescreenStoryboard: 1

[Editor]
Bookmarks: 43,22112,44181,55215,66250,88319,110388,132457,154526,165560,176595,198664,220732
DistanceSpacing: 0.3
BeatDivisor: 4
GridSize: 32
TimelineZoom: 1.7

[Metadata]
Title:Drifters (feat. Elizaveta)
TitleUnicode:Drifters (feat. Elizaveta)
Artist:Feint
ArtistUnicode:Feint
Creator:C00L
Version:Surfing The Clouds
Source:
Tags:electronic english drum n & and bass dnb cool monstercat elizaveta khripounova deca stratos HOS HootOwlStar LASS LowAccuracySS Kowari b00 boo
BeatmapID:1986747
BeatmapSetID:951304

[Difficulty]
HPDrainRate:5.5
CircleSize:4
OverallDifficulty:9
ApproachRate:9
SliderMultiplier:1.8
SliderTickRate:1

[Events]
//Background and Video events
0,0,"Flowers_Drift_afar.jpg",0,0
//Break Periods
2,113293,131803
//Storyboard Layer 0 (Background)
//Storyboard Layer 1 (Fail)
//Storyboard Layer 2 (Pass)
//Storyboard Layer 3 (Foreground)
//Storyboard Layer 4 (Overlay)
//Storyboard Sound Samples

[TimingPoints]
-10,344.827586206897,4,2,1,40,1,0
22059,-166.666666666667,4,2,1,40,0,0
26197,-333.333333333334,4,2,1,40,0,0
26800,-333.333333333334,4,2,1,5,0,0
26886,-333.333333333334,4,2,1,40,0,0
27145,-333.333333333334,4,2,1,5,0,0
27231,-333.333333333334,4,2,1,40,0,0
27490,-333.333333333334,4,2,1,5,0,0
27576,-166.666666666667,4,2,1,40,0,0
31714,-333.333333333334,4,2,1,40,0,0
33093,-166.666666666667,4,2,1,40,0,0
37231,-333.333333333334,4,2,1,40,0,0
38611,-166.666666666667,4,2,1,40,0,0
43438,-125,4,2,1,50,0,0
43696,-125,4,2,1,50,0,0
43697,-125,4,2,1,5,0,0
43783,-125,4,2,1,50,0,0
44041,-125,4,2,1,50,0,0
44042,-125,4,2,1,5,0,0
44128,-111.111111111111,4,2,1,50,0,0
55162,-111.111111111111,4,3,1,60,0,0
64817,-111.111111111111,4,2,1,30,0,0
65507,-111.111111111111,4,1,1,50,0,0
66196,-83.3333333333333,4,1,1,75,0,1
73093,-100,4,1,1,75,0,1
77231,-83.3333333333333,4,1,1,75,0,1
84127,-100,4,1,1,75,0,1
85507,-500,4,1,1,75,0,1
86886,-100,4,1,1,75,0,1
88265,-111.111111111111,4,1,2,60,0,0
107576,-333.333333333332,4,1,2,60,0,0
108955,-111.111111111111,4,1,2,60,0,0
110335,-166.666666666666,4,1,2,60,0,0
132404,-166.666666666666,4,2,1,40,0,0
136542,-333.333333333331,4,2,1,40,0,0
137145,-333.333333333331,4,2,1,5,0,0
137231,-333.333333333331,4,2,1,40,0,0
137490,-333.333333333331,4,2,1,5,0,0
137576,-333.333333333331,4,2,1,40,0,0
137834,-333.333333333331,4,2,1,40,0,0
137835,-333.333333333331,4,2,1,5,0,0
137921,-166.666666666666,4,2,1,40,0,0
142059,-333.333333333331,4,2,1,40,0,0
143438,-166.666666666666,4,2,1,40,0,0
147576,-333.333333333331,4,2,1,40,0,0
148955,-166.666666666666,4,2,1,40,0,0
153783,-125,4,2,1,50,0,0
154041,-125,4,2,1,50,0,0
154042,-125,4,2,1,5,0,0
154127,-125,4,2,1,5,0,0
154128,-125,4,2,1,50,0,0
154386,-125,4,2,1,5,0,0
154473,-111.111111111111,4,2,1,50,0,0
165507,-111.111111111111,4,3,1,60,0,0
175162,-111.111111111111,4,2,1,30,0,0
175852,-111.111111111111,4,1,1,50,0,0
176541,-83.3333333333333,4,1,1,75,0,1
183438,-100,4,1,1,75,0,1
187576,-83.3333333333333,4,1,1,75,0,1
194472,-100,4,1,1,75,0,1
195852,-500,4,1,1,75,0,1
197231,-100,4,1,1,75,0,1
198610,-111.111111111111,4,1,2,60,0,0
217921,-333.333333333332,4,1,2,60,0,0
219300,-111.111111111111,4,1,2,60,0,0
220679,-166.666666666666,4,1,2,60,0,0

[Colours]
Combo1 : 250,180,240
Combo2 : 110,190,225
Combo3 : 255,230,130
Combo4 : 150,230,140

[HitObjects]
126,296,22058,5,2,0:0:0:0:
126,296,22748,2,0,P|153:290|180:291,2,53.9999983520508,2|0|0,0:0|0:0|0:0,0:0:0:0:
39,337,23265,2,0,B|22:297|36:259|36:259|52:215|28:162,1,161.999995056153,0|2,0:0|0:0,0:0:0:0:
176,123,24127,1,2,0:0:0:0:
34,178,24472,5,0,0:0:0:0:
116,178,24645,1,2,0:0:0:0:
176,123,24817,6,0,B|244:96|300:131|300:131|330:68|402:49|402:49|339:60|295:30|295:30|307:65|293:92,1,431.999986816407,2|0,0:0|0:0,0:0:0:0:
418,176,26541,6,0,P|421:199|429:213,1,40.4999987640381,2|0,0:0|0:0,0:0:0:0:
473,269,26886,2,0,P|451:260|435:260,1,40.4999987640381,2|0,0:0|0:0,0:0:0:0:
364,270,27231,2,0,P|382:255|390:241,1,40.4999987640381,2|0,0:0|0:0,0:0:0:0:
418,355,27576,5,2,0:0:0:0:
418,355,28265,6,0,L|489:356,2,53.9999983520508,2|0|0,0:0|0:0|0:0,0:0:0:0:
333,352,28783,2,0,L|225:349,1,107.999996704102,0|0,0:0|0:0,0:0:0:0:
171,264,29300,2,0,L|278:266,1,107.999996704102,2|2,0:0|0:0,0:0:0:0:
89,288,29990,2,0,P|83:261|88:235,1,53.9999983520508,0|2,0:0|0:0,0:0:0:0:
164,132,30334,6,0,B|186:84|166:35|166:35|196:72|250:79|250:79|292:36|358:72|358:72|342:150|267:143,1,431.999986816407,2|0,0:0|0:0,0:0:0:0:
85,81,32403,1,2,0:0:0:0:
85,81,32576,2,0,P|71:78|58:78,2,26.9999991760254,2|0|2,0:0|0:0|0:0,0:0:0:0:
164,132,33093,1,2,0:0:0:0:
164,131,33783,6,0,L|161:189,2,53.9999983520508,2|0|0,0:0|0:0|0:0,0:0:0:0:
239,86,34300,2,0,B|281:73|318:101|318:101|347:74|393:79,1,161.999995056153,0|2,0:0|0:0,0:0:0:0:
376,231,35162,1,2,0:0:0:0:
390,78,35507,5,0,0:0:0:0:
410,157,35679,1,2,0:0:0:0:
376,231,35852,6,0,B|338:253|295:238|295:238|267:265|267:265|211:242|160:274|160:274|193:235|158:181|158:181|94:196|95:255,1,431.999986816407,2|0,0:0|0:0,0:0:0:0:
97,87,37921,1,2,0:0:0:0:
143,74,38093,1,2,0:0:0:0:
191,79,38265,1,0,0:0:0:0:
234,99,38438,1,2,0:0:0:0:
258,140,38610,1,2,0:0:0:0:
258,140,39300,6,0,L|256:193,2,53.9999983520508,2|0|0,0:0|0:0|0:0,0:0:0:0:
258,62,39817,1,0,0:0:0:0:
352,100,39990,2,0,P|404:108|454:88,1,107.999996704102,0|2,0:0|0:0,0:0:0:0:
512,159,40679,1,2,0:0:0:0:
492,177,40852,1,2,0:0:0:0:
478,200,41024,1,0,0:0:0:0:
470,226,41196,1,2,0:0:0:0:
470,253,41369,6,0,B|425:285|358:257|358:257|286:234|241:280|241:280|267:229|259:168|259:168|267:209|300:235,1,431.999986816407,2|0,0:0|0:0,0:0:0:0:
306,80,43438,6,0,P|253:69|201:84,1,108,2|0,0:0|0:0,0:0:0:0:
129,40,43783,2,0,P|115:91|80:132,1,108,2|0,0:0|0:0,0:0:0:0:
172,252,44127,5,2,0:0:0:0:
175,160,44300,1,0,0:0:0:0:
251,281,44472,6,0,P|283:307|322:317,1,80.9999975280763,10|0,0:0|0:0,0:0:0:0:
172,252,44817,1,0,0:0:0:0:
91,280,44990,2,0,P|59:305|20:315,1,80.9999975280763,2|8,0:0|0:0,0:0:0:0:
169,344,45334,1,0,0:0:0:0:
215,171,45507,6,0,P|176:159|137:166,1,80.9999975280763,2|0,0:0|0:0,0:0:0:0:
178,0,45852,2,0,L|177:82,1,80.9999975280763,8|2,0:0|0:0,0:0:0:0:
280,234,46196,1,2,0:0:0:0:
310,160,46369,1,2,0:0:0:0:
390,164,46541,1,8,0:0:0:0:
411,247,46714,1,2,0:0:0:0:
336,369,46886,5,2,0:0:0:0:
341,286,47058,1,0,0:0:0:0:
140,290,47231,6,0,P|171:314|211:320,1,80.9999975280763,10|0,0:0|0:0,0:0:0:0:
132,213,47576,1,0,0:0:0:0:
194,168,47748,6,0,P|199:128|184:90,1,80.9999975280763,2|8,0:0|0:0,0:0:0:0:
132,213,48093,1,0,0:0:0:0:
63,182,48265,6,0,P|26:197|1:228,1,80.9999975280763,2|0,0:0|0:0,0:0:0:0:
90,96,48610,2,0,L|92:11,1,80.9999975280763,8|0,0:0|0:0,0:0:0:0:
283,59,48955,5,2,0:0:0:0:
276,140,49127,1,2,0:0:0:0:
314,210,49300,1,8,0:0:0:0:
390,238,49472,1,2,0:0:0:0:
404,131,49645,5,2,0:0:0:0:
468,217,49817,1,0,0:0:0:0:
509,120,49990,1,8,0:0:0:0:
363,48,50162,6,0,L|275:60,1,80.9999975280763,2|0,0:0|0:0,0:0:0:0:
201,72,50507,1,2,0:0:0:0:
66,136,50679,2,0,L|154:148,1,80.9999975280763,8|0,0:0|0:0,0:0:0:0:
228,160,51024,1,2,0:0:0:0:
114,348,51369,5,8,0:0:0:0:
386,318,51714,5,2,0:0:0:0:
318,270,51886,1,2,0:0:0:0:
238,256,52058,1,8,0:0:0:0:
160,282,52231,1,2,0:0:0:0:
47,283,52403,5,2,0:0:0:0:
103,208,52576,1,0,0:0:0:0:
114,348,52748,1,8,0:0:0:0:
183,182,52921,6,0,L|185:101,1,80.9999975280763,2|0,0:0|0:0,0:0:0:0:
103,208,53265,1,2,0:0:0:0:
22,177,53438,2,0,L|19:96,1,80.9999975280763,8|0,0:0|0:0,0:0:0:0:
103,208,53783,1,2,0:0:0:0:
409,208,54127,5,10,0:0:0:0:
269,25,54472,1,2,0:0:0:0:
201,70,54645,1,0,0:0:0:0:
222,149,54817,1,10,0:0:0:0:
304,151,54990,1,0,0:0:0:0:
332,75,55162,5,0,0:0:0:0:
259,225,55334,1,0,0:0:0:0:
427,43,55507,1,8,0:0:0:0:
409,208,55679,1,0,0:0:0:0:
332,75,55852,5,0,0:0:0:0:
342,264,56024,1,0,0:0:0:0:
225,114,56196,2,0,P|185:105|146:111,1,80.9999975280763,8|0,0:0|0:0,0:0:0:0:
46,252,56541,5,0,0:0:0:0:
148,237,56714,1,0,0:0:0:0:
89,171,56886,1,8,0:0:0:0:
105,315,57058,1,0,0:0:0:0:
79,84,57231,5,0,0:0:0:0:
148,237,57403,1,0,0:0:0:0:
6,175,57576,5,8,0:0:0:0:
105,315,57748,1,0,0:0:0:0:
173,154,57921,5,0,0:0:0:0:
46,252,58093,1,0,0:0:0:0:
79,84,58265,1,8,0:0:0:0:
233,212,58438,1,0,0:0:0:0:
244,38,58610,5,0,0:0:0:0:
89,171,58783,1,0,0:0:0:0:
305,122,58955,1,8,0:0:0:0:
153,15,59127,1,0,0:0:0:0:
233,212,59300,5,0,0:0:0:0:
336,41,59472,1,0,0:0:0:0:
449,187,59645,2,0,P|410:195|373:181,1,80.9999975280763,8|0,0:0|0:0,0:0:0:0:
429,315,59990,5,0,0:0:0:0:
418,100,60162,1,0,0:0:0:0:
294,337,60334,5,8,0:0:0:0:
305,122,60507,1,0,0:0:0:0:
305,122,60593,1,0,0:0:0:0:
305,122,60679,5,0,0:0:0:0:
271,145,60765,1,0,0:0:0:0:
231,155,60852,1,0,0:0:0:0:
191,150,60938,1,0,0:0:0:0:
157,126,61024,1,8,0:0:0:0:
126,110,61110,1,0,0:0:0:0:
85,105,61196,1,0,0:0:0:0:
46,115,61283,1,0,0:0:0:0:
13,139,61369,6,0,L|12:200,3,40.4999987640381,0|0|0|0,0:0|0:0|0:0|0:0,0:0:0:0:
92,227,61714,2,0,L|85:287,3,40.4999987640381,8|0|0|0,0:0|0:0|0:0|0:0,0:0:0:0:
0,346,62058,5,0,0:0:0:0:
40,344,62145,1,0,0:0:0:0:
80,341,62231,1,0,0:0:0:0:
120,337,62317,1,0,0:0:0:0:
153,323,62403,5,8,0:0:0:0:
193,325,62490,1,0,0:0:0:0:
233,328,62576,1,0,0:0:0:0:
273,330,62662,1,0,0:0:0:0:
303,343,62748,5,0,0:0:0:0:
293,197,62921,1,0,0:0:0:0:
392,321,63093,1,8,0:0:0:0:
206,214,63265,1,0,0:0:0:0:
407,79,63438,5,0,0:0:0:0:
443,97,63524,1,0,0:0:0:0:
468,130,63610,1,0,0:0:0:0:
480,170,63696,1,0,0:0:0:0:
478,211,63783,1,8,0:0:0:0:
449,240,63869,1,0,0:0:0:0:
409,247,63955,1,0,0:0:0:0:
377,220,64041,1,0,0:0:0:0:
375,179,64127,5,0,0:0:0:0:
382,188,64214,1,0,0:0:0:0:
385,199,64300,1,0,0:0:0:0:
385,211,64386,1,0,0:0:0:0:
384,223,64472,1,8,0:0:0:0:
380,234,64558,1,0,0:0:0:0:
374,244,64645,1,0,0:0:0:0:
367,253,64731,1,0,0:0:0:0:
285,207,64817,6,0,P|280:168|291:129,1,80.9999975280763,0|0,0:0|0:0,0:0:0:0:
289,0,65162,2,0,P|257:23|218:33,1,80.9999975280763
113,211,65507,5,0,3:0:0:0:
122,59,65679,1,0,0:0:0:0:
206,285,65852,5,0,3:0:0:0:
197,133,66024,1,2,3:0:0:0:
344,328,66196,6,0,L|338:192,1,107.999996704102,0|0,3:0|0:0,0:0:0:0:
330,40,66541,1,8,0:0:0:0:
280,139,66714,2,0,P|330:122|383:132,2,107.999996704102,0|0|0,0:0|0:0|3:0,0:0:0:0:
250,230,67231,1,8,0:0:0:0:
421,205,67403,1,0,0:0:0:0:
179,160,67576,2,0,B|147:158|147:158|127:149|127:149|55:145,1,107.999996704102,0|0,3:0|0:0,0:0:0:0:
82,369,67921,5,8,0:0:0:0:
104,337,68007,1,0,0:0:0:0:
119,301,68093,1,0,0:0:0:0:
119,263,68179,1,0,0:0:0:0:
107,225,68265,1,0,0:0:0:0:
225,322,68438,5,0,3:0:0:0:
13,280,68610,1,8,0:0:0:0:
179,160,68783,1,0,0:0:0:0:
327,371,68955,5,0,3:0:0:0:
327,371,69300,6,0,B|340:336|340:336|330:265,1,107.999996704102,8|0,0:0|0:0,0:0:0:0:
309,104,69645,1,0,0:0:0:0:
250,193,69817,1,0,3:0:0:0:
390,173,69990,1,8,0:0:0:0:
298,23,70162,1,0,0:0:0:0:
100,90,70334,6,0,P|152:76|204:90,1,107.999996704102,0|0,3:0|0:0,0:0:0:0:
55,176,70679,2,0,P|17:137|2:86,1,107.999996704102,8|0,0:0|0:0,0:0:0:0:
4,258,71024,5,0,0:0:0:0:
100,90,71196,1,0,3:0:0:0:
89,301,71369,5,8,0:0:0:0:
51,6,71541,1,0,0:0:0:0:
183,215,71714,6,0,B|211:224|240:211|240:211|259:229|259:229|304:214|358:224,1,161.999995056152,0|0,3:0|0:0,0:0:0:0:
358,224,72058,1,8,0:0:0:0:
200,136,72231,2,0,L|207:19,1,107.999996704102,0|0,0:0|0:0,0:0:0:0:
387,140,72576,5,0,3:0:0:0:
200,136,72748,1,8,0:0:0:0:
292,73,72921,1,0,0:0:0:0:
358,224,73093,6,0,P|374:265|409:293,1,90,0|0,3:0|0:0,0:0:0:0:
256,323,73438,1,8,0:0:0:0:
256,323,73610,1,0,0:0:0:0:
154,224,73783,2,0,P|137:265|102:293,1,90,0|0,0:0|3:0,0:0:0:0:
256,224,74127,1,8,0:0:0:0:
256,224,74300,1,0,0:0:0:0:
209,123,74472,6,0,P|251:111|295:121,1,90,0|0,3:0|0:0,0:0:0:0:
124,141,74817,1,8,0:0:0:0:
158,51,74990,1,0,0:0:0:0:
70,67,75162,1,0,0:0:0:0:
136,224,75334,5,0,3:0:0:0:
158,51,75507,1,8,0:0:0:0:
124,141,75679,1,0,0:0:0:0:
269,7,75852,6,0,P|278:50|268:94,1,90,0|0,3:0|0:0,0:0:0:0:
136,224,76196,1,8,0:0:0:0:
293,329,76369,5,0,3:0:0:0:
344,274,76455,1,8,0:0:0:0:
354,198,76541,5,0,0:0:0:0:
336,235,76627,1,0,3:0:0:0:
344,274,76714,1,0,3:0:0:0:
365,307,76800,1,0,3:0:0:0:
402,323,76886,1,8,0:0:0:0:
241,222,77058,1,0,3:0:0:0:
71,367,77231,5,0,3:0:0:0:
71,367,77576,6,0,L|78:248,1,107.999996704102,8|0,0:0|0:0,0:0:0:0:
86,92,77921,1,0,0:0:0:0:
29,164,78093,2,0,P|79:182|132:173,2,107.999996704102,0|8|0,3:0|0:0|0:0,0:0:0:0:
155,253,78610,1,0,3:0:0:0:
0,245,78783,1,0,0:0:0:0:
220,191,78955,5,8,0:0:0:0:
241,222,79041,1,0,0:0:0:0:
248,258,79127,1,0,0:0:0:0:
237,294,79214,1,0,0:0:0:0:
214,324,79300,1,0,0:0:0:0:
341,134,79472,5,0,3:0:0:0:
384,373,79645,1,8,0:0:0:0:
155,253,79817,5,0,0:0:0:0:
341,134,79990,1,0,3:0:0:0:
341,134,80334,6,0,L|225:128,1,107.999996704102,8|0,0:0|0:0,0:0:0:0:
80,44,80679,1,0,0:0:0:0:
74,200,80852,1,0,3:0:0:0:
5,118,81024,1,8,0:0:0:0:
153,124,81196,1,0,0:0:0:0:
168,323,81369,6,0,L|161:201,1,107.999996704102,0|0,3:0|0:0,0:0:0:0:
248,106,81714,2,0,L|241:213,1,107.999996704102,8|0,0:0|0:0,0:0:0:0:
188,37,82058,5,0,0:0:0:0:
265,311,82231,1,0,3:0:0:0:
351,129,82403,5,8,0:0:0:0:
74,200,82576,1,0,0:0:0:0:
335,237,82748,6,0,B|364:246|394:233|394:233|417:248|417:248|455:230|500:248,1,161.999995056153,0|0,3:0|0:0,0:0:0:0:
511,250,83093,1,8,0:0:0:0:
351,129,83265,2,0,P|333:78|347:26,1,107.999996704102,0|0,0:0|0:0,0:0:0:0:
256,146,83610,1,0,3:0:0:0:
446,133,83783,1,8,0:0:0:0:
347,28,83955,1,0,0:0:0:0:
355,230,84127,6,0,L|359:319,1,90,0|0,3:0|0:0,0:0:0:0:
256,146,84472,1,8,0:0:0:0:
256,146,84645,1,0,0:0:0:0:
157,230,84817,2,0,L|152:319,1,90,0|0,0:0|3:0,0:0:0:0:
256,59,85162,1,8,0:0:0:0:
256,59,85334,1,0,0:0:0:0:
47,134,85507,6,0,B|69:150|105:140|105:140|144:128|175:145,1,126
170,143,86886,5,0,3:0:0:0:
285,195,87058,1,0,0:0:0:0:
328,315,87231,1,0,0:0:0:0:
346,92,87403,5,0,0:0:0:0:
421,84,87490,1,8,0:0:0:0:
478,134,87576,5,0,0:0:0:0:
479,174,87662,1,0,3:0:0:0:
482,214,87748,1,0,3:0:0:0:
485,254,87834,1,0,3:0:0:0:
488,294,87921,1,8,0:0:0:0:
346,92,88093,1,0,3:0:0:0:
328,315,88265,6,0,B|278:324|278:324|203:295,1,121.499996292114,2|0,0:0|0:0,0:0:0:0:
193,290,88610,1,8,0:0:0:0:
19,346,88783,1,0,0:0:0:0:
19,233,88955,1,0,0:0:0:0:
127,382,89127,1,0,0:0:0:0:
127,198,89300,2,0,L|121:88,1,80.9999975280763,8|0,0:0|0:0,0:0:0:0:
278,21,89645,2,0,L|273:101,1,80.9999975280763,0|0,0:0|0:0,0:0:0:0:
228,198,89990,6,0,P|267:193|304:208,1,80.9999975280763,10|0,0:0|0:0,0:0:0:0:
257,281,90334,1,0,0:0:0:0:
344,298,90507,6,0,P|328:334|296:359,1,80.9999975280763,2|8,0:0|0:0,0:0:0:0:
257,281,90852,1,0,0:0:0:0:
199,348,91024,6,0,P|174:316|169:276,1,80.9999975280763,2|0,0:0|0:0,0:0:0:0:
228,198,91369,2,0,L|223:99,1,80.9999975280763,8|0,0:0|0:0,0:0:0:0:
276,39,91714,1,0,0:0:0:0:
163,42,91886,1,0,0:0:0:0:
228,198,92058,1,8,0:0:0:0:
223,117,92231,1,0,0:0:0:0:
363,0,92403,2,0,P|371:39|363:78,1,80.9999975280763,0|0,0:0|0:0,0:0:0:0:
323,209,92748,6,0,P|352:182|390:169,1,80.9999975280763,10|0,0:0|0:0,0:0:0:0:
441,107,93093,2,0,P|470:133|509:146,1,80.9999975280763,2|0,0:0|0:0,0:0:0:0:
459,290,93438,2,0,P|451:250|459:211,1,80.9999975280763,10|0,0:0|0:0,0:0:0:0:
349,317,93783,6,0,B|322:328|291:318|291:318|259:307|227:321,1,121.499996292114,2|0,0:0|0:0,0:0:0:0:
214,331,94127,1,8,0:0:0:0:
323,209,94300,1,0,0:0:0:0:
63,160,94472,2,0,P|102:167|135:192,1,80.9999975280763,2|0,0:0|0:0,0:0:0:0:
214,331,94817,1,8,0:0:0:0:
223,232,94990,1,0,0:0:0:0:
51,377,95162,6,0,B|59:357|53:333|53:333|65:311|65:311|59:281|67:259,1,121.499996292114,2|0,0:0|0:0,0:0:0:0:
70,240,95507,1,8,0:0:0:0:
214,331,95679,1,0,0:0:0:0:
232,133,95852,2,0,L|236:50,1,80.9999975280763,2|0,0:0|0:0,0:0:0:0:
311,192,96196,1,8,0:0:0:0:
146,175,96369,1,0,0:0:0:0:
389,150,96541,6,0,P|395:209|366:261,1,121.499996292114,2|0,0:0|0:0,0:0:0:0:
351,274,96886,1,8,0:0:0:0:
476,209,97058,1,0,0:0:0:0:
407,365,97231,2,0,P|367:355|328:365,1,80.9999975280763,0|0,0:0|0:0,0:0:0:0:
267,271,97576,2,0,P|227:280|188:271,1,80.9999975280763,8|0,0:0|0:0,0:0:0:0:
114,356,97921,1,0,0:0:0:0:
85,266,98093,1,0,0:0:0:0:
204,367,98265,1,10,0:0:0:0:
144,194,98438,5,0,0:0:0:0:
142,143,98524,2,0,L|139:90,1,40.4999987640381,8|0,0:0|0:0,0:0:0:0:
77,13,98696,5,0,0:0:0:0:
114,27,98783,1,0,0:0:0:0:
154,26,98869,1,0,0:0:0:0:
189,7,98955,1,8,0:0:0:0:
26,152,99127,1,0,0:0:0:0:
244,103,99300,6,0,B|285:105|285:105|304:100|304:100|325:107|325:107|380:109,1,121.499996292114,2|0,0:0|0:0,0:0:0:0:
398,110,99645,1,8,0:0:0:0:
301,187,99817,1,0,0:0:0:0:
502,175,99990,1,0,0:0:0:0:
393,22,100162,1,0,0:0:0:0:
404,241,100334,2,0,L|408:336,1,80.9999975280763,8|0,0:0|0:0,0:0:0:0:
200,318,100679,2,0,L|203:237,1,80.9999975280763,0|0,0:0|0:0,0:0:0:0:
249,76,101024,6,0,P|209:83|171:71,1,80.9999975280763,10|0,0:0|0:0,0:0:0:0:
103,13,101369,1,0,0:0:0:0:
4,13,101541,6,0,P|30:43|39:82,1,80.9999975280763,2|8,0:0|0:0,0:0:0:0:
23,171,101886,1,0,0:0:0:0:
77,254,102058,6,0,P|89:216|119:189,1,80.9999975280763,2|0,0:0|0:0,0:0:0:0:
241,259,102403,2,0,L|160:263,1,80.9999975280763,8|0,0:0|0:0,0:0:0:0:
267,177,102748,1,0,0:0:0:0:
282,333,102921,1,0,0:0:0:0:
160,263,103093,1,8,0:0:0:0:
241,259,103265,1,0,0:0:0:0:
305,87,103438,2,0,P|265:78|226:87,1,80.9999975280763,0|0,0:0|0:0,0:0:0:0:
350,239,103783,6,0,L|354:144,1,80.9999975280763,10|0,0:0|0:0,0:0:0:0:
449,81,104127,2,0,L|431:160,1,80.9999975280763,2|0,0:0|0:0,0:0:0:0:
454,323,104472,2,0,L|429:245,1,80.9999975280763,10|0,0:0|0:0,0:0:0:0:
268,186,104817,6,0,B|238:174|209:184|209:184|174:195|125:178,1,121.499996292114,2|0,0:0|0:0,0:0:0:0:
125,179,105162,1,8,0:0:0:0:
237,268,105334,1,0,0:0:0:0:
210,36,105507,2,0,P|186:68|181:108,1,80.9999975280763,2|0,0:0|0:0,0:0:0:0:
355,91,105852,1,8,0:0:0:0:
267,97,106024,1,0,0:0:0:0:
445,25,106196,6,0,B|452:44|447:68|447:68|456:83|456:83|449:98|449:98|461:121|449:165,1,121.499996292114,2|0,0:0|0:0,0:0:0:0:
454,162,106541,1,8,0:0:0:0:
267,97,106714,1,0,0:0:0:0:
310,272,106886,6,0,P|330:237|336:198,1,80.9999975280763,2|0,0:0|0:0,0:0:0:0:
226,307,107231,1,8,0:0:0:0:
401,296,107403,1,0,0:0:0:0:
176,145,107576,6,0,B|132:112|81:157|81:157|102:224|163:215,1,215.999993408203,2|0,0:0|0:0,0:0:0:0:
246,202,109127,1,0,0:0:0:0:
333,158,109300,1,0,0:0:0:0:
324,265,109472,5,0,0:0:0:0:
321,317,109558,2,0,L|318:364,1,40.4999987640381,8|0,0:0|0:0,0:0:0:0:
420,287,109731,5,0,0:0:0:0:
422,246,109817,1,0,0:0:0:0:
424,205,109903,1,0,0:0:0:0:
426,164,109990,1,10,0:0:0:0:
508,331,110162,1,0,0:0:0:0:
433,45,110334,5,4,0:0:0:0:
256,192,110421,12,0,113093,0:0:0:0:
346,335,132403,5,2,0:0:0:0:
346,335,133093,2,0,P|362:284|355:231,1,107.999996704102,2|0,0:0|0:0,0:0:0:0:
272,219,133610,2,0,P|265:165|281:114,1,107.999996704102,0|0,0:0|0:0,0:0:0:0:
359,110,134127,1,2,0:0:0:0:
240,39,134472,1,2,0:0:0:0:
359,110,134817,5,0,0:0:0:0:
320,41,134990,1,2,0:0:0:0:
240,39,135162,6,0,B|181:65|130:25|130:25|185:96|124:169|124:169|33:127|63:33,1,431.999986816407,2|0,0:0|0:0,0:0:0:0:
1,209,136886,6,0,P|19:201|39:199,1,40.4999987640381,2|0,0:0|0:0,0:0:0:0:
37,274,137231,2,0,P|56:276|75:285,1,40.4999987640381,2|0,0:0|0:0,0:0:0:0:
35,347,137576,2,0,P|50:359|62:376,1,40.4999987640381,2|0,0:0|0:0,0:0:0:0:
154,342,137921,5,2,0:0:0:0:
154,342,138610,2,0,L|273:351,1,107.999996704102,2|0,0:0|0:0,0:0:0:0:
261,350,139127,1,2,0:0:0:0:
336,270,139300,2,0,L|228:262,1,107.999996704102,0|2,0:0|0:0,0:0:0:0:
408,327,139990,2,0,P|427:277|415:225,1,107.999996704102,2|0,0:0|0:0,0:0:0:0:
415,225,140507,1,2,0:0:0:0:
385,109,140679,6,0,B|433:95|473:120|473:120|418:52|349:86|349:86|298:113|242:100|242:100|298:94|329:55,1,431.999986816407,2|0,0:0|0:0,0:0:0:0:
168,119,142748,5,2,0:0:0:0:
168,119,142921,2,0,P|164:106|165:92,2,26.9999991760254,0|0|0,0:0|0:0|0:0,0:0:0:0:
255,191,143438,1,2,0:0:0:0:
255,191,144127,6,0,P|269:243|258:296,1,107.999996704102,2|0,0:0|0:0,0:0:0:0:
187,375,144645,2,0,P|173:323|184:270,1,107.999996704102,0|0,0:0|0:0,0:0:0:0:
141,187,145162,1,2,0:0:0:0:
1,141,145507,1,2,0:0:0:0:
141,187,145852,5,0,0:0:0:0:
58,200,146024,1,2,0:0:0:0:
1,141,146196,6,0,B|51:101|56:19|56:19|77:91|165:109|165:109|195:27|276:34,1,431.999986816407,2|0,0:0|0:0,0:0:0:0:
306,193,148265,1,2,0:0:0:0:
259,177,148438,1,2,0:0:0:0:
259,129,148610,1,0,0:0:0:0:
306,114,148783,1,2,0:0:0:0:
334,153,148955,1,2,0:0:0:0:
334,153,149645,6,0,L|331:267,1,107.999996704102,2|0,0:0|0:0,0:0:0:0:
331,260,150162,1,0,0:0:0:0:
376,358,150334,2,0,P|325:341|272:351,1,107.999996704102,0|2,0:0|0:0,0:0:0:0:
143,359,151024,1,2,0:0:0:0:
165,343,151196,1,0,0:0:0:0:
182,323,151369,1,0,0:0:0:0:
194,299,151541,1,2,0:0:0:0:
200,273,151714,6,0,B|225:205|187:132|187:132|250:158|305:118|297:64|297:64|254:49|209:55|183:94,1,431.999986816407,2|0,0:0|0:0,0:0:0:0:
371,11,153783,6,0,P|365:64|381:115,1,108,2|0,0:0|0:0,0:0:0:0:
455,72,154127,2,0,P|471:122|464:176,1,108,2|0,0:0|0:0,0:0:0:0:
380,287,154472,5,2,0:0:0:0:
385,195,154645,1,0,0:0:0:0:
414,370,154817,6,0,P|374:378|337:364,1,80.9999975280763,10|0,0:0|0:0,0:0:0:0:
293,291,155162,1,0,0:0:0:0:
165,357,155334,2,0,P|177:319|207:292,1,80.9999975280763,2|8,0:0|0:0,0:0:0:0:
293,291,155679,1,0,0:0:0:0:
285,128,155852,6,0,L|289:212,1,80.9999975280763,0|0,0:0|0:0,0:0:0:0:
242,51,156196,2,0,P|280:40|320:47,1,80.9999975280763,8|2,0:0|0:0,0:0:0:0:
510,124,156541,5,2,0:0:0:0:
485,45,156714,1,2,0:0:0:0:
404,42,156886,1,8,0:0:0:0:
376,116,157058,1,2,0:0:0:0:
431,247,157231,5,0,0:0:0:0:
439,167,157403,1,0,0:0:0:0:
461,333,157576,6,0,P|421:338|383:324,1,80.9999975280763,10|0,0:0|0:0,0:0:0:0:
339,252,157921,1,0,0:0:0:0:
168,384,158093,2,0,P|183:346|213:320,1,80.9999975280763,2|8,0:0|0:0,0:0:0:0:
302,325,158438,1,0,0:0:0:0:
248,166,158610,2,0,L|255:249,1,80.9999975280763,2|0,0:0|0:0,0:0:0:0:
200,88,158955,2,0,P|238:76|278:80,1,80.9999975280763,8|0,0:0|0:0,0:0:0:0:
19,64,159300,5,2,0:0:0:0:
32,145,159472,1,2,0:0:0:0:
94,196,159645,1,8,0:0:0:0:
174,199,159817,1,2,0:0:0:0:
337,174,159990,5,0,0:0:0:0:
248,166,160162,1,0,0:0:0:0:
286,244,160334,1,10,0:0:0:0:
299,98,160507,6,0,L|304:17,1,80.9999975280763,2|0,0:0|0:0,0:0:0:0:
337,174,160852,1,2,0:0:0:0:
432,136,161024,2,0,L|426:216,1,80.9999975280763,8|0,0:0|0:0,0:0:0:0:
394,60,161369,1,2,0:0:0:0:
377,303,161714,1,8,0:0:0:0:
57,284,162058,5,2,0:0:0:0:
137,288,162231,1,2,0:0:0:0:
217,295,162403,1,8,0:0:0:0:
297,300,162576,1,2,0:0:0:0:
457,306,162748,5,2,0:0:0:0:
377,303,162921,1,0,0:0:0:0:
413,379,163093,1,8,0:0:0:0:
420,229,163265,6,0,L|423:140,1,80.9999975280763,2|0,0:0|0:0,0:0:0:0:
426,59,163610,1,2,0:0:0:0:
300,210,163783,2,0,L|303:121,1,80.9999975280763,8|0,0:0|0:0,0:0:0:0:
306,40,164127,1,2,0:0:0:0:
297,300,164472,1,10,0:0:0:0:
137,157,164817,5,2,0:0:0:0:
59,182,164990,1,0,0:0:0:0:
59,263,165162,1,10,0:0:0:0:
137,288,165334,1,0,0:0:0:0:
184,222,165507,5,8,0:0:0:0:
74,95,165679,1,0,0:0:0:0:
59,263,165852,1,0,0:0:0:0:
165,77,166024,1,0,0:0:0:0:
137,288,166196,5,8,0:0:0:0:
227,143,166369,1,0,0:0:0:0:
366,281,166541,2,0,P|326:290|287:281,1,80.9999975280763,0|0,0:0|0:0,0:0:0:0:
430,219,166886,5,8,0:0:0:0:
437,334,167058,1,0,0:0:0:0:
494,271,167231,1,0,0:0:0:0:
366,281,167403,1,0,0:0:0:0:
423,104,167576,5,8,0:0:0:0:
366,281,167748,1,0,0:0:0:0:
512,165,167921,5,0,0:0:0:0:
339,176,168093,1,0,0:0:0:0:
494,271,168265,5,8,0:0:0:0:
429,205,168438,1,0,0:0:0:0:
261,256,168610,1,0,0:0:0:0:
278,77,168783,1,0,0:0:0:0:
173,206,168955,5,8,0:0:0:0:
127,31,169127,1,0,0:0:0:0:
57,142,169300,1,0,0:0:0:0:
278,77,169472,1,0,0:0:0:0:
75,248,169645,5,8,0:0:0:0:
150,118,169817,1,0,0:0:0:0:
286,265,169990,2,0,P|293:226|285:187,1,80.9999975280763,0|0,0:0|0:0,0:0:0:0:
170,384,170334,5,8,0:0:0:0:
377,292,170507,1,0,0:0:0:0:
90,338,170679,5,0,0:0:0:0:
433,374,170852,1,0,0:0:0:0:
433,374,170938,1,0,0:0:0:0:
433,374,171024,5,8,0:0:0:0:
457,340,171110,1,0,0:0:0:0:
467,301,171196,1,0,0:0:0:0:
460,260,171283,1,0,0:0:0:0:
436,226,171369,1,0,0:0:0:0:
412,192,171455,1,0,0:0:0:0:
405,151,171541,1,0,0:0:0:0:
415,112,171627,1,0,0:0:0:0:
439,78,171714,6,0,L|502:72,3,40.4999987640381,8|0|0|0,0:0|0:0|0:0|0:0,0:0:0:0:
308,41,172058,2,0,L|348:37,3,40.4999987640381,0|0|0|0,0:0|0:0|0:0|0:0,0:0:0:0:
179,4,172403,5,8,0:0:0:0:
173,44,172490,1,0,0:0:0:0:
180,83,172576,1,0,0:0:0:0:
197,119,172662,1,0,0:0:0:0:
225,147,172748,1,0,0:0:0:0:
186,134,172834,1,0,0:0:0:0:
147,134,172921,1,0,0:0:0:0:
108,144,173007,1,0,0:0:0:0:
76,167,173093,5,8,0:0:0:0:
47,38,173265,1,0,0:0:0:0:
73,257,173438,5,0,0:0:0:0:
3,110,173610,1,0,0:0:0:0:
153,221,173783,5,8,0:0:0:0:
188,241,173869,1,0,0:0:0:0:
227,249,173955,1,0,0:0:0:0:
267,243,174041,1,0,0:0:0:0:
301,221,174127,1,0,0:0:0:0:
322,186,174214,1,0,0:0:0:0:
330,146,174300,1,0,0:0:0:0:
321,106,174386,1,0,0:0:0:0:
300,70,174472,5,8,0:0:0:0:
293,75,174558,1,0,0:0:0:0:
285,82,174645,1,0,0:0:0:0:
282,92,174731,1,0,0:0:0:0:
282,102,174817,1,0,0:0:0:0:
287,110,174903,1,0,0:0:0:0:
295,118,174990,1,0,0:0:0:0:
306,120,175076,1,0,0:0:0:0:
399,88,175162,6,0,L|498:82,1,80.9999975280763,0|0,0:0|0:0,0:0:0:0:
380,215,175507,2,0,L|299:219,1,80.9999975280763,0|0,0:0|0:0,0:0:0:0:
295,321,175852,1,0,3:0:0:0:
306,120,176024,1,0,0:0:0:0:
118,184,176196,5,0,3:0:0:0:
300,219,176369,1,0,3:0:0:0:
116,292,176541,6,0,L|119:184,1,107.999996704102,0|0,3:0|0:0,0:0:0:0:
127,17,176886,1,8,0:0:0:0:
74,85,177058,2,0,P|123:102|174:89,1,107.999996704102,0|0,0:0|0:0,0:0:0:0:
8,38,177403,1,0,3:0:0:0:
239,46,177576,1,8,0:0:0:0:
119,184,177748,1,0,0:0:0:0:
322,6,177921,6,0,B|333:41|333:41|314:127,1,107.999996704102,0|0,3:0|0:0,0:0:0:0:
278,239,178265,5,8,0:0:0:0:
320,236,178352,1,0,0:0:0:0:
363,232,178438,1,0,0:0:0:0:
405,228,178524,1,0,0:0:0:0:
448,226,178610,1,0,0:0:0:0:
250,156,178783,5,0,3:0:0:0:
478,146,178955,1,8,0:0:0:0:
371,333,179127,1,0,0:0:0:0:
360,97,179300,1,0,3:0:0:0:
360,97,179645,6,0,L|356:-10,1,107.999996704102,8|0,0:0|0:0,0:0:0:0:
364,182,179990,1,0,0:0:0:0:
250,156,180162,1,0,3:0:0:0:
478,146,180334,1,8,0:0:0:0:
360,97,180507,1,0,0:0:0:0:
287,281,180679,6,0,P|233:288|177:266,1,107.999996704102,0|0,3:0|0:0,0:0:0:0:
364,182,181024,2,0,P|397:225|406:284,1,107.999996704102,8|0,0:0|0:0,0:0:0:0:
156,172,181369,5,0,0:0:0:0:
274,370,181541,1,0,3:0:0:0:
110,242,181714,5,8,0:0:0:0:
406,276,181886,1,0,0:0:0:0:
198,324,182058,6,0,B|173:329|147:321|147:321|118:335|118:335|76:317|29:334,1,161.999995056153,0|0,3:0|0:0,0:0:0:0:
22,338,182403,1,8,0:0:0:0:
110,242,182576,2,0,L|104:135,1,107.999996704102,0|0,0:0|0:0,0:0:0:0:
98,27,182921,1,0,3:0:0:0:
196,181,183093,1,8,0:0:0:0:
18,195,183265,1,0,0:0:0:0:
215,62,183438,6,0,L|335:68,1,90,0|0,3:0|0:0,0:0:0:0:
419,74,183783,1,8,0:0:0:0:
419,74,183955,1,0,0:0:0:0:
283,176,184127,6,0,L|403:170,1,90,0|0,0:0|3:0,0:0:0:0:
486,164,184472,1,8,0:0:0:0:
486,164,184645,1,0,0:0:0:0:
429,347,184817,6,0,P|440:303|435:259,1,90,0|0,3:0|0:0,0:0:0:0:
283,176,185162,1,8,0:0:0:0:
279,257,185334,1,0,0:0:0:0:
276,339,185507,1,0,0:0:0:0:
208,213,185679,5,0,3:0:0:0:
358,223,185852,1,8,0:0:0:0:
279,257,186024,1,0,0:0:0:0:
333,74,186196,6,0,P|290:59|246:66,1,90,0|0,3:0|0:0,0:0:0:0:
418,141,186541,1,8,0:0:0:0:
178,128,186714,5,0,3:0:0:0:
102,112,186800,1,8,0:0:0:0:
57,48,186886,5,0,0:0:0:0:
55,87,186972,1,0,3:0:0:0:
54,127,187058,1,0,3:0:0:0:
53,167,187145,1,0,3:0:0:0:
51,207,187231,1,8,0:0:0:0:
170,23,187403,1,0,3:0:0:0:
149,300,187576,5,0,3:0:0:0:
149,300,187921,6,0,B|184:316|184:316|265:303,1,107.999996704102,8|0,0:0|0:0,0:0:0:0:
434,274,188265,1,0,0:0:0:0:
349,237,188438,2,0,P|342:289|365:337,1,107.999996704102,0|8,3:0|0:0,0:0:0:0:
268,224,188783,1,0,0:0:0:0:
292,379,188955,1,0,3:0:0:0:
434,274,189127,1,0,0:0:0:0:
278,53,189300,5,8,0:0:0:0:
275,95,189386,1,0,0:0:0:0:
273,138,189472,1,0,0:0:0:0:
271,181,189558,1,0,0:0:0:0:
268,224,189645,1,0,0:0:0:0:
157,87,189817,5,0,3:0:0:0:
393,103,189990,1,8,0:0:0:0:
268,224,190162,1,0,0:0:0:0:
511,111,190334,5,0,3:0:0:0:
511,111,190679,2,0,B|520:150|520:150|499:232,1,107.999996704102,8|0,0:0|0:0,0:0:0:0:
397,363,191024,1,0,0:0:0:0:
397,197,191196,1,0,3:0:0:0:
305,316,191369,1,8,0:0:0:0:
484,314,191541,1,0,0:0:0:0:
277,198,191714,6,0,L|155:191,1,107.999996704102,0|0,3:0|0:0,0:0:0:0:
98,329,192058,2,0,L|220:322,1,107.999996704102,8|0,0:0|0:0,0:0:0:0:
69,227,192403,5,0,0:0:0:0:
305,316,192576,1,0,3:0:0:0:
124,73,192748,5,8,0:0:0:0:
98,329,192921,1,0,0:0:0:0:
227,55,193093,6,0,B|265:38|308:56|308:56|350:72|399:50,1,161.999995056153,0|0,3:0|0:0,0:0:0:0:
407,45,193438,1,8,0:0:0:0:
321,226,193610,2,0,P|283:188|266:138,1,107.999996704102,0|0,0:0|0:0,0:0:0:0:
216,232,193955,1,0,3:0:0:0:
363,135,194127,1,8,0:0:0:0:
266,138,194300,1,0,0:0:0:0:
305,316,194472,6,0,P|350:314|392:282,1,90,0|0,3:0|0:0,0:0:0:0:
482,321,194817,1,8,0:0:0:0:
482,321,194990,1,0,0:0:0:0:
463,143,195162,2,0,P|442:182|448:235,1,90,0|0,0:0|3:0,0:0:0:0:
482,321,195507,1,8,0:0:0:0:
482,321,195679,1,0,0:0:0:0:
364,219,195852,6,0,L|231:230,1,126
238,229,197231,5,0,3:0:0:0:
193,120,197403,1,0,0:0:0:0:
308,139,197576,1,0,0:0:0:0:
98,187,197748,5,0,0:0:0:0:
90,268,197834,1,8,0:0:0:0:
135,334,197921,5,0,0:0:0:0:
119,297,198007,1,0,3:0:0:0:
90,268,198093,1,0,3:0:0:0:
50,258,198179,1,0,3:0:0:0:
10,265,198265,1,8,0:0:0:0:
228,327,198438,1,0,3:0:0:0:
373,79,198610,6,0,B|374:116|374:116|382:139|382:139|377:159|377:159|379:198,1,121.499996292114,2|0,0:0|0:0,0:0:0:0:
381,221,198955,1,8,0:0:0:0:
286,142,199127,1,0,0:0:0:0:
206,215,199300,1,0,0:0:0:0:
280,48,199472,1,0,0:0:0:0:
292,236,199645,2,0,L|296:327,1,80.9999975280763,8|0,0:0|0:0,0:0:0:0:
201,132,199990,2,0,L|197:51,1,80.9999975280763,0|0,0:0|0:0,0:0:0:0:
49,180,200334,6,0,P|87:168|126:174,1,80.9999975280763,10|0,0:0|0:0,0:0:0:0:
206,215,200679,1,0,0:0:0:0:
58,278,200852,2,0,P|97:283|135:270,1,80.9999975280763,2|8,0:0|0:0,0:0:0:0:
206,215,201196,1,0,0:0:0:0:
376,210,201369,6,0,L|295:202,1,80.9999975280763,2|0,0:0|0:0,0:0:0:0:
464,247,201714,2,0,P|471:207|461:168,1,80.9999975280763,8|0,0:0|0:0,0:0:0:0:
324,78,202058,1,0,0:0:0:0:
446,54,202231,1,0,0:0:0:0:
373,0,202403,1,8,0:0:0:0:
397,131,202576,1,0,0:0:0:0:
239,57,202748,2,0,P|239:97|256:133,1,80.9999975280763,0|0,0:0|0:0,0:0:0:0:
169,275,203093,6,0,P|134:295|94:298,1,80.9999975280763,10|0,0:0|0:0,0:0:0:0:
54,152,203438,2,0,P|76:185|111:205,1,80.9999975280763,2|0,0:0|0:0,0:0:0:0:
3,319,203783,2,0,P|3:278|20:242,1,80.9999975280763,10|0,0:0|0:0,0:0:0:0:
139,115,204127,6,0,B|184:117|184:117|202:130|202:130|258:133,1,121.499996292114,2|0,0:0|0:0,0:0:0:0:
281,134,204472,1,8,0:0:0:0:
164,25,204645,1,0,0:0:0:0:
370,107,204817,2,0,P|376:146|361:183,1,80.9999975280763,2|0,0:0|0:0,0:0:0:0:
297,33,205162,1,8,0:0:0:0:
448,42,205334,1,0,0:0:0:0:
291,217,205507,6,0,B|286:235|291:257|291:257|277:278|277:278|289:305|277:349,1,121.499996292114,2|0,0:0|0:0,0:0:0:0:
277,355,205852,1,8,0:0:0:0:
381,233,206024,1,0,0:0:0:0:
198,313,206196,2,0,L|113:316,1,80.9999975280763,2|0,0:0|0:0,0:0:0:0:
207,230,206541,1,8,0:0:0:0:
277,355,206714,1,0,0:0:0:0:
236,151,206886,6,0,B|222:117|232:86|232:86|240:53|224:17,1,121.499996292114,2|0,0:0|0:0,0:0:0:0:
224,11,207231,1,8,0:0:0:0:
326,114,207403,1,0,0:0:0:0:
142,58,207576,6,0,P|101:59|66:79,1,80.9999975280763,0|0,0:0|0:0,0:0:0:0:
106,218,207921,2,0,P|124:182|125:142,1,80.9999975280763,8|0,0:0|0:0,0:0:0:0:
34,280,208265,1,0,0:0:0:0:
169,289,208438,1,0,0:0:0:0:
98,341,208610,1,10,0:0:0:0:
250,239,208783,5,0,0:0:0:0:
263,286,208869,2,0,P|265:309|257:330,1,40.4999987640381,8|0,0:0|0:0,0:0:0:0:
337,244,209041,1,0,0:0:0:0:
375,231,209127,1,0,0:0:0:0:
415,228,209214,1,0,0:0:0:0:
453,241,209300,1,8,0:0:0:0:
401,371,209472,1,0,0:0:0:0:
394,152,209645,6,0,B|391:109|391:109|395:91|395:91|390:76|390:76|387:25,1,121.499996292114,2|0,0:0|0:0,0:0:0:0:
388,12,209990,1,8,0:0:0:0:
188,85,210162,1,0,0:0:0:0:
309,94,210334,1,0,0:0:0:0:
243,170,210507,1,0,0:0:0:0:
293,16,210679,2,0,P|254:5|214:9,1,80.9999975280763,8|0,0:0|0:0,0:0:0:0:
30,95,211024,2,0,P|68:105|108:101,1,80.9999975280763,0|0,0:0|0:0,0:0:0:0:
247,250,211369,6,0,L|243:170,1,80.9999975280763,10|0,0:0|0:0,0:0:0:0:
178,294,211714,1,0,0:0:0:0:
322,147,211886,2,0,L|338:67,1,80.9999975280763,2|8,0:0|0:0,0:0:0:0:
243,170,212231,1,0,0:0:0:0:
448,67,212403,6,0,L|464:146,1,80.9999975280763,2|0,0:0|0:0,0:0:0:0:
362,255,212748,2,0,P|401:245|441:254,1,80.9999975280763,8|0,0:0|0:0,0:0:0:0:
303,317,213093,1,0,0:0:0:0:
243,170,213265,1,0,0:0:0:0:
217,267,213438,1,8,0:0:0:0:
217,77,213610,1,0,0:0:0:0:
63,177,213783,2,0,L|143:174,1,80.9999975280763,0|0,0:0|0:0,0:0:0:0:
339,205,214127,6,0,P|345:165|335:127,1,80.9999975280763,10|0,0:0|0:0,0:0:0:0:
403,64,214472,2,0,P|435:90|473:100,1,80.9999975280763,2|0,0:0|0:0,0:0:0:0:
492,189,214817,2,0,P|454:204|427:233,1,80.9999975280763,10|0,0:0|0:0,0:0:0:0:
369,384,215162,6,0,B|327:381|327:381|304:365|304:365|237:362,1,121.499996292114,2|0,0:0|0:0,0:0:0:0:
230,363,215507,1,8,0:0:0:0:
364,293,215679,1,0,0:0:0:0:
155,225,215852,2,0,P|152:265|167:302,1,80.9999975280763,2|0,0:0|0:0,0:0:0:0:
236,170,216196,1,8,0:0:0:0:
95,159,216369,1,0,0:0:0:0:
333,196,216541,6,0,B|345:164|331:133|331:133|319:100|329:64,1,121.499996292114,2|0,0:0|0:0,0:0:0:0:
331,58,216886,1,8,0:0:0:0:
236,170,217058,1,0,0:0:0:0:
418,95,217231,2,0,L|505:91,1,80.9999975280763,2|0,0:0|0:0,0:0:0:0:
430,222,217576,1,8,0:0:0:0:
418,95,217748,1,0,0:0:0:0:
276,258,217921,6,0,P|284:344|347:284,1,215.999993408203,2|0,0:0|0:0,0:0:0:0:
333,196,219472,1,0,0:0:0:0:
285,113,219645,1,0,0:0:0:0:
305,25,219817,5,0,0:0:0:0:
351,10,219903,2,0,P|370:7|397:7,1,40.4999987640381,8|0,0:0|0:0,0:0:0:0:
471,89,220076,5,0,0:0:0:0:
472,129,220162,1,0,0:0:0:0:
473,169,220248,1,0,0:0:0:0:
474,209,220334,1,10,0:0:0:0:
351,10,220507,1,0,0:0:0:0:
402,282,220679,5,4,0:0:0:0:
256,192,220765,12,0,223438,0:0:0:0:
