osu file format v14

[General]
AudioFilename: audio.mp3
AudioLeadIn: 0
PreviewTime: 77576
Countdown: 0
SampleSet: Normal
StackLeniency: 0.4
Mode: 0
LetterboxInBreaks: 0
WidescreenStoryboard: 1

[Editor]
Bookmarks: 43,22112,44181,55215,66250,88319,110388,132457,154526,165560,176595,198664,220732
DistanceSpacing: 1
BeatDivisor: 8
GridSize: 4
TimelineZoom: 1.9

[Metadata]
Title:Drifters (feat. Elizaveta)
TitleUnicode:Drifters (feat. Elizaveta)
Artist:Feint
ArtistUnicode:Feint
Creator:C00L
Version:HOS' Normal
Source:
Tags:electronic english drum n & and bass dnb cool monstercat elizaveta khripounova deca stratos HOS HootOwlStar LASS LowAccuracySS Kowari b00 boo
BeatmapID:2551900
BeatmapSetID:951304

[Difficulty]
HPDrainRate:3
CircleSize:3.5
OverallDifficulty:4
ApproachRate:5
SliderMultiplier:0.9
SliderTickRate:1

[Events]
//Background and Video events
0,0,"Flowers_Drift_afar.jpg",0,0
//Break Periods
2,113293,131203
//Storyboard Layer 0 (Background)
//Storyboard Layer 1 (Fail)
//Storyboard Layer 2 (Pass)
//Storyboard Layer 3 (Foreground)
//Storyboard Layer 4 (Overlay)
//Storyboard Sound Samples

[TimingPoints]
-10,344.827586206897,4,2,1,40,1,0
26800,-100,4,2,1,5,0,0
26886,-100,4,2,1,40,0,0
27145,-100,4,2,1,5,0,0
27231,-100,4,2,1,40,0,0
27490,-100,4,2,1,5,0,0
27576,-100,4,2,1,40,0,0
43438,-100,4,2,1,50,0,0
43697,-100,4,2,1,5,0,0
43783,-100,4,2,1,50,0,0
44042,-100,4,2,1,5,0,0
44128,-100,4,2,1,50,0,0
55162,-100,4,3,1,60,0,0
64817,-100,4,2,1,30,0,0
65507,-100,4,1,1,50,0,0
66196,-86.9565217391304,4,1,1,75,0,1
88265,-100,4,1,2,60,0,0
132404,-100,4,2,1,40,0,0
137145,-100,4,2,1,5,0,0
137231,-100,4,2,1,40,0,0
137490,-100,4,2,1,5,0,0
137576,-100,4,2,1,40,0,0
137835,-100,4,2,1,5,0,0
137921,-100,4,2,1,40,0,0
153783,-100,4,2,1,50,0,0
154042,-100,4,2,1,5,0,0
154128,-100,4,2,1,50,0,0
154386,-100,4,2,1,5,0,0
154473,-100,4,2,1,50,0,0
165507,-100,4,3,1,60,0,0
175162,-100,4,2,1,30,0,0
175852,-100,4,1,1,50,0,0
176541,-86.9565217391304,4,1,1,75,0,1
198610,-100,4,1,2,60,0,0

[Colours]
Combo1 : 250,180,240
Combo2 : 110,190,225
Combo3 : 255,230,130
Combo4 : 150,230,140

[HitObjects]
36,0,22058,6,0,P|55:39|63:83,1,90,2|0,0:0|0:0,0:0:0:0:
120,156,22748,2,0,B|80:192|80:192|-20:172,2,135,2|0|2,0:0|0:0|0:0,0:0:0:0:
200,200,24127,2,0,B|236:240|236:240|216:340,1,135,2|2,0:0|0:0,0:0:0:0:
204,336,24817,6,0,B|260:324|260:324|300:340|300:340|355:319|355:319|344:284|349:199|435:170|521:206|543:300|493:371|422:368,1,540,2|2,0:0|0:0,0:0:0:0:
268,240,27576,6,0,P|260:192|224:160,1,90,2|0,0:0|0:0,0:0:0:0:
148,128,28265,2,0,P|148:56|208:20,2,135,2|0|2,0:0|0:0|0:0,0:0:0:0:
156,216,29645,2,0,L|21:204,1,135,2|2,0:0|0:0,0:0:0:0:
4,220,30334,5,2,0:0:0:0:
24,308,30679,2,0,B|68:324|84:368|84:368|108:344|144:336|144:336|192:392|260:364|284:332|268:268,1,360,0|0,0:0|0:0,0:0:0:0:
336,212,32403,2,0,P|384:224|416:256,1,90,2|0,0:0|0:0,0:0:0:0:
388,336,33093,5,2,0:0:0:0:
512,176,33783,2,0,L|492:36,2,135,2|0|2,0:0|0:0|0:0,0:0:0:0:
424,192,35162,2,0,L|404:52,1,135,2|2,0:0|0:0,0:0:0:0:
392,40,35852,6,0,B|352:36|320:68|320:68|260:48|260:48|304:180|96:284|28:32|172:8,1,540,2|2,0:0|0:0,0:0:0:0:
348,164,38610,6,0,P|368:204|376:256,1,90,2|0,0:0|0:0,0:0:0:0:
460,284,39300,2,0,P|445:326|414:368,1,90,2|0,0:0|0:0,0:0:0:0:
400,372,39817,2,0,L|304:360,1,90,0|0,0:0|0:0,0:0:0:0:
184,312,40679,2,0,P|128:300|92:364,1,135,2|2,0:0|0:0,0:0:0:0:
72,372,41369,5,2,0:0:0:0:
0,320,41714,2,0,B|12:260|12:260|-16:216|-16:216|-4:140,1,180,0|0,0:0|0:0,0:0:0:0:
28,68,42748,2,0,B|-16:48|-16:48|116:28,1,180,0|2,0:0|0:0,0:0:0:0:
140,116,43783,1,2,0:0:0:0:
224,88,44127,6,0,P|228:48|260:4,1,90,2|10,0:0|0:0,0:0:0:0:
336,48,44817,2,0,L|472:40,1,135,0|2,0:0|0:0,0:0:0:0:
512,120,45679,2,0,B|480:156|480:156|500:244,1,135,0|2,0:0|0:0,0:0:0:0:
500,332,46541,1,8,0:0:0:0:
420,288,46886,6,0,B|360:280|360:280|316:312|316:312|252:304,1,180,2|0,0:0|0:0,0:0:0:0:
184,244,47921,1,8,0:0:0:0:
104,288,48265,2,0,P|108:332|88:376,2,90,2|8|2,0:0|0:0|0:0,0:0:0:0:
184,244,49300,1,8,0:0:0:0:
251,303,49645,6,0,L|347:291,1,90,2|8,0:0|0:0,0:0:0:0:
352,312,50162,2,0,P|416:328|448:276,1,135,2|8,0:0|0:0,0:0:0:0:
396,200,51024,2,0,B|416:168|416:168|512:180,2,135,2|0|8,0:0|0:0|0:0,0:0:0:0:
312,172,52403,6,0,L|304:128,2,45,2|0|8,0:0|0:0|0:0,0:0:0:0:
292,184,52921,2,0,P|240:216|240:292,1,135,2|8,0:0|0:0,0:0:0:0:
224,372,53783,2,0,P|179:368|141:344,1,90,2|10,0:0|0:0,0:0:0:0:
54,371,54472,1,2,0:0:0:0:
1,299,54817,1,10,0:0:0:0:
53,225,55162,6,0,B|112:216|112:216|160:244|160:244|224:234,1,180,0|0,0:0|0:0,0:0:0:0:
304,192,56196,1,8,0:0:0:0:
223,147,56541,2,0,P|224:103|247:65,1,90,0|8,0:0|0:0,0:0:0:0:
316,8,57231,2,0,B|356:28|356:28|408:16,1,90,0|8,0:0|0:0,0:0:0:0:
476,68,57921,6,0,B|485:127|485:127|457:175|457:175|466:239,1,180,0|0,0:0|0:0,0:0:0:0:
512,316,58955,1,8,0:0:0:0:
440,368,59300,2,0,P|396:368|360:336,1,90,0|8,0:0|0:0,0:0:0:0:
276,316,59990,2,0,P|232:316|196:348,1,90,0|8,0:0|0:0,0:0:0:0:
112,368,60679,6,0,L|100:272,1,90,0|8,0:0|0:0,0:0:0:0:
112,260,61196,2,0,P|40:268|8:208,1,135,0|8,0:0|0:0,0:0:0:0:
48,140,62058,2,0,B|136:104|136:176|224:140,1,180,0|0,0:0|0:0,0:0:0:0:
288,204,63093,1,8,0:0:0:0:
352,140,63438,6,0,B|380:104|380:104|356:8,2,135,0|0|8,0:0|0:0|0:0,0:0:0:0:
288,204,64817,1,0,0:0:0:0:
207,162,65162,1,0,0:0:0:0:
221,72,65507,1,0,3:0:0:0:
311,58,65852,1,0,3:0:0:0:
352,140,66196,6,0,L|456:128,1,103.500001974106,0|8,3:0|0:0,0:0:0:0:
508,216,66886,2,0,L|405:227,1,103.500001974106,0|8,0:0|0:0,0:0:0:0:
380,232,67403,2,0,B|416:272|416:272|400:372,1,155.250002961159,0|8,0:0|0:0,0:0:0:0:
312,316,68265,2,0,P|256:320|224:352,1,103.500001974106,0|8,0:0|0:0,0:0:0:0:
124,372,68955,6,0,P|89:334|88:284,1,103.500001974106,0|8,3:0|0:0,0:0:0:0:
0,228,69645,2,0,P|34:190|35:140,1,103.500001974106,0|8,0:0|0:0,0:0:0:0:
24,116,70162,2,0,L|178:135,1,155.250002961159,0|8,0:0|0:0,0:0:0:0:
196,32,71024,1,0,0:0:0:0:
299,17,71369,1,8,0:0:0:0:
345,110,71714,5,0,3:0:0:0:
270,182,72058,2,0,B|288:284|288:284|252:324,1,155.250002961159,8|0,0:0|3:0,0:0:0:0:
272,340,72748,1,8,0:0:0:0:
368,376,73093,2,0,P|404:340|460:340,1,103.500001974106,0|8,3:0|0:0,0:0:0:0:
512,252,73783,2,0,P|461:249|425:213,1,103.500001974106,0|8,0:0|0:0,0:0:0:0:
480,124,74472,5,0,3:0:0:0:
428,36,74817,2,0,B|376:28|376:28|332:52|332:52|272:44,1,155.250002961159,8|0,0:0|3:0,0:0:0:0:
260,28,75507,2,0,L|272:132,1,103.500001974106,8|0,0:0|3:0,0:0:0:0:
360,188,76196,2,0,P|384:168|432:160,2,77.6250014805794,8|8|0,0:0|0:0|0:0,0:0:0:0:
352,212,76886,1,8,0:0:0:0:
264,268,77231,6,0,P|289:312|267:376,1,103.500001974106,0|8,3:0|0:0,0:0:0:0:
176,377,77921,2,0,P|150:332|172:268,1,103.500001974106,0|8,0:0|0:0,0:0:0:0:
148,260,78438,2,0,B|112:224|112:224|4:240,1,155.250002961159,0|8,0:0|0:0,0:0:0:0:
32,140,79300,2,0,L|21:68,1,51.7500009870529,0|0,0:0|3:0,0:0:0:0:
20,64,79645,1,8,0:0:0:0:
108,12,79990,6,0,P|146:45|197:47,1,103.500001974106,0|8,3:0|0:0,0:0:0:0:
276,112,80679,2,0,P|304:84|376:80,1,103.500001974106,0|8,0:0|0:0,0:0:0:0:
388,64,81196,2,0,B|424:100|424:100|408:203,1,155.250002961159,0|8,0:0|0:0,0:0:0:0:
509,231,82058,1,0,0:0:0:0:
512,336,82403,1,8,0:0:0:0:
413,372,82748,5,0,3:0:0:0:
349,289,83093,2,0,B|294:281|294:281|254:305|254:305|190:297,1,155.250002961159,8|0,0:0|3:0,0:0:0:0:
182,281,83783,1,8,0:0:0:0:
138,373,84127,2,0,P|88:360|53:323,1,103.500001974106,0|8,3:0|0:0,0:0:0:0:
0,236,84817,2,0,P|36:200|49:151,1,103.500001974106,0|8,0:0|0:0,0:0:0:0:
128,84,85507,6,0,B|178:116|172:171|172:171|221:108|307:135|307:135|335:223|252:270,1,414.000007896424,0|0,3:0|3:0,0:0:0:0:
188,352,87231,2,0,P|164:332|116:324,2,77.6250014805794,0|8|0,0:0|0:0|0:0,0:0:0:0:
196,376,87921,1,8,0:0:0:0:
296,352,88265,6,0,P|360:372|396:280,1,180,2|0,0:0|0:0,0:0:0:0:
460,220,89300,2,0,P|476:176|512:152,1,90,8|0,0:0|0:0,0:0:0:0:
447,87,89990,2,0,P|433:46|397:20,1,90,10|0,0:0|0:0,0:0:0:0:
376,32,90507,2,0,L|284:40,1,90,2|0,0:0|0:0,0:0:0:0:
276,20,91024,6,0,B|268:88|268:88|292:128|292:128|284:192,1,180,2|0,0:0|0:0,0:0:0:0:
200,156,92058,2,0,L|110:148,1,90,8|0,0:0|0:0,0:0:0:0:
40,92,92748,2,0,P|28:40|0:8,2,90,10|2|10,0:0|0:0|0:0,0:0:0:0:
110,148,93783,6,0,P|83:183|75:227,1,90,2|8,0:0|0:0,0:0:0:0:
0,280,94472,2,0,P|6:324|31:360,1,90,2|8,0:0|0:0,0:0:0:0:
120,376,95162,2,0,B|152:344|152:344|204:360,1,90,2|8,0:0|0:0,0:0:0:0:
280,324,95852,2,0,B|312:356|312:356|364:340,1,90,2|8,0:0|0:0,0:0:0:0:
440,376,96541,6,0,B|472:336|472:336|444:210,1,180,2|0,0:0|0:0,0:0:0:0:
512,152,97576,1,8,0:0:0:0:
477,69,97921,1,0,0:0:0:0:
387,76,98265,2,0,B|351:69|342:33|342:33|319:62|279:55,1,135,10|0,0:0|0:0,0:0:0:0:
268,76,98955,1,8,0:0:0:0:
200,16,99300,6,0,B|88:16|148:80|24:80,1,180,2|0,0:0|0:0,0:0:0:0:
0,160,100334,2,0,P|24:184|36:240,1,90,8|0,0:0|0:0,0:0:0:0:
112,288,101024,2,0,P|88:312|76:368,1,90,10|0,0:0|0:0,0:0:0:0:
96,376,101541,2,0,L|188:364,1,90,2|0,0:0|0:0,0:0:0:0:
204,376,102058,6,0,B|240:336|240:336|364:356,1,180,2|0,0:0|0:0,0:0:0:0:
452,376,103093,2,0,L|440:284,1,90,8|0,0:0|0:0,0:0:0:0:
428,196,103783,2,0,P|460:168|508:168,2,90,10|2|10,0:0|0:0|0:0,0:0:0:0:
360,136,104817,6,0,P|315:135|282:107,1,90,2|8,0:0|0:0,0:0:0:0:
240,28,105507,2,0,L|144:40,1,90,2|8,0:0|0:0,0:0:0:0:
64,8,106196,2,0,P|35:41|35:85,1,90,2|8,0:0|0:0,0:0:0:0:
0,168,106886,2,0,P|28:201|28:245,1,90,2|8,0:0|0:0,0:0:0:0:
0,332,107576,6,0,B|51:332|76:368|76:368|82:340|105:326|105:326|141:360|206:352|224:292,1,270,2|0,0:0|0:0,0:0:0:0:
172,232,108955,2,0,B|115:232|99:160|99:160|191:108|239:180,1,270,0|10,0:0|0:0,0:0:0:0:
256,268,110334,5,4,0:0:0:0:
256,192,110679,12,0,113093,0:0:0:0:
256,268,132403,6,0,P|276:296|288:352,1,90,2|0,0:0|0:0,0:0:0:0:
372,376,133093,2,0,L|508:364,2,135,2|0|2,0:0|0:0|0:0,0:0:0:0:
360,288,134472,2,0,L|496:276,1,135,2|2,0:0|0:0,0:0:0:0:
512,260,135162,6,0,B|496:204|496:204|516:164|516:164|504:112|504:112|440:64|376:112|376:112|312:168|248:120|248:120|244:56|300:32,1,540,2|2,0:0|0:0,0:0:0:0:
92,8,137921,6,0,P|116:32|132:88,1,90,2|0,0:0|0:0,0:0:0:0:
100,168,138610,2,0,P|40:168|0:228,2,135,2|2|2,0:0|0:0|0:0,0:0:0:0:
156,240,139990,2,0,P|158:304|213:339,1,135,2|2,0:0|0:0,0:0:0:0:
232,328,140679,5,2,0:0:0:0:
308,376,141024,2,0,B|327:359|337:332|337:332|381:380|443:365|443:365|507:275|436:216|402:214,1,360,0|0,0:0|0:0,0:0:0:0:
432,128,142748,2,0,P|464:100|512:92,1,90,2|0,0:0|0:0,0:0:0:0:
472,8,143438,5,2,0:0:0:0:
296,52,144127,2,0,B|320:116|320:116|288:176,2,135,2|0|2,0:0|0:0|0:0,0:0:0:0:
208,44,145507,2,0,B|176:102|176:102|200:166,1,135,2|2,0:0|0:0,0:0:0:0:
208,188,146196,6,0,B|156:120|76:168|56:240|128:288|128:288|128:344|84:376|84:376|-32:344|8:228,1,540,2|2,0:0|0:0,0:0:0:0:
223,284,148955,6,0,L|313:272,1,90,2|0,0:0|0:0,0:0:0:0:
388,324,149645,2,0,P|412:360|500:360,2,135,2|0|2,0:0|0:0|0:0,0:0:0:0:
440,252,151024,2,0,P|476:228|476:140,1,135,2|2,0:0|0:0,0:0:0:0:
496,128,151714,5,2,0:0:0:0:
440,56,152058,2,0,B|352:20|352:92|265:56,1,180,0|0,0:0|0:0,0:0:0:0:
192,8,153093,2,0,B|152:48|152:48|176:172,1,180,0|2,0:0|0:0,0:0:0:0:
256,212,154127,1,2,0:0:0:0:
232,300,154472,6,0,P|188:304|160:344,1,90,2|10,0:0|0:0,0:0:0:0:
76,372,155162,2,0,P|32:328|48:256,1,135,0|2,0:0|0:0,0:0:0:0:
0,180,156024,2,0,L|140:168,1,135,0|2,0:0|0:0,0:0:0:0:
192,236,156886,1,8,0:0:0:0:
276,200,157231,6,0,B|268:140|268:140|300:96|300:96|292:32,1,180,0|0,0:0|0:0,0:0:0:0:
380,8,158265,1,8,0:0:0:0:
428,84,158610,2,0,P|472:84|512:56,2,90,2|8|2,0:0|0:0|0:0,0:0:0:0:
380,8,159645,1,8,0:0:0:0:
292,32,159990,6,0,L|308:124,1,90,0|10,0:0|0:0,0:0:0:0:
292,136,160507,2,0,P|224:136|196:192,1,135,2|8,0:0|0:0,0:0:0:0:
140,260,161369,2,0,B|72:232|72:288|4:260,2,135,2|0|8,0:0|0:0|0:0,0:0:0:0:
192,332,162748,6,0,L|188:376,2,45,2|0|8,0:0|0:0|0:0,0:0:0:0:
212,320,163265,2,0,P|272:332|308:272,1,135,2|8,0:0|0:0,0:0:0:0:
348,196,164127,2,0,P|392:200|427:227,1,90,2|10,0:0|0:0,0:0:0:0:
510,190,164817,1,2,0:0:0:0:
501,98,165162,1,10,0:0:0:0:
411,78,165507,6,0,B|352:87|352:87|304:59|304:59|240:69,1,180,8|8,0:0|0:0,0:0:0:0:
172,8,166541,1,0,0:0:0:0:
96,60,166886,2,0,P|120:98|124:142,1,90,8|0,0:0|0:0,0:0:0:0:
38,171,167576,2,0,P|28:215|0:250,1,90,8|0,0:0|0:0,0:0:0:0:
40,332,168265,6,0,B|128:296|128:368|216:332,1,180,8|8,0:0|0:0,0:0:0:0:
248,248,169300,1,0,0:0:0:0:
324,296,169645,2,0,P|324:340|364:384,1,90,8|0,0:0|0:0,0:0:0:0:
436,344,170334,2,0,P|436:300|396:256,1,90,8|0,0:0|0:0,0:0:0:0:
484,216,171024,6,0,P|484:172|524:128,1,90,8|0,0:0|0:0,0:0:0:0:
496,120,171541,2,0,P|436:120|404:60,1,135,0|0,0:0|0:0,0:0:0:0:
316,36,172403,2,0,P|237:13|211:90,1,180,8|8,0:0|0:0,0:0:0:0:
188,176,173438,1,0,0:0:0:0:
125,113,173783,6,0,B|96:84|96:84|0:96,2,135,8|0|0,0:0|0:0|0:0,0:0:0:0:
188,176,175162,1,0,0:0:0:0:
267,135,175507,1,0,0:0:0:0:
252,47,175852,1,0,3:0:0:0:
163,33,176196,1,0,3:0:0:0:
125,113,176541,6,0,P|68:120|36:156,1,103.500001974106,0|8,3:0|0:0,0:0:0:0:
0,248,177231,2,0,P|57:255|89:291,1,103.500001974106,0|8,0:0|0:0,0:0:0:0:
80,312,177748,2,0,P|120:332|184:244,1,155.250002961159,0|8,0:0|0:0,0:0:0:0:
292,284,178610,2,0,B|280:336|280:336|312:388,1,103.500001974106,0|8,0:0|0:0,0:0:0:0:
408,364,179300,6,0,B|420:312|420:312|388:260,1,103.500001974106,0|8,3:0|0:0,0:0:0:0:
424,172,179990,2,0,P|476:172|512:128,1,103.500001974106,0|8,0:0|0:0,0:0:0:0:
495,115,180507,2,0,P|451:58|381:79,1,155.250002961159,0|8,0:0|0:0,0:0:0:0:
308,8,181369,1,0,0:0:0:0:
216,55,181714,1,8,0:0:0:0:
232,157,182058,5,0,3:0:0:0:
333,173,182403,2,0,L|488:160,1,155.250002961159,8|0,0:0|3:0,0:0:0:0:
512,172,183093,1,8,0:0:0:0:
460,260,183438,2,0,P|488:304|476:360,1,103.500001974106,0|8,3:0|0:0,0:0:0:0:
380,376,184127,2,0,P|352:332|364:276,1,103.500001974106,0|8,0:0|0:0,0:0:0:0:
268,236,184817,5,0,3:0:0:0:
211,323,185162,2,0,P|139:312|101:374,1,155.250002961159,8|0,0:0|3:0,0:0:0:0:
88,352,185852,2,0,P|36:344|4:304,1,103.500001974106,8|0,0:0|3:0,0:0:0:0:
40,208,186541,2,0,L|30:124,2,77.6250014805794,8|8|0,0:0|0:0|3:0,0:0:0:0:
60,224,187231,1,8,0:0:0:0:
144,164,187576,6,0,L|132:52,1,103.500001974106,0|8,3:0|0:0,0:0:0:0:
228,20,188265,2,0,B|280:12|280:12|320:44,1,103.500001974106,0|8,0:0|0:0,0:0:0:0:
308,68,188783,2,0,L|470:48,1,155.250002961159,0|8,0:0|0:0,0:0:0:0:
512,140,189645,2,0,L|460:146,1,51.7500009870529,0|0,0:0|3:0,0:0:0:0:
444,164,189990,1,8,0:0:0:0:
512,244,190334,6,0,P|484:284|480:340,1,103.500001974106,0|8,3:0|0:0,0:0:0:0:
384,376,191024,2,0,P|380:324|351:282,1,103.500001974106,0|8,0:0|0:0,0:0:0:0:
336,264,191541,2,0,B|304:300|304:300|198:284,1,155.250002961159,0|8,0:0|0:0,0:0:0:0:
152,376,192403,1,0,0:0:0:0:
50,360,192748,1,8,0:0:0:0:
33,258,193093,5,0,3:0:0:0:
125,211,193438,2,0,B|118:158|118:158|142:118|142:118|134:63,1,155.250002961159,8|0,0:0|3:0,0:0:0:0:
130,36,194127,1,8,0:0:0:0:
232,8,194472,2,0,P|292:24|316:56,1,103.500001974106,0|8,3:0|0:0,0:0:0:0:
412,88,195162,2,0,P|396:148|364:172,1,103.500001974106,0|8,0:0|0:0,0:0:0:0:
432,252,195852,6,0,B|496:259|521:329|521:329|443:406|362:314|362:314|300:320|286:387,1,414.000007896424,0|0,3:0|3:0,0:0:0:0:
192,344,197576,2,0,P|152:340|120:316,2,77.6250014805794,0|8|0,0:0|0:0|0:0,0:0:0:0:
208,324,198265,1,8,0:0:0:0:
200,236,198610,6,0,B|192:168|192:168|216:128|216:128|208:64,1,180,2|0,0:0|0:0,0:0:0:0:
280,8,199645,2,0,P|332:16|360:56,1,90,8|0,0:0|0:0,0:0:0:0:
444,64,200334,2,0,P|440:107|409:139,1,90,10|0,0:0|0:0,0:0:0:0:
428,152,200852,2,0,P|431:195|462:227,1,90,2|0,0:0|0:0,0:0:0:0:
484,240,201369,6,0,B|396:204|396:276|308:240,1,180,2|0,0:0|0:0,0:0:0:0:
240,296,202403,2,0,B|196:288|196:288|160:328,1,90,8|0,0:0|0:0,0:0:0:0:
80,296,203093,2,0,B|51:330|51:330|65:373,2,90,10|2|10,0:0|0:0|0:0,0:0:0:0:
72,208,204127,6,0,P|24:192|0:160,1,90,2|8,0:0|0:0,0:0:0:0:
64,96,204817,2,0,P|80:48|112:24,1,90,2|8,0:0|0:0,0:0:0:0:
176,88,205507,2,0,P|224:104|248:136,1,90,2|8,0:0|0:0,0:0:0:0:
184,200,206196,2,0,P|168:248|136:272,1,90,2|8,0:0|0:0,0:0:0:0:
196,340,206886,6,0,B|304:317|258:392|365:369,1,180,2|0,0:0|0:0,0:0:0:0:
452,340,207921,1,8,0:0:0:0:
469,251,208265,1,0,0:0:0:0:
400,191,208610,2,0,P|336:184|312:240,1,135,10|0,0:0|0:0,0:0:0:0:
292,252,209300,1,8,0:0:0:0:
292,344,209645,6,0,B|224:336|224:336|184:360|184:360|120:352,1,180,2|0,0:0|0:0,0:0:0:0:
32,376,210679,2,0,L|20:272,1,90,8|0,0:0|0:0,0:0:0:0:
0,200,211369,2,0,P|42:188|71:154,1,90,10|0,0:0|0:0,0:0:0:0:
60,136,211886,2,0,B|40:96|40:96|60:52,1,90,2|0,0:0|0:0,0:0:0:0:
72,36,212403,6,0,L|264:52,1,180,2|0,0:0|0:0,0:0:0:0:
332,8,213438,2,0,P|362:40|372:83,1,90,8|0,0:0|0:0,0:0:0:0:
436,144,214127,2,0,P|479:134|511:103,2,90,10|2|10,0:0|0:0|0:0,0:0:0:0:
372,208,215162,6,0,P|339:177|296:167,1,90,2|8,0:0|0:0,0:0:0:0:
220,116,215852,2,0,P|189:148|179:191,1,90,2|8,0:0|0:0,0:0:0:0:
128,268,216541,2,0,P|160:298|203:308,1,90,2|8,0:0|0:0,0:0:0:0:
280,360,217231,2,0,P|310:327|320:284,1,90,2|8,0:0|0:0,0:0:0:0:
384,220,217921,6,0,B|408:264|456:268|456:268|524:184|420:184|468:88,1,270,2|0,0:0|0:0,0:0:0:0:
396,40,219300,2,0,B|340:28|340:28|288:56|288:56|228:40|228:40|180:72|200:128,1,270,0|10,0:0|0:0,0:0:0:0:
256,192,220679,5,4,0:0:0:0:
256,192,221024,12,0,223438,0:0:0:0:
