osu file format v14

[General]
AudioFilename: audio.mp3
AudioLeadIn: 0
PreviewTime: 77576
Countdown: 0
SampleSet: Normal
StackLeniency: 0.4
Mode: 0
LetterboxInBreaks: 0
WidescreenStoryboard: 1

[Editor]
Bookmarks: 43,905,22112,44181,55215,61077,66250,88319,110388,112801,114181,115043,117026,118146,124267,124870,127629,129612,132457,154526,165560,176595,198664,220732
DistanceSpacing: 0.4
BeatDivisor: 4
GridSize: 16
TimelineZoom: 2.799999

[Metadata]
Title:Drifters (feat. Elizaveta)
TitleUnicode:Drifters (feat. Elizaveta)
Artist:Feint
ArtistUnicode:Feint
Creator:C00L
Version:DecaStratos' Light Insane
Source:
Tags:electronic english drum n & and bass dnb cool monstercat elizaveta khripounova deca stratos HOS HootOwlStar LASS LowAccuracySS Kowari b00 boo
BeatmapID:2524734
BeatmapSetID:951304

[Difficulty]
HPDrainRate:5
CircleSize:4
OverallDifficulty:7.5
ApproachRate:8.6
SliderMultiplier:1.2
SliderTickRate:1

[Events]
//Background and Video events
0,0,"Flowers_Drift_afar.jpg",0,0
//Break Periods
2,110534,131744
//Storyboard Layer 0 (Background)
//Storyboard Layer 1 (Fail)
//Storyboard Layer 2 (Pass)
//Storyboard Layer 3 (Foreground)
//Storyboard Layer 4 (Overlay)
//Storyboard Sound Samples

[TimingPoints]
-10,344.827586206897,4,2,1,40,1,0
22058,-100,4,2,1,40,0,0
26800,-100,4,2,1,5,0,0
26886,-100,4,2,1,40,0,0
27145,-100,4,2,1,5,0,0
27231,-100,4,2,1,40,0,0
27490,-100,4,2,1,5,0,0
27576,-100,4,2,1,40,0,0
43438,-100,4,2,1,50,0,0
43697,-100,4,2,1,5,0,0
43783,-100,4,2,1,50,0,0
44042,-100,4,2,1,5,0,0
44128,-100,4,2,1,50,0,0
55162,-100,4,3,1,60,0,0
64817,-100,4,2,1,30,0,0
65507,-100,4,1,1,50,0,0
66196,-66.6666666666667,4,1,1,75,0,1
85507,-100,4,1,1,75,0,1
88265,-66.6666666666667,4,1,2,60,0,0
107576,-100,4,1,2,60,0,0
132403,-166.666666666667,4,2,1,40,0,0
137145,-166.666666666667,4,2,1,5,0,0
137231,-166.666666666667,4,2,1,40,0,0
137490,-166.666666666667,4,2,1,5,0,0
137576,-166.666666666667,4,2,1,40,0,0
137835,-166.666666666667,4,2,1,5,0,0
137921,-129.533678756477,4,2,1,40,0,0
143438,-166.666666666667,4,2,1,40,0,0
148955,-125,4,2,1,40,0,0
151024,-111.111111111111,4,2,1,40,0,0
153783,-111.111111111111,4,2,1,50,0,0
154042,-111.111111111111,4,2,1,5,0,0
154128,-111.111111111111,4,2,1,50,0,0
154386,-111.111111111111,4,2,1,5,0,0
154472,-100,4,2,1,50,0,0
165507,-100,4,3,1,60,0,0
175162,-100,4,2,1,30,0,0
175852,-100,4,1,1,50,0,0
176541,-66.6666666666667,4,1,1,75,0,1
195852,-100,4,1,1,75,0,1
198610,-66.6666666666667,4,1,2,60,0,0
217921,-100,4,1,2,60,0,0

[Colours]
Combo1 : 250,180,240
Combo2 : 110,190,225
Combo3 : 255,230,130
Combo4 : 150,230,140

[HitObjects]
208,290,22058,6,0,B|99:212|218:42|392:117|392:117|326:119|303:174,1,480,2|0,0:0|0:0,0:0:0:0:
306,263,23783,2,0,P|358:267|427:276,1,120,2|2,0:0|0:0,0:0:0:0:
471,197,24300,2,0,P|411:189|345:178,1,120,0|2,0:0|0:0,0:0:0:0:
326,73,24817,6,0,B|210:27|67:74|35:268|132:301|206:284|228:224|217:191|194:155,1,480,2|0,0:0|0:0,0:0:0:0:
63,98,26541,1,2,0:0:0:0:
0,163,26886,1,2,0:0:0:0:
30,261,27231,1,2,0:0:0:0:
134,346,27576,2,0,B|299:176|445:317|445:317|348:324|257:221|273:2|486:5|486:183|400:191,1,840,2|0,0:0|0:0,0:0:0:0:
134,346,30334,6,0,B|152:250|8:168|8:168|139:257|253:215,1,480,2|0,0:0|0:0,0:0:0:0:
377,258,32058,2,0,P|390:218|350:147,1,120,0|2,0:0|0:0,0:0:0:0:
268,155,32576,2,0,P|254:200|293:277,1,120,2|2,0:0|0:0,0:0:0:0:
431,344,33093,6,0,B|369:349|311:262|311:262|283:285|278:320|278:320|248:272|113:221|15:311|52:408|195:407|229:352|200:236|200:236|171:132|192:107|244:77|244:77|212:125|232:177,1,960,2|2,0:0|0:0,0:0:0:0:
185,183,37576,1,0,0:0:0:0:
280,141,37921,1,2,0:0:0:0:
382,200,38265,1,0,0:0:0:0:
323,269,38610,6,0,P|314:225|286:138,1,120,2|0,0:0|0:0,0:0:0:0:
431,44,39300,2,0,P|458:86|428:152,1,120,2|0,0:0|0:0,0:0:0:0:
336,150,39817,2,0,P|323:112|359:40,2,120,0|0|0,0:0|0:0|0:0,0:0:0:0:
408,220,40679,6,0,P|364:224|271:246,1,120,2|0,0:0|0:0,0:0:0:0:
279,330,41196,2,0,P|333:327|419:304,1,120,2|0,0:0|0:0,0:0:0:0:
481,243,41714,5,2,0:0:0:0:
136,196,44127,5,2,0:0:0:0:
219,250,44472,1,10,0:0:0:0:
311,206,44817,1,0,0:0:0:0:
382,264,45162,1,8,0:0:0:0:
302,369,45507,6,0,P|297:325|293:246,1,120,2|8,0:0|0:0,0:0:0:0:
409,136,46196,2,0,P|414:177|415:203,1,60,2|2,0:0|0:0,0:0:0:0:
402,282,46541,1,8,0:0:0:0:
156,229,46886,5,2,0:0:0:0:
200,143,47231,1,10,0:0:0:0:
305,169,47576,1,0,0:0:0:0:
354,66,47921,1,8,0:0:0:0:
416,166,48265,6,0,P|420:218|414:296,1,120,2|8,0:0|0:0,0:0:0:0:
277,366,48955,2,0,P|281:313|285:283,1,60,2|2,0:0|0:0,0:0:0:0:
313,221,49300,1,8,0:0:0:0:
246,96,49645,6,0,P|178:83|118:109,1,120,2|8,0:0|0:0,0:0:0:0:
70,45,50162,2,0,P|36:80|26:159,1,120,2|2,0:0|0:0,0:0:0:0:
0,227,50679,1,8,0:0:0:0:
206,200,51024,6,0,P|261:199|331:193,2,120,2|8|2,0:0|0:0|0:0,0:0:0:0:
138,137,51886,1,2,0:0:0:0:
200,68,52058,1,8,0:0:0:0:
270,126,52231,1,2,0:0:0:0:
405,91,52403,6,0,P|454:117|453:202,2,120,2|8|0,0:0|0:0|0:0,0:0:0:0:
322,116,53265,2,0,L|262:131,2,60,2|8|0,0:0|0:0|0:0,0:0:0:0:
383,219,53783,6,0,P|376:285|374:298,1,60,2|0,0:0|0:0,0:0:0:0:
228,347,54127,2,0,P|236:303|240:269,1,60,10|0,0:0|0:0,0:0:0:0:
213,135,54472,6,0,P|181:126|146:119,1,60,2|0,0:0|0:0,0:0:0:0:
65,275,54817,2,0,P|107:261|135:254,1,60,10|0,0:0|0:0,0:0:0:0:
263,224,55162,6,0,B|327:224|306:267|393:265,2,120,0|8|0,0:0|0:0|0:0,0:0:0:0:
192,172,56196,1,8,0:0:0:0:
87,328,56541,2,0,P|81:268|77:200,1,120,0|8,0:0|0:0,0:0:0:0:
271,234,57231,2,0,P|282:274|282:306,1,60,0|0,0:0|0:0,0:0:0:0:
191,359,57576,2,0,P|181:315|180:289,1,60,8|0,0:0|0:0,0:0:0:0:
206,129,57921,6,0,P|245:119|276:112,1,60,0|0,0:0|0:0,0:0:0:0:
302,183,58265,2,0,P|345:170|373:164,1,60,8|0,0:0|0:0,0:0:0:0:
470,269,58610,6,0,P|431:259|400:252,1,60,0|0,0:0|0:0,0:0:0:0:
374,323,58955,2,0,P|331:310|303:304,1,60,8|0,0:0|0:0,0:0:0:0:
227,260,59300,5,0,0:0:0:0:
227,260,59472,1,0,0:0:0:0:
140,297,59645,1,8,0:0:0:0:
140,297,59817,1,0,0:0:0:0:
80,231,59990,5,0,0:0:0:0:
80,231,60162,1,0,0:0:0:0:
145,143,60334,5,8,0:0:0:0:
145,143,60507,1,0,0:0:0:0:
62,47,60679,6,0,L|55:1,3,30,0|0|0|0,0:0|0:0|0:0|0:0,0:0:0:0:
166,0,61024,2,0,L|159:46,3,30,8|0|0|0,0:0|0:0|0:0|0:0,0:0:0:0:
244,129,61369,2,0,L|237:83,3,30,0|0|0|0,0:0|0:0|0:0|0:0,0:0:0:0:
348,82,61714,2,0,L|341:128,3,30,8|0|0|0,0:0|0:0|0:0|0:0,0:0:0:0:
417,220,62058,5,0,0:0:0:0:
417,220,62145,1,0,0:0:0:0:
417,220,62231,2,0,L|371:233,1,30,0|0,0:0|0:0,0:0:0:0:
320,312,62403,2,0,L|274:299,3,30
176,336,62748,1,0,0:0:0:0:
176,336,62834,1,0,0:0:0:0:
176,336,62921,2,0,L|187:286,1,30
155,196,63093,5,8,0:0:0:0:
155,196,63179,1,0,0:0:0:0:
155,196,63265,1,0,0:0:0:0:
155,196,63352,1,0,0:0:0:0:
155,196,63438,2,0,P|182:206|203:213,3,30,0|0|0|0,0:0|0:0|0:0|0:0,0:0:0:0:
241,287,63783,2,0,P|271:280|283:278,3,30,8|0|0|0,0:0|0:0|0:0|0:0,0:0:0:0:
302,171,64127,2,0,P|332:178|344:180,3,30,0|0|0|0,0:0|0:0|0:0|0:0,0:0:0:0:
384,298,64472,1,8,0:0:0:0:
384,298,64558,1,0,0:0:0:0:
384,298,64645,1,0,0:0:0:0:
384,298,64731,1,0,0:0:0:0:
384,298,64817,2,0,P|425:288|514:272,1,120,0|0,0:0|0:0,0:0:0:0:
223,100,65507,5,0,3:0:0:0:
332,149,65679,1,2,0:0:0:0:
254,278,65852,5,0,3:0:0:0:
394,215,66024,1,2,3:0:0:0:
144,178,66196,6,0,P|141:123|135:69,1,90.0000034332277,0|0,3:0|0:0,0:0:0:0:
0,227,66541,2,0,B|92:209|71:295|181:265,1,180.000006866455,8|0,0:0|0:0,0:0:0:0:
232,131,67058,1,0,3:0:0:0:
260,297,67231,2,0,P|263:242|269:188,1,90.0000034332277,8|0,0:0|0:0,0:0:0:0:
312,12,67576,6,0,P|315:67|321:121,1,90.0000034332277,0|0,3:0|0:0,0:0:0:0:
512,172,67921,2,0,P|439:151|335:200,1,180.000006866455,8|0,0:0|0:0,0:0:0:0:
271,289,68438,1,0,3:0:0:0:
411,340,68610,2,0,P|407:295|405:251,1,90.0000034332276,8|0,0:0|0:0,0:0:0:0:
224,214,68955,6,0,P|271:200|324:217,1,90.0000034332277,0|0,3:0|0:0,0:0:0:0:
317,367,69300,2,0,P|270:381|217:364,1,90.0000034332277,8|0,0:0|0:0,0:0:0:0:
148,250,69645,1,0,0:0:0:0:
271,289,69817,1,0,3:0:0:0:
153,374,69990,2,0,L|145:279,1,90.0000034332277,8|0,0:0|0:0,0:0:0:0:
274,43,70334,6,0,P|281:105|288:153,1,90.0000034332276,0|0,3:0|0:0,0:0:0:0:
72,216,70679,2,0,P|80:174|89:120,1,90.0000034332276,8|0,0:0|0:0,0:0:0:0:
264,288,71024,5,0,0:0:0:0:
180,168,71196,1,0,3:0:0:0:
411,183,71369,2,0,P|367:190|314:202,1,90.0000034332276,8|0,0:0|0:0,0:0:0:0:
157,78,71714,6,0,P|209:84|255:82,1,90.0000034332277,0|0,3:0|0:0,0:0:0:0:
421,0,72058,2,0,P|362:17|336:133,1,180.000006866455,8|0,0:0|0:0,0:0:0:0:
401,213,72576,1,0,3:0:0:0:
504,122,72748,2,0,P|452:128|406:126,1,90.0000034332277,8|0,0:0|0:0,0:0:0:0:
241,116,73093,6,0,P|285:115|330:120,1,90.0000034332277,0|0,3:0|0:0,0:0:0:0:
438,293,73438,2,0,P|365:291|313:198,1,180.000006866455,8|0,0:0|0:0,0:0:0:0:
339,107,73955,1,0,3:0:0:0:
490,208,74127,2,0,P|438:214|392:212,1,90.0000034332277,8|0,0:0|0:0,0:0:0:0:
241,116,74472,6,0,P|230:214|223:301,2,180.000006866455,0|8|0,3:0|0:0|0:0,0:0:0:0:
170,0,75334,1,0,3:0:0:0:
49,12,75507,2,0,P|55:56|58:101,1,90.0000034332277,8|0,0:0|0:0,0:0:0:0:
4,229,75852,5,0,3:0:0:0:
137,151,76024,1,0,0:0:0:0:
178,325,76196,2,0,P|161:274|171:216,1,90.0000034332276,8|0,0:0|3:0,0:0:0:0:
248,218,76455,2,0,P|268:174|326:150,1,90.0000034332276,8|0,0:0|3:0,0:0:0:0:
391,160,76714,1,0,3:0:0:0:
391,160,76800,1,0,3:0:0:0:
391,160,76886,1,8,0:0:0:0:
346,347,77231,6,0,P|353:296|365:246,1,90.0000034332277,0|0,3:0|0:0,0:0:0:0:
481,99,77576,2,0,B|380:78|394:148|301:133,1,180.000006866455,8|0,0:0|0:0,0:0:0:0:
225,43,78093,1,0,3:0:0:0:
138,145,78265,2,0,P|189:132|243:128,1,90.0000034332277,8|0,0:0|0:0,0:0:0:0:
54,27,78610,6,0,P|53:88|46:232,1,180.000006866455,0|8,3:0|0:0,0:0:0:0:
37,297,79127,1,0,0:0:0:0:
164,259,79300,1,0,0:0:0:0:
47,206,79472,1,0,3:0:0:0:
157,347,79645,2,0,P|208:346|258:341,1,90.0000034332277,8|0,0:0|0:0,0:0:0:0:
136,177,79990,6,0,P|187:178|237:183,1,90.0000034332277,0|0,3:0|0:0,0:0:0:0:
384,157,80334,2,0,P|312:188|310:288,1,180.000006866455,8|0,0:0|0:0,0:0:0:0:
459,221,80852,1,0,3:0:0:0:
396,360,81024,2,0,P|391:315|388:263,1,90.0000034332277,8|0,0:0|0:0,0:0:0:0:
366,77,81369,5,0,3:0:0:0:
379,167,81541,1,0,0:0:0:0:
276,90,81714,1,8,0:0:0:0:
289,180,81886,1,0,0:0:0:0:
378,64,82058,6,0,P|424:72|475:89,1,90.0000034332276,0|0,0:0|3:0,0:0:0:0:
200,151,82403,2,0,P|138:165|102:177,1,90.0000034332276,8|0,0:0|0:0,0:0:0:0:
365,74,82748,6,0,P|312:66|271:58,1,90.0000034332277,0|0,3:0|0:0,0:0:0:0:
141,87,83093,2,0,B|226:84|215:159|298:160,1,180.000006866455,8|0,0:0|0:0,0:0:0:0:
375,66,83610,1,0,3:0:0:0:
388,175,83783,2,0,P|383:227|378:281,1,90.0000034332277,8|0,0:0|0:0,0:0:0:0:
272,7,84127,6,0,P|276:51|280:96,1,90.0000034332277,0|0,3:0|0:0,0:0:0:0:
151,42,84472,2,0,P|76:51|18:147,1,180.000006866455,8|0,0:0|0:0,0:0:0:0:
53,272,84990,1,0,3:0:0:0:
131,224,85162,2,0,P|125:174|121:118,1,90.0000034332277,8|0,0:0|0:0,0:0:0:0:
245,309,85507,6,0,P|178:309|81:378,2,180.000006866455,0|0|0,3:0|0:0|0:0,0:0:0:0:
338,319,86886,2,0,P|347:282|369:248,1,60,0|0,3:0|0:0,0:0:0:0:
363,170,87145,2,0,P|400:179|433:204,1,60,0|0,3:0|0:0,0:0:0:0:
469,288,87403,1,0,0:0:0:0:
469,288,87490,1,8,0:0:0:0:
469,288,87576,2,0,L|474:340,4,30,0|0|0|0|8,3:0|3:0|3:0|3:0|0:0,0:0:0:0:
389,144,88265,6,0,B|283:101|294:192|188:147,1,180.000006866455,2|8,0:0|0:0,0:0:0:0:
46,28,88783,2,0,P|94:51|111:179,1,180.000006866455,0|0,0:0|0:0,0:0:0:0:
40,295,89300,5,8,0:0:0:0:
36,278,89645,2,0,P|39:222|38:168,1,90.0000034332277,0|0,0:0|0:0,0:0:0:0:
98,358,89990,2,0,P|158:314|280:314,1,180.000006866455,10|0,0:0|0:0,0:0:0:0:
416,327,90507,5,2,0:0:0:0:
307,237,90679,1,8,0:0:0:0:
315,373,90852,1,0,0:0:0:0:
408,186,91024,6,0,P|384:264|397:367,1,180.000006866455,2|8,0:0|0:0,0:0:0:0:
311,226,91541,2,0,P|260:221|211:203,1,90.0000034332277,0|0,0:0|0:0,0:0:0:0:
118,102,91886,1,0,0:0:0:0:
129,268,92058,6,0,P|135:218|146:150,1,90.0000034332277,8|0,0:0|0:0,0:0:0:0:
18,303,92403,2,0,P|11:254|1:185,1,90.0000034332277,0|0,0:0|0:0,0:0:0:0:
129,286,92748,2,0,B|224:260|217:338|320:321,1,180.000006866455,10|2,0:0|0:0,0:0:0:0:
412,196,93265,1,0,0:0:0:0:
284,239,93438,1,10,0:0:0:0:
348,132,93610,1,0,0:0:0:0:
386,333,93783,6,0,P|380:266|371:141,1,180.000006866455,2|8,0:0|0:0,0:0:0:0:
504,154,94300,1,0,0:0:0:0:
504,154,94472,2,0,P|492:209|482:258,1,90.0000034332276,2|0,0:0|0:0,0:0:0:0:
415,85,94817,2,0,P|424:41|431:-7,1,90.0000034332276,8|0,0:0|0:0,0:0:0:0:
276,36,95162,6,0,P|267:80|261:124,1,90.0000034332277,2|0,0:0|0:0,0:0:0:0:
236,301,95507,1,8,0:0:0:0:
115,192,95679,1,0,0:0:0:0:
110,308,95852,1,2,0:0:0:0:
227,202,96024,2,0,P|272:200|335:202,1,90.0000034332277,0|8,0:0|0:0,0:0:0:0:
486,169,96369,5,0,0:0:0:0:
420,298,96541,2,0,P|413:256|414:199,1,90.0000034332277,2|0,0:0|0:0,0:0:0:0:
382,49,96886,2,0,P|434:62|482:184,1,180.000006866455,8|0,0:0|0:0,0:0:0:0:
346,128,97403,1,0,0:0:0:0:
333,233,97576,2,0,P|289:246|226:251,1,90.0000034332277,8|0,0:0|0:0,0:0:0:0:
39,233,97921,6,0,P|40:183|64:126,1,90.0000034332276,0|0,0:0|0:0,0:0:0:0:
165,86,98265,2,0,P|193:142|197:197,1,90.0000034332276,10|0,0:0|0:0,0:0:0:0:
281,145,98524,2,0,P|273:201|238:247,1,90.0000034332276,8|0,0:0|0:0,0:0:0:0:
244,312,98783,1,0,0:0:0:0:
244,312,98869,1,0,0:0:0:0:
244,312,98955,1,8,0:0:0:0:
478,285,99300,6,0,P|479:341|486:385,1,90.0000034332277,2|0,0:0|0:0,0:0:0:0:
389,123,99645,2,0,P|383:178|354:312,1,180.000006866455,8|0,0:0|0:0,0:0:0:0:
487,90,100162,1,0,0:0:0:0:
356,34,100334,2,0,P|313:25|247:14,1,90.0000034332277,8|0,0:0|0:0,0:0:0:0:
342,260,100679,6,0,P|395:271|434:274,1,90.0000034332277,0|0,0:0|0:0,0:0:0:0:
487,90,101024,2,0,P|406:66|315:153,1,180.000006866455,10|0,0:0|0:0,0:0:0:0:
267,210,101541,1,2,0:0:0:0:
204,29,101714,2,0,P|229:81|240:135,1,90.0000034332277,8|0,0:0|0:0,0:0:0:0:
221,306,102058,6,0,P|174:314|112:318,1,90.0000034332277,2|0,0:0|0:0,0:0:0:0:
312,346,102403,2,0,P|315:256|328:168,1,180.000006866455,8|0,0:0|0:0,0:0:0:0:
395,10,102921,1,0,0:0:0:0:
421,177,103093,1,8,0:0:0:0:
308,87,103265,1,0,0:0:0:0:
479,79,103438,6,0,P|421:92|369:97,1,90.0000034332277,0|0,0:0|0:0,0:0:0:0:
259,17,103783,1,10,0:0:0:0:
161,144,103955,2,0,B|253:125|248:189|343:170,1,180.000006866455,0|0,0:0|0:0,0:0:0:0:
395,10,104472,1,10,0:0:0:0:
308,87,104645,1,0,0:0:0:0:
422,178,104817,6,0,P|410:134|390:94,1,90.0000034332277,2|0,0:0|0:0,0:0:0:0:
317,242,105162,2,0,P|364:211|474:247,1,180.000006866455,8|2,0:0|0:0,0:0:0:0:
316,384,105679,1,0,0:0:0:0:
224,275,105852,2,0,P|224:233|246:175,1,90.0000034332277,8|0,0:0|0:0,0:0:0:0:
67,45,106196,6,0,P|83:102|85:152,1,90.0000034332277,2|0,0:0|0:0,0:0:0:0:
29,256,106541,2,0,P|73:241|132:239,1,90.0000034332277,8|0,0:0|0:0,0:0:0:0:
300,197,106886,1,2,0:0:0:0:
200,132,107058,1,0,0:0:0:0:
207,267,107231,2,0,P|211:324|212:371,1,90.0000034332277,8|0,0:0|0:0,0:0:0:0:
373,296,107576,2,0,P|434:315|468:258,1,120,2|0,0:0|0:0,0:0:0:0:
473,150,108093,2,0,P|422:172|337:179,1,120,0|0,0:0|0:0,0:0:0:0:
358,180,108524,1,0,0:0:0:0:
358,180,108610,1,0,0:0:0:0:
284,119,108783,5,0,0:0:0:0:
171,199,109127,5,0,0:0:0:0:
73,119,109472,6,0,L|68:149,1,30,0|8,0:0|0:0,0:0:0:0:
50,239,109645,1,0,0:0:0:0:
50,239,109731,1,0,0:0:0:0:
50,239,109817,1,0,0:0:0:0:
50,239,109903,1,0,0:0:0:0:
50,239,109990,2,0,P|42:287|34:324,1,60,10|0,0:0|0:0,0:0:0:0:
22,375,110334,1,4,0:0:0:0:
142,340,132403,6,0,B|195:298|206:195|174:125|81:101|37:166|66:235,1,359.999989013672,2|2,0:0|0:0,0:0:0:0:
241,116,134645,1,0,0:0:0:0:
345,323,135162,6,0,B|413:368|500:347|553:299|534:221|457:196|396:249|437:316,1,359.999989013672,2|2,0:0|0:0,0:0:0:0:
505,148,137231,1,2,0:0:0:0:
464,61,137576,1,2,0:0:0:0:
410,141,137921,6,0,B|352:212|237:176|237:176|169:183|117:118|161:48|253:54|267:124|236:184|236:184|170:273|213:345,1,648.480013061426,2|0,0:0|0:0,0:0:0:0:
126,218,140679,6,0,P|106:51|272:24,1,370.560007463672,2|0,0:0|0:0,0:0:0:0:
406,162,142403,2,0,P|451:165|491:143,1,92.640001865918,0|2,0:0|0:0,0:0:0:0:
470,60,142921,2,0,P|424:56|384:78,1,92.640001865918,0|0,0:0|0:0,0:0:0:0:
331,217,143438,22,0,B|340:269|309:301|297:289|275:324|277:371|277:371|275:324|263:275|227:271|217:208|236:162|279:137|279:137|270:89|270:89|275:88|275:88|270:89|270:89|246:-11,1,576,2|2,0:0|0:0,0:0:0:0:
250,2,147921,1,0,0:0:0:0:
172,80,148265,1,2,0:0:0:0:
65,51,148610,1,0,0:0:0:0:
183,85,148955,6,0,P|224:141|217:212,1,144,2|0,0:0|0:0,0:0:0:0:
33,281,149645,2,0,P|61:217|126:188,1,144,2|0,0:0|0:0,0:0:0:0:
279,313,150334,2,0,P|208:320|151:279,1,144,0|0,0:0|0:0,0:0:0:0:
410,175,151024,6,0,B|442:230|392:272|392:272|330:249|333:193,1,216,2|2,0:0|0:0,0:0:0:0:
426,141,154472,6,0,L|433:81,1,60,2|0,0:0|0:0,0:0:0:0:
497,16,154817,1,10,0:0:0:0:
337,98,155162,1,0,0:0:0:0:
221,39,155507,1,8,0:0:0:0:
140,90,155852,6,0,P|81:83|46:37,1,120,0|8,0:0|0:0,0:0:0:0:
267,139,156541,6,0,L|259:198,1,60,2|2,0:0|0:0,0:0:0:0:
191,255,156886,1,8,0:0:0:0:
390,374,157231,5,0,0:0:0:0:
502,274,157576,1,10,0:0:0:0:
386,184,157921,1,0,0:0:0:0:
501,87,158265,1,8,0:0:0:0:
405,75,158610,6,0,P|356:60|364:-6,1,120,2|8,0:0|0:0,0:0:0:0:
313,219,159300,2,0,P|302:172|323:149,1,60,2|2,0:0|0:0,0:0:0:0:
386,184,159645,1,8,0:0:0:0:
209,47,159990,6,0,P|150:55|113:101,1,120,0|10,0:0|0:0,0:0:0:0:
26,72,160507,2,0,P|4:126|25:181,1,120,2|2,0:0|0:0,0:0:0:0:
114,218,161024,1,8,0:0:0:0:
266,131,161369,6,0,P|325:136|385:138,2,120,2|8|2,0:0|0:0|0:0,0:0:0:0:
216,58,162231,1,2,0:0:0:0:
146,127,162403,1,8,0:0:0:0:
171,220,162576,1,2,0:0:0:0:
316,267,162748,6,0,P|373:267|407:220,2,120,2|8|0,0:0|0:0|0:0,0:0:0:0:
221,311,163610,2,0,L|211:370,2,60,2|8|0,0:0|0:0|0:0,0:0:0:0:
160,198,164127,2,0,L|100:188,1,60,2|0,0:0|0:0,0:0:0:0:
85,276,164472,2,0,L|25:266,1,60,10|0,0:0|0:0,0:0:0:0:
222,126,164817,6,0,L|281:135,1,60,2|0,0:0|0:0,0:0:0:0:
297,48,165162,2,0,L|356:57,1,60,10|0,0:0|0:0,0:0:0:0:
512,166,165507,6,0,B|453:168|465:220|415:230,2,120,8|0|8,0:0|0:0|0:0,0:0:0:0:
376,308,166541,1,0,0:0:0:0:
231,223,166886,2,0,L|215:341,1,120,8|0,0:0|0:0,0:0:0:0:
257,132,167576,2,0,P|246:92|246:60,1,60,8|0,0:0|0:0,0:0:0:0:
337,7,167921,2,0,P|347:51|348:77,1,60,0|0,0:0|0:0,0:0:0:0:
322,237,168265,6,0,P|283:247|252:254,1,60,8|0,0:0|0:0,0:0:0:0:
226,183,168610,2,0,P|183:196|155:202,1,60,0|0,0:0|0:0,0:0:0:0:
58,97,168955,6,0,P|97:107|128:114,1,60,8|0,0:0|0:0,0:0:0:0:
154,43,169300,2,0,P|197:56|225:62,1,60,0|0,0:0|0:0,0:0:0:0:
301,106,169645,5,8,0:0:0:0:
301,106,169817,1,0,0:0:0:0:
388,69,169990,1,0,0:0:0:0:
388,69,170162,1,0,0:0:0:0:
448,135,170334,5,8,0:0:0:0:
448,135,170507,1,0,0:0:0:0:
383,223,170679,5,0,0:0:0:0:
383,223,170852,1,0,0:0:0:0:
466,319,171024,6,0,L|473:365,3,30,8|0|0|0,0:0|0:0|0:0|0:0,0:0:0:0:
362,366,171369,2,0,L|369:320,3,30,0|0|0|0,0:0|0:0|0:0|0:0,0:0:0:0:
284,237,171714,2,0,L|291:283,3,30,8|0|0|0,0:0|0:0|0:0|0:0,0:0:0:0:
180,284,172058,2,0,L|187:238,3,30,0|0|0|0,0:0|0:0|0:0|0:0,0:0:0:0:
111,146,172403,5,8,0:0:0:0:
111,146,172490,1,0,0:0:0:0:
111,146,172576,2,0,L|157:133,1,30,0|0,0:0|0:0,0:0:0:0:
212,46,172748,2,0,L|258:59,3,30
374,31,173093,1,0,0:0:0:0:
374,31,173179,1,0,0:0:0:0:
374,31,173265,2,0,L|363:81,1,30,8|0,0:0|0:0,0:0:0:0:
395,146,173438,5,0,0:0:0:0:
392,155,173524,1,0,0:0:0:0:
387,163,173610,1,0,0:0:0:0:
380,168,173696,1,0,0:0:0:0:
373,170,173783,2,0,P|346:160|325:153,3,30,8|0|0|0,0:0|0:0|0:0|0:0,0:0:0:0:
287,79,174127,2,0,P|257:86|245:88,3,30,0|0|0|0,0:0|0:0|0:0|0:0,0:0:0:0:
226,195,174472,2,0,P|196:188|184:186,3,30,8|0|0|0,0:0|0:0|0:0|0:0,0:0:0:0:
144,68,174817,1,0,0:0:0:0:
144,68,174903,1,0,0:0:0:0:
144,68,174990,1,0,0:0:0:0:
144,68,175076,1,0,0:0:0:0:
144,68,175162,2,0,P|103:78|14:94,1,120,0|0,0:0|0:0,0:0:0:0:
223,284,175852,5,0,3:0:0:0:
332,235,176024,1,2,0:0:0:0:
131,302,176196,5,0,3:0:0:0:
271,365,176369,1,2,3:0:0:0:
28,353,176541,6,0,P|33:305|31:263,1,90.0000034332277,0|0,3:0|0:0,0:0:0:0:
7,68,176886,2,0,P|36:153|143:178,1,180.000006866455,8|0,0:0|0:0,0:0:0:0:
239,111,177403,1,0,3:0:0:0:
134,0,177576,2,0,P|142:56|143:111,1,90.0000034332277,8|0,0:0|0:0,0:0:0:0:
212,209,177921,6,0,P|244:203|305:208,1,90.0000034332277,0|0,3:0|0:0,0:0:0:0:
431,85,178265,2,0,P|398:146|410:258,1,180.000006866455,8|0,0:0|0:0,0:0:0:0:
500,158,178783,1,0,3:0:0:0:
437,340,178955,1,8,0:0:0:0:
300,207,179127,1,0,0:0:0:0:
496,244,179300,6,0,P|426:253|376:250,1,90.0000034332277,0|0,3:0|0:0,0:0:0:0:
251,303,179645,2,0,B|355:294|325:377|428:358,1,180.000006866455,8|0,0:0|0:0,0:0:0:0:
214,384,180162,1,0,3:0:0:0:
224,212,180334,2,0,P|256:266|264:305,1,90.0000034332277,8|0,0:0|0:0,0:0:0:0:
67,317,180679,6,0,P|129:310|174:309,1,90.0000034332277,0|0,3:0|0:0,0:0:0:0:
255,123,181024,2,0,P|185:129|138:233,1,180.000006866455,8|0,0:0|0:0,0:0:0:0:
93,86,181541,1,0,3:0:0:0:
228,215,181714,2,0,P|269:221|331:228,1,90.0000034332277,8|0,0:0|0:0,0:0:0:0:
420,117,182058,6,0,P|416:190|403:311,2,180.000006866455,0|8|0,3:0|0:0|0:0,0:0:0:0:
377,39,182921,1,0,3:0:0:0:
271,114,183093,2,0,P|222:134|184:143,1,90.0000034332277,8|0,0:0|0:0,0:0:0:0:
108,7,183438,6,0,P|119:75|121:132,1,90.0000034332277,0|0,3:0|0:0,0:0:0:0:
0,160,183783,2,0,B|98:149|66:229|185:231,1,180.000006866455,8|0,0:0|0:0,0:0:0:0:
304,150,184300,1,0,3:0:0:0:
258,304,184472,2,0,P|247:253|245:207,1,90.0000034332277,8|0,0:0|0:0,0:0:0:0:
399,259,184817,6,0,P|410:208|406:153,1,90.0000034332277,0|0,3:0|0:0,0:0:0:0:
245,318,185162,2,0,B|335:310|319:377|438:365,1,180.000006866455,8|0,0:0|0:0,0:0:0:0:
304,150,185679,1,0,3:0:0:0:
231,306,185852,2,0,P|188:315|134:321,1,90.0000034332277,8|0,0:0|0:0,0:0:0:0:
50,384,186196,6,0,P|56:339|60:271,1,90.0000034332277,0|0,3:0|0:0,0:0:0:0:
24,126,186541,2,0,P|57:157|117:161,1,90.0000034332277,8|0,0:0|3:0,0:0:0:0:
138,232,186800,2,0,P|189:220|214:164,1,90.0000034332277,8|0,0:0|3:0,0:0:0:0:
287,154,187058,1,0,3:0:0:0:
287,154,187145,1,0,3:0:0:0:
287,154,187231,1,8,0:0:0:0:
512,164,187576,6,0,P|498:210|489:281,1,90.0000034332277,0|0,3:0|0:0,0:0:0:0:
393,320,187921,2,0,B|284:290|312:365|188:328,1,180.000006866455,8|0,0:0|0:0,0:0:0:0:
167,158,188438,1,0,3:0:0:0:
115,374,188610,2,0,P|133:341|144:258,1,90.0000034332277,8|0,0:0|0:0,0:0:0:0:
0,195,188955,6,0,P|38:204|96:217,1,90.0000034332277,0|0,3:0|0:0,0:0:0:0:
139,70,189300,2,0,P|197:66|259:166,1,180.000006866455,8|0,0:0|0:0,0:0:0:0:
371,199,189817,1,0,3:0:0:0:
302,340,189990,1,8,0:0:0:0:
230,250,190162,1,0,0:0:0:0:
396,281,190334,6,0,P|435:286|503:300,1,90.0000034332277,0|0,3:0|0:0,0:0:0:0:
361,186,190679,2,0,P|361:142|351:0,1,180.000006866455,8|0,0:0|0:0,0:0:0:0:
464,76,191196,1,0,3:0:0:0:
268,154,191369,2,0,B|215:163|214:163|153:168,1,90.0000034332277,8|0,0:0|0:0,0:0:0:0:
63,25,191714,6,0,P|94:40|128:110,1,90.0000034332277,0|0,3:0|0:0,0:0:0:0:
0,200,192058,2,0,P|53:197|133:297,1,180.000006866455,8|0,0:0|0:0,0:0:0:0:
195,336,192576,1,0,3:0:0:0:
19,384,192748,2,0,P|30:335|38:272,1,90.0000034332277,8|0,0:0|0:0,0:0:0:0:
307,338,193093,6,0,P|304:282|303:134,2,180.000006866455,0|8|0,3:0|0:0|0:0,0:0:0:0:
209,80,193955,1,0,3:0:0:0:
157,161,194127,2,0,P|144:209|126:259,1,90.0000034332277,8|0,0:0|0:0,0:0:0:0:
338,224,194472,6,0,B|424:212|400:279|529:248,2,180.000006866455,0|8|0,3:0|0:0|0:0,0:0:0:0:
203,244,195334,1,0,3:0:0:0:
310,147,195507,2,0,P|370:136|419:120,1,90.0000034332277,8|0,0:0|0:0,0:0:0:0:
174,32,195852,6,0,P|136:119|119:215,2,180,0|0|0,3:0|0:0|0:0,0:0:0:0:
333,88,197231,2,0,P|344:129|350:157,1,60,0|0,3:0|0:0,0:0:0:0:
267,203,197490,2,0,P|255:163|251:132,1,60,0|0,3:0|0:0,0:0:0:0:
281,29,197748,1,0,0:0:0:0:
281,29,197834,1,8,0:0:0:0:
281,29,197921,2,0,L|283:-10,4,30,0|0|0|0|8,3:0|3:0|3:0|3:0|0:0,0:0:0:0:
75,175,198610,6,0,B|167:147|110:84|199:56,1,180.000006866455,2|8,0:0|0:0,0:0:0:0:
49,73,199127,2,0,B|141:68|110:147|206:141,1,180.000006866455,0|0,0:0|0:0,0:0:0:0:
306,87,199645,1,8,0:0:0:0:
317,77,199990,6,0,L|305:167,1,90.0000034332277,0|0,0:0|0:0,0:0:0:0:
191,311,200334,2,0,P|251:267|373:267,1,180.000006866455,10|0,0:0|0:0,0:0:0:0:
512,283,200852,5,2,0:0:0:0:
403,193,201024,1,8,0:0:0:0:
411,329,201196,1,0,0:0:0:0:
504,142,201369,6,0,P|480:220|493:323,1,180.000006866455,2|8,0:0|0:0,0:0:0:0:
311,226,201886,2,0,P|260:221|211:203,1,90.0000034332277,0|0,0:0|0:0,0:0:0:0:
118,102,202231,1,0,0:0:0:0:
129,268,202403,6,0,P|135:218|146:150,1,90.0000034332277,8|0,0:0|0:0,0:0:0:0:
14,60,202748,2,0,P|20:105|27:150,1,90.0000034332277,0|0,0:0|0:0,0:0:0:0:
129,286,203093,2,0,B|224:260|217:338|320:321,1,180.000006866455,10|2,0:0|0:0,0:0:0:0:
412,196,203610,1,0,0:0:0:0:
284,239,203783,1,10,0:0:0:0:
348,132,203955,1,0,0:0:0:0:
386,333,204127,6,0,P|380:266|371:141,1,180.000006866455,2|8,0:0|0:0,0:0:0:0:
504,154,204645,1,0,0:0:0:0:
504,154,204817,2,0,P|492:209|482:258,1,90.0000034332276,2|0,0:0|0:0,0:0:0:0:
422,88,205162,2,0,P|431:44|439:-20,1,90.0000034332277,8|0,0:0|0:0,0:0:0:0:
276,36,205507,6,0,P|266:80|260:124,1,90.0000034332277,2|0,0:0|0:0,0:0:0:0:
241,298,205852,1,8,0:0:0:0:
121,320,206024,1,0,0:0:0:0:
99,198,206196,1,2,0:0:0:0:
220,182,206369,2,0,P|265:180|328:182,1,90.0000034332277,0|8,0:0|0:0,0:0:0:0:
486,169,206714,5,0,0:0:0:0:
412,208,206886,2,0,P|412:253|420:298,1,90.0000034332277,2|0,0:0|0:0,0:0:0:0:
382,49,207231,2,0,P|434:62|482:184,1,180.000006866455,8|0,0:0|0:0,0:0:0:0:
346,128,207748,1,0,0:0:0:0:
318,217,207921,2,0,P|274:230|211:235,1,90.0000034332277,8|0,0:0|0:0,0:0:0:0:
39,233,208265,6,0,P|39:188|52:145,1,90.0000034332276,0|0,0:0|0:0,0:0:0:0:
159,89,208610,2,0,P|187:145|191:200,1,90.0000034332276,10|0,0:0|0:0,0:0:0:0:
281,145,208869,2,0,P|277:189|258:230,1,90.0000034332277,8|0,0:0|0:0,0:0:0:0:
230,313,209127,1,0,0:0:0:0:
230,313,209214,1,0,0:0:0:0:
230,313,209300,1,8,0:0:0:0:
394,244,209472,1,0,0:0:0:0:
478,285,209645,6,0,P|479:341|486:385,1,90.0000034332277,2|0,0:0|0:0,0:0:0:0:
357,299,209990,2,0,P|377:212|389:123,1,180.000006866455,8|0,0:0|0:0,0:0:0:0:
487,90,210507,1,0,0:0:0:0:
356,34,210679,2,0,P|313:25|247:14,1,90.0000034332277,8|0,0:0|0:0,0:0:0:0:
342,260,211024,6,0,P|395:271|434:274,1,90.0000034332277,0|0,0:0|0:0,0:0:0:0:
487,90,211369,2,0,P|406:66|315:153,1,180.000006866455,10|0,0:0|0:0,0:0:0:0:
267,210,211886,1,2,0:0:0:0:
161,97,212058,2,0,P|148:53|128:13,1,90.0000034332277,8|0,0:0|0:0,0:0:0:0:
70,265,212403,6,0,P|114:261|159:253,1,90.0000034332277,2|0,0:0|0:0,0:0:0:0:
286,342,212748,2,0,P|289:252|302:164,1,180.000006866455,8|0,0:0|0:0,0:0:0:0:
395,10,213265,1,0,0:0:0:0:
421,177,213438,1,8,0:0:0:0:
308,87,213610,1,0,0:0:0:0:
479,79,213783,6,0,P|421:92|369:97,1,90.0000034332277,0|0,0:0|0:0,0:0:0:0:
259,17,214127,1,10,0:0:0:0:
161,144,214300,2,0,B|253:125|248:189|343:170,1,180.000006866455,0|0,0:0|0:0,0:0:0:0:
395,10,214817,1,10,0:0:0:0:
308,87,214990,1,0,0:0:0:0:
422,178,215162,6,0,P|410:134|390:94,1,90.0000034332277,2|0,0:0|0:0,0:0:0:0:
317,242,215507,2,0,P|364:211|474:247,1,180.000006866455,8|2,0:0|0:0,0:0:0:0:
316,384,216024,1,0,0:0:0:0:
238,187,216196,2,0,P|224:230|224:275,1,90.0000034332277,8|0,0:0|0:0,0:0:0:0:
67,45,216541,6,0,P|83:102|85:152,1,90.0000034332277,2|0,0:0|0:0,0:0:0:0:
29,256,216886,2,0,P|73:241|132:239,1,90.0000034332277,8|0,0:0|0:0,0:0:0:0:
300,197,217231,1,2,0:0:0:0:
200,132,217403,1,0,0:0:0:0:
207,267,217576,2,0,P|211:324|212:371,1,90.0000034332277,8|0,0:0|0:0,0:0:0:0:
118,90,217921,2,0,P|57:71|23:128,1,120,2|0,0:0|0:0,0:0:0:0:
18,236,218438,2,0,P|69:214|154:207,1,120,0|0,0:0|0:0,0:0:0:0:
133,206,218869,1,0,0:0:0:0:
133,206,218955,1,0,0:0:0:0:
207,267,219127,5,0,0:0:0:0:
320,187,219472,5,0,0:0:0:0:
417,266,219817,6,0,L|423:237,1,30,0|8,0:0|0:0,0:0:0:0:
441,147,219990,1,0,0:0:0:0:
441,147,220076,1,0,0:0:0:0:
441,147,220162,1,0,0:0:0:0:
441,147,220248,1,0,0:0:0:0:
441,147,220334,2,0,P|449:99|457:62,1,60,10|0,0:0|0:0,0:0:0:0:
466,12,220679,1,4,0:0:0:0:
256,192,220765,12,0,223437,0:0:0:0:
