osu file format v14

[General]
AudioFilename: audio.mp3
AudioLeadIn: 0
PreviewTime: 77576
Countdown: 0
SampleSet: Drum
StackLeniency: 0.4
Mode: 0
LetterboxInBreaks: 0
WidescreenStoryboard: 1

[Editor]
Bookmarks: 43,22112,44181,55215,66250,88319,110388,132457,154526,165560,176595,198664,220732
DistanceSpacing: 0.3
BeatDivisor: 4
GridSize: 32
TimelineZoom: 1.7

[Metadata]
Title:Drifters (feat. Elizaveta)
TitleUnicode:Drifters (feat. Elizaveta)
Artist:Feint
ArtistUnicode:Feint
Creator:C00L
Version:Breaking Through The Clouds
Source:
Tags:electronic english drum n & and bass dnb cool monstercat elizaveta khripounova deca stratos HOS HootOwlStar LASS LowAccuracySS Kowari b00 boo
BeatmapID:2389865
BeatmapSetID:951304

[Difficulty]
HPDrainRate:6
CircleSize:4
OverallDifficulty:9.2
ApproachRate:9.2
SliderMultiplier:2.2
SliderTickRate:1

[Events]
//Background and Video events
0,0,"Flowers_Drift_afar.jpg",0,0
//Break Periods
2,113293,131833
//Storyboard Layer 0 (Background)
//Storyboard Layer 1 (Fail)
//Storyboard Layer 2 (Pass)
//Storyboard Layer 3 (Foreground)
//Storyboard Layer 4 (Overlay)
//Storyboard Sound Samples

[TimingPoints]
-10,344.827586206897,4,2,1,40,1,0
22058,-166.666666666667,4,2,1,40,0,0
26196,-333.333333333334,4,2,1,40,0,0
26799,-333.333333333334,4,2,1,5,0,0
26885,-333.333333333334,4,2,1,40,0,0
27144,-333.333333333334,4,2,1,5,0,0
27230,-333.333333333334,4,2,1,40,0,0
27489,-333.333333333334,4,2,1,5,0,0
27575,-166.666666666667,4,2,1,40,0,0
31713,-333.333333333334,4,2,1,40,0,0
33092,-166.666666666667,4,2,1,40,0,0
37230,-333.333333333334,4,2,1,40,0,0
38610,-166.666666666667,4,2,1,40,0,0
43437,-125,4,2,1,50,0,0
43696,-125,4,2,1,5,0,0
43782,-125,4,2,1,50,0,0
44041,-125,4,2,1,5,0,0
44127,-111.111111111111,4,2,1,50,0,0
55161,-111.111111111111,4,3,1,60,0,0
64816,-111.111111111111,4,2,1,30,0,0
65506,-111.111111111111,4,1,1,50,0,0
66196,-83.3333333333333,4,1,1,75,0,1
67575,-90.9090909090909,4,1,1,75,0,1
67920,-83.3333333333333,4,1,1,75,0,1
70592,-83.3333333333333,4,1,1,5,0,1
70678,-83.3333333333333,4,1,1,75,0,1
73092,-100,4,1,1,75,0,1
77230,-83.3333333333333,4,1,1,75,0,1
78610,-90.9090909090909,4,1,1,75,0,1
78954,-83.3333333333333,4,1,1,75,0,1
81627,-83.3333333333333,4,1,1,5,0,1
81713,-83.3333333333333,4,1,1,75,0,1
84127,-100,4,1,1,75,0,1
87145,-100,4,1,1,5,0,1
87231,-100,4,1,1,75,0,1
88265,-111.111111111111,4,1,2,60,0,0
96799,-111.111111111111,4,1,2,5,0,0
96885,-111.111111111111,4,1,2,60,0,0
107575,-333.333333333332,4,1,2,60,0,0
108954,-111.111111111111,4,1,2,60,0,0
110334,-166.666666666666,4,1,2,60,0,0
132403,-166.666666666666,4,2,1,40,0,0
136541,-333.333333333331,4,2,1,40,0,0
137144,-333.333333333331,4,2,1,5,0,0
137230,-333.333333333331,4,2,1,40,0,0
137489,-333.333333333331,4,2,1,5,0,0
137575,-333.333333333331,4,2,1,40,0,0
137834,-333.333333333331,4,2,1,5,0,0
137920,-166.666666666666,4,2,1,40,0,0
142058,-333.333333333331,4,2,1,40,0,0
143437,-166.666666666666,4,2,1,40,0,0
147575,-333.333333333331,4,2,1,40,0,0
148954,-166.666666666666,4,2,1,40,0,0
153782,-125,4,2,1,50,0,0
154041,-125,4,2,1,5,0,0
154127,-125,4,2,1,50,0,0
154385,-125,4,2,1,5,0,0
154472,-111.111111111111,4,2,1,50,0,0
161627,-111.111111111111,4,2,1,5,0,0
161713,-111.111111111111,4,2,1,50,0,0
165506,-111.111111111111,4,3,1,60,0,0
175161,-111.111111111111,4,2,1,30,0,0
175851,-111.111111111111,4,1,1,50,0,0
176541,-83.3333333333333,4,1,1,75,0,1
177920,-90.9090909090909,4,1,1,75,0,1
178265,-83.3333333333333,4,1,1,75,0,1
180938,-83.3333333333333,4,1,1,5,0,1
181023,-83.3333333333333,4,1,1,75,0,1
183437,-100,4,1,1,75,0,1
186454,-100,4,1,1,5,0,1
186541,-100,4,1,1,75,0,1
187575,-83.3333333333333,4,1,1,75,0,1
188954,-90.9090909090909,4,1,1,75,0,1
189299,-83.3333333333333,4,1,1,75,0,1
191972,-83.3333333333333,4,1,1,5,0,1
192058,-83.3333333333333,4,1,1,75,0,1
194472,-100,4,1,1,75,0,1
197490,-100,4,1,1,5,0,1
197576,-100,4,1,1,75,0,1
198610,-111.111111111111,4,1,2,60,0,0
207144,-111.111111111111,4,1,2,5,0,0
207230,-111.111111111111,4,1,2,60,0,0
217920,-333.333333333332,4,1,2,60,0,0
219299,-111.111111111111,4,1,2,60,0,0
220678,-166.666666666666,4,1,2,60,0,0

[Colours]
Combo1 : 250,180,240
Combo2 : 110,190,225
Combo3 : 255,230,130
Combo4 : 150,230,140

[HitObjects]
125,293,22058,5,2,0:0:0:0:
125,293,22748,6,0,P|158:287|189:296,2,65.9999979858399,2|0|0,0:0|0:0|0:0,0:0:0:0:
44,329,23265,2,0,B|24:295|37:260|37:260|49:225|31:190,1,131.99999597168,0|0,0:0|0:0,0:0:0:0:
36,201,23783,1,2,0:0:0:0:
201,188,24127,1,2,0:0:0:0:
36,201,24472,5,0,0:0:0:0:
116,170,24645,1,2,0:0:0:0:
201,188,24817,6,0,B|254:213|311:188|311:188|365:163|416:188|416:188|384:224|387:281|387:281|324:282|290:241|290:241|326:282|317:341,1,527.999983886719,2|0,0:0|0:0,0:0:0:0:
214,357,26541,6,0,P|207:333|208:308,1,49.4999984893799,2|0,0:0|0:0,0:0:0:0:
169,294,26886,2,0,P|174:270|188:249,1,49.4999984893799,2|0,0:0|0:0,0:0:0:0:
161,216,27231,2,0,P|178:198|200:187,1,49.4999984893799,2|0,0:0|0:0,0:0:0:0:
327,150,27576,1,2,0:0:0:0:
327,150,28265,6,0,L|321:84,2,65.9999979858399,2|0|0,0:0|0:0|0:0,0:0:0:0:
394,219,28783,2,0,P|335:245|272:230,1,131.99999597168,0|0,0:0|0:0,0:0:0:0:
241,149,29300,2,0,P|178:133|119:160,1,131.99999597168,2|2,0:0|0:0,0:0:0:0:
0,89,29990,2,0,P|32:98|64:94,1,65.9999979858399,0|2,0:0|0:0,0:0:0:0:
127,41,30334,6,0,B|182:66|242:34|242:34|309:6|362:39|362:39|327:77|287:74|287:74|333:107|327:162|327:162|336:105|379:74,1,527.999983886719,2|0,0:0|0:0,0:0:0:0:
371,79,32058,1,0,0:0:0:0:
382,224,32403,5,2,0:0:0:0:
354,242,32576,1,2,0:0:0:0:
321,248,32748,1,0,0:0:0:0:
289,238,32921,1,2,0:0:0:0:
266,215,33093,1,2,0:0:0:0:
266,215,33783,6,0,L|271:149,2,65.9999979858399,2|0|0,0:0|0:0|0:0,0:0:0:0:
316,332,34300,2,0,P|254:310|190:323,1,131.99999597168,0|0,0:0|0:0,0:0:0:0:
190,323,34817,1,2,0:0:0:0:
80,216,35162,1,2,0:0:0:0:
190,323,35507,5,0,0:0:0:0:
145,259,35679,1,2,0:0:0:0:
80,216,35852,6,0,B|30:225|2:181|2:181|29:127|90:120|132:149|132:149|191:190|248:161|248:161|265:99|198:58|198:58|207:81|200:104,1,527.999983886719,2|0,0:0|0:0,0:0:0:0:
381,89,37921,1,2,0:0:0:0:
403,64,38093,1,2,0:0:0:0:
388,35,38265,1,0,0:0:0:0:
355,41,38438,1,2,0:0:0:0:
350,73,38610,1,2,0:0:0:0:
350,73,39300,6,0,L|355:138,2,65.9999979858399,2|0|0,0:0|0:0|0:0,0:0:0:0:
260,45,39817,2,0,L|271:176,1,131.99999597168,0|0,0:0|0:0,0:0:0:0:
271,176,40334,1,2,0:0:0:0:
336,263,40679,5,2,0:0:0:0:
307,279,40852,1,2,0:0:0:0:
274,286,41024,1,0,0:0:0:0:
241,281,41196,1,2,0:0:0:0:
212,264,41369,6,0,B|156:240|97:268|97:268|164:184|107:76|107:76|-8:111|-4:242,1,527.999983886719,2|0,0:0|0:0,0:0:0:0:
208,185,43438,6,0,P|270:202|333:186,1,132,2|0,0:0|0:0,0:0:0:0:
328,160,43783,2,0,P|391:144|453:162,1,132,2|0,0:0|0:0,0:0:0:0:
480,181,44127,5,2,0:0:0:0:
419,63,44300,1,0,0:0:0:0:
391,261,44472,2,0,L|399:359,1,98.9999969787599,10|0,0:0|0:0,0:0:0:0:
333,185,44817,1,0,0:0:0:0:
274,98,44990,2,0,L|265:0,1,98.9999969787599,2|8,0:0|0:0,0:0:0:0:
208,184,45334,1,0,0:0:0:0:
271,267,45507,1,2,0:0:0:0:
274,98,45852,1,8,0:0:0:0:
178,89,46024,5,2,0:0:0:0:
167,66,46110,1,2,0:0:0:0:
167,41,46196,1,2,0:0:0:0:
112,151,46369,5,2,0:0:0:0:
120,249,46541,1,8,0:0:0:0:
34,314,46714,1,2,0:0:0:0:
26,216,46886,1,2,0:0:0:0:
26,216,47058,1,0,0:0:0:0:
125,349,47231,6,0,P|173:356|219:340,1,98.9999969787599,10|0,0:0|0:0,0:0:0:0:
271,267,47576,1,0,0:0:0:0:
455,266,47748,2,0,P|405:271|359:255,1,98.9999969787599,2|8,0:0|0:0,0:0:0:0:
308,182,48093,1,0,0:0:0:0:
330,340,48265,1,2,0:0:0:0:
419,159,48610,1,8,0:0:0:0:
192,42,48955,5,2,0:0:0:0:
280,88,49127,1,2,0:0:0:0:
308,182,49300,1,8,0:0:0:0:
303,83,49472,1,2,0:0:0:0:
374,13,49645,1,2,0:0:0:0:
186,169,49990,5,8,0:0:0:0:
225,257,50162,2,0,B|178:276|133:250|133:250|80:223|34:250,1,197.99999395752,2|2,0:0|0:0,0:0:0:0:
36,250,50679,1,8,0:0:0:0:
304,325,51024,2,0,P|329:257|304:189,1,148.49999546814,2|0,0:0|0:0,0:0:0:0:
285,174,51369,1,8,0:0:0:0:
463,85,51714,5,2,0:0:0:0:
364,93,51886,1,2,0:0:0:0:
269,61,52058,1,8,0:0:0:0:
405,15,52231,5,2,0:0:0:0:
512,166,52403,2,0,L|503:264,1,98.9999969787599,2|0,0:0|0:0,0:0:0:0:
503,264,52748,1,8,0:0:0:0:
384,187,52921,6,0,B|330:199|293:162|293:162|259:211|200:204,1,197.99999395752,2|2,0:0|0:0,0:0:0:0:
208,204,53438,1,8,0:0:0:0:
426,275,53783,1,2,0:0:0:0:
442,85,54127,1,10,0:0:0:0:
387,187,54472,6,0,P|435:178|481:195,1,98.9999969787599,2|0,0:0|0:0,0:0:0:0:
312,274,54817,2,0,P|261:281|213:262,1,98.9999969787599,10|0,0:0|0:0,0:0:0:0:
145,210,55162,5,0,0:0:0:0:
167,2,55334,1,0,0:0:0:0:
272,192,55507,1,8,0:0:0:0:
47,171,55679,1,0,0:0:0:0:
291,59,55852,5,0,0:0:0:0:
217,264,56024,1,0,0:0:0:0:
115,94,56196,1,8,0:0:0:0:
293,204,56369,1,0,0:0:0:0:
55,294,56541,5,0,0:0:0:0:
67,162,56714,1,0,0:0:0:0:
227,384,56886,1,8,0:0:0:0:
215,240,57058,1,0,0:0:0:0:
49,382,57231,5,0,0:0:0:0:
209,105,57403,1,0,0:0:0:0:
346,310,57576,5,8,0:0:0:0:
58,272,57748,1,0,0:0:0:0:
293,204,57921,5,0,0:0:0:0:
128,329,58093,1,0,0:0:0:0:
115,94,58265,1,8,0:0:0:0:
215,240,58438,1,0,0:0:0:0:
15,146,58610,5,0,0:0:0:0:
219,4,58783,1,0,0:0:0:0:
122,183,58955,1,8,0:0:0:0:
13,24,59127,1,0,0:0:0:0:
46,227,59300,5,0,0:0:0:0:
116,0,59472,1,0,0:0:0:0:
192,245,59645,1,8,0:0:0:0:
300,145,59817,1,0,0:0:0:0:
512,349,59990,5,0,0:0:0:0:
477,127,60162,1,0,0:0:0:0:
340,319,60334,5,8,0:0:0:0:
394,87,60507,1,0,0:0:0:0:
394,87,60593,1,0,0:0:0:0:
394,87,60679,5,0,0:0:0:0:
352,52,60765,1,0,0:0:0:0:
300,40,60852,1,0,0:0:0:0:
247,56,60938,1,0,0:0:0:0:
208,95,61024,1,8,0:0:0:0:
170,133,61110,1,0,0:0:0:0:
117,150,61196,1,0,0:0:0:0:
64,138,61283,1,0,0:0:0:0:
27,97,61369,1,0,0:0:0:0:
77,79,61455,1,0,0:0:0:0:
130,94,61541,1,0,0:0:0:0:
170,133,61627,1,0,0:0:0:0:
174,188,61714,2,0,L|169:244,3,49.4999984893799,8|0|0|0,0:0|0:0|0:0|0:0,0:0:0:0:
69,320,62058,5,0,0:0:0:0:
107,357,62145,1,0,0:0:0:0:
158,371,62231,1,0,0:0:0:0:
212,364,62317,1,0,0:0:0:0:
259,337,62403,1,8,0:0:0:0:
306,309,62490,1,0,0:0:0:0:
360,303,62576,1,0,0:0:0:0:
411,317,62662,1,0,0:0:0:0:
449,353,62748,5,0,0:0:0:0:
410,72,62921,1,0,0:0:0:0:
306,309,63093,1,8,0:0:0:0:
319,142,63265,1,0,0:0:0:0:
161,355,63438,5,0,0:0:0:0:
107,364,63524,1,0,0:0:0:0:
55,345,63610,1,0,0:0:0:0:
22,301,63696,1,0,0:0:0:0:
16,246,63783,1,8,0:0:0:0:
41,196,63869,1,0,0:0:0:0:
86,166,63955,1,0,0:0:0:0:
140,165,64041,1,0,0:0:0:0:
186,192,64127,5,0,0:0:0:0:
218,191,64214,1,0,0:0:0:0:
245,173,64300,1,0,0:0:0:0:
260,143,64386,1,0,0:0:0:0:
256,110,64472,1,8,0:0:0:0:
236,84,64558,1,0,0:0:0:0:
206,72,64645,1,0,0:0:0:0:
174,78,64731,1,0,0:0:0:0:
140,165,64817,6,0,L|149:269,1,98.9999969787599,0|0,0:0|0:0,0:0:0:0:
25,116,65162,2,0,L|33:17,1,98.9999969787599
13,271,65507,5,0,3:0:0:0:
123,18,65679,1,2,0:0:0:0:
140,165,65852,5,0,3:0:0:0:
32,17,66024,1,2,3:0:0:0:
170,277,66196,6,0,B|211:280|211:280|241:268|241:268|311:274,1,131.99999597168,0|0,3:0|0:0,0:0:0:0:
489,290,66541,1,8,0:0:0:0:
387,360,66714,1,0,0:0:0:0:
409,107,66886,1,0,0:0:0:0:
335,178,67058,2,0,P|393:207|458:198,2,131.99999597168,0|8|0,3:0|0:0|0:0,0:0:0:0:
263,5,67576,6,0,B|207:-20|146:14|146:14|85:48|31:16,1,242.000007385254,0|8,3:0|0:0,0:0:0:0:
4,61,68007,1,0,0:0:0:0:
8,112,68093,1,0,0:0:0:0:
13,164,68179,1,0,0:0:0:0:
17,217,68265,1,0,0:0:0:0:
214,113,68438,5,0,3:0:0:0:
176,300,68610,2,0,B|232:314|232:314|312:288,1,131.99999597168,8|0,0:0|0:0,0:0:0:0:
498,121,68955,1,0,3:0:0:0:
498,121,69300,6,0,B|469:113|444:125|444:125|424:114|424:114|397:123|366:119,1,131.99999597168,8|0,0:0|0:0,0:0:0:0:
60,83,69645,1,0,0:0:0:0:
283,172,69817,1,0,3:0:0:0:
206,29,69990,1,8,0:0:0:0:
176,300,70162,1,0,0:0:0:0:
479,52,70334,6,0,B|482:96|482:96|497:121|497:121|489:157|489:157|497:251,1,197.99999395752,0|0,3:0|0:0,0:0:0:0:
500,273,70679,1,8,0:0:0:0:
311,201,70852,1,0,0:0:0:0:
227,384,71024,5,0,0:0:0:0:
155,112,71196,1,0,3:0:0:0:
500,273,71369,5,8,0:0:0:0:
0,214,71541,1,0,0:0:0:0:
308,74,71714,6,0,B|327:134|327:134|309:203,1,131.99999597168,0|0,3:0|0:0,0:0:0:0:
227,384,72058,1,8,0:0:0:0:
177,211,72231,1,0,0:0:0:0:
322,307,72403,1,0,0:0:0:0:
134,322,72576,1,0,3:0:0:0:
238,136,72748,1,8,0:0:0:0:
229,293,72921,1,0,0:0:0:0:
368,6,73093,5,0,3:0:0:0:
347,222,73265,1,0,0:0:0:0:
238,136,73438,1,8,0:0:0:0:
461,163,73610,1,0,0:0:0:0:
366,25,73783,5,0,0:0:0:0:
349,201,73955,1,0,3:0:0:0:
262,138,74127,1,8,0:0:0:0:
439,160,74300,1,0,0:0:0:0:
257,26,74472,6,0,P|202:27|154:53,1,110,0|0,3:0|0:0,0:0:0:0:
68,223,74817,2,0,P|94:175|95:120,1,110,8|0,0:0|0:0,0:0:0:0:
68,36,75162,1,0,0:0:0:0:
177,135,75334,1,0,3:0:0:0:
21,304,75507,6,0,B|62:319|62:319|131:304,1,110,8|0,0:0|0:0,0:0:0:0:
249,255,75852,2,0,B|310:260|310:260|337:280|337:280|406:286,1,165,0|0,3:0|0:0,0:0:0:0:
435,290,76196,1,8,0:0:0:0:
191,319,76369,5,0,3:0:0:0:
164,278,76455,1,8,0:0:0:0:
163,233,76541,1,0,0:0:0:0:
182,194,76627,1,0,3:0:0:0:
220,170,76714,2,0,L|276:174,1,55,0|0,3:0|3:0,0:0:0:0:
447,190,76886,5,8,0:0:0:0:
249,255,77058,1,0,3:0:0:0:
453,41,77231,5,0,3:0:0:0:
453,41,77576,6,0,B|401:36|401:36|373:49|373:49|324:44,1,131.99999597168,8|0,0:0|0:0,0:0:0:0:
107,97,77921,1,0,0:0:0:0:
196,156,78093,2,0,P|212:90|186:21,2,131.99999597168,0|8|0,3:0|0:0|0:0,0:0:0:0:
18,242,78610,6,0,B|78:213|127:251|127:251|181:291|247:262,1,242.000007385254,0|8,3:0|0:0,0:0:0:0:
293,241,79041,1,0,0:0:0:0:
318,195,79127,1,0,0:0:0:0:
317,142,79214,1,0,0:0:0:0:
291,96,79300,1,0,0:0:0:0:
428,245,79472,5,0,3:0:0:0:
410,16,79645,2,0,B|349:-6|349:-6|285:14,1,131.99999597168,8|0,0:0|0:0,0:0:0:0:
35,145,79990,1,0,3:0:0:0:
35,145,80334,6,0,B|59:142|81:149|81:149|100:137|100:137|126:152|167:143,1,131.99999597168,8|0,0:0|0:0,0:0:0:0:
478,108,80679,1,0,0:0:0:0:
271,281,80852,1,0,3:0:0:0:
202,44,81024,1,8,0:0:0:0:
357,168,81196,1,0,0:0:0:0:
498,3,81369,6,0,B|460:-7|435:8|435:8|408:-14|408:-14|391:0|391:0|348:-17|316:0,1,197.99999395752,0|0,3:0|0:0,0:0:0:0:
298,11,81714,1,8,0:0:0:0:
478,108,81886,1,0,0:0:0:0:
219,194,82058,5,0,0:0:0:0:
502,18,82231,1,0,3:0:0:0:
400,384,82403,5,8,0:0:0:0:
298,11,82576,1,0,0:0:0:0:
291,273,82748,6,0,B|243:285|243:285|147:258,1,131.99999597168,0|0,3:0|0:0,0:0:0:0:
17,200,83093,1,8,0:0:0:0:
39,329,83265,1,0,0:0:0:0:
107,172,83438,1,0,0:0:0:0:
129,344,83610,1,0,3:0:0:0:
197,183,83783,1,8,0:0:0:0:
17,200,83955,1,0,0:0:0:0:
291,273,84127,5,0,3:0:0:0:
260,62,84300,1,0,0:0:0:0:
358,154,84472,1,8,0:0:0:0:
197,183,84645,1,0,0:0:0:0:
289,253,84817,5,0,0:0:0:0:
264,84,84990,1,0,3:0:0:0:
342,157,85162,1,8,0:0:0:0:
213,181,85334,1,0,0:0:0:0:
410,12,85507,5,0,3:0:0:0:
410,12,86886,6,0,B|415:75|415:75|436:100|436:100|442:170,1,165,0|0,3:0|0:0,0:0:0:0:
444,191,87231,1,0,0:0:0:0:
230,23,87403,5,0,0:0:0:0:
180,19,87490,1,8,0:0:0:0:
132,32,87576,1,0,0:0:0:0:
94,64,87662,1,0,3:0:0:0:
79,111,87748,2,0,L|83:166,1,55,0|0,3:0|3:0,0:0:0:0:
167,313,87921,5,8,0:0:0:0:
230,23,88093,1,0,3:0:0:0:
314,227,88265,6,0,L|324:342,1,98.9999969787599,2|0,0:0|0:0,0:0:0:0:
126,222,88610,1,8,0:0:0:0:
226,234,88783,1,0,0:0:0:0:
167,313,88955,1,0,0:0:0:0:
185,162,89127,1,0,0:0:0:0:
26,210,89300,5,8,0:0:0:0:
167,313,89472,1,0,0:0:0:0:
82,135,89645,1,0,0:0:0:0:
82,135,89817,1,0,0:0:0:0:
185,162,89990,6,0,P|188:113|167:69,1,98.9999969787599,10|0,0:0|0:0,0:0:0:0:
82,45,90334,1,0,0:0:0:0:
329,103,90507,6,0,P|307:59|266:31,1,98.9999969787599,2|8,0:0|0:0,0:0:0:0:
181,53,90852,1,0,0:0:0:0:
290,186,91024,6,0,P|337:195|383:178,1,98.9999969787599,2|0,0:0|0:0,0:0:0:0:
478,96,91369,1,8,0:0:0:0:
489,187,91541,1,0,0:0:0:0:
405,50,91714,1,0,0:0:0:0:
405,50,91886,1,0,0:0:0:0:
329,103,92058,5,8,0:0:0:0:
478,96,92231,1,0,0:0:0:0:
268,43,92403,1,0,0:0:0:0:
268,43,92576,1,0,0:0:0:0:
161,155,92748,6,0,P|209:152|248:123,1,98.9999969787599,10|0,0:0|0:0,0:0:0:0:
378,244,93093,2,0,P|351:203|306:183,1,98.9999969787599,2|0,0:0|0:0,0:0:0:0:
93,96,93438,2,0,P|70:139|76:187,1,98.9999969787599,10|0,0:0|0:0,0:0:0:0:
247,351,93783,6,0,L|347:342,1,98.9999969787599,2|0,0:0|0:0,0:0:0:0:
431,334,94127,1,8,0:0:0:0:
431,334,94300,1,0,0:0:0:0:
298,264,94472,6,0,L|197:272,1,98.9999969787599,2|0,0:0|0:0,0:0:0:0:
111,280,94817,1,8,0:0:0:0:
111,280,94990,1,0,0:0:0:0:
207,85,95162,6,0,P|224:130|218:179,1,98.9999969787599,2|0,0:0|0:0,0:0:0:0:
199,272,95507,1,8,0:0:0:0:
137,199,95679,1,0,0:0:0:0:
263,17,95852,6,0,P|218:-1|170:6,1,98.9999969787599,2|0,0:0|0:0,0:0:0:0:
116,77,96196,1,8,0:0:0:0:
207,85,96369,1,0,0:0:0:0:
32,174,96541,6,0,B|20:211|38:247|38:247|58:284|45:326,1,148.49999546814,2|0,0:0|0:0,0:0:0:0:
41,339,96886,1,8,0:0:0:0:
128,324,97058,1,0,0:0:0:0:
194,375,97231,1,0,0:0:0:0:
124,238,97403,1,0,0:0:0:0:
320,265,97576,2,0,L|222:274,1,98.9999969787599,8|0,0:0|0:0,0:0:0:0:
410,302,97921,2,0,P|417:253|397:205,1,98.9999969787599
276,16,98265,5,8,0:0:0:0:
380,96,98438,1,0,0:0:0:0:
380,96,98524,2,0,L|429:91,4,49.4999984893799,8|0|0|0|0,0:0|0:0|0:0|0:0|0:0,0:0:0:0:
190,110,98955,1,8,0:0:0:0:
292,189,99127,1,0,0:0:0:0:
72,40,99300,6,0,B|59:76|59:76|72:143,1,98.9999969787599,2|0,0:0|0:0,0:0:0:0:
105,273,99645,1,8,0:0:0:0:
154,190,99817,1,0,0:0:0:0:
31,218,99990,1,0,0:0:0:0:
197,274,100162,1,0,0:0:0:0:
124,369,100334,5,8,0:0:0:0:
154,190,100507,1,0,0:0:0:0:
290,255,100679,1,0,0:0:0:0:
290,255,100852,1,0,0:0:0:0:
316,112,101024,6,0,P|268:103|224:124,1,98.9999969787599,10|0,0:0|0:0,0:0:0:0:
154,190,101369,1,0,0:0:0:0:
168,11,101541,6,0,P|136:48|133:96,1,98.9999969787599,2|8,0:0|0:0,0:0:0:0:
154,190,101886,1,0,0:0:0:0:
401,158,102058,6,0,P|414:111|397:65,1,98.9999969787599,2|0,0:0|0:0,0:0:0:0:
328,14,102403,1,8,0:0:0:0:
442,0,102576,1,0,0:0:0:0:
316,112,102748,1,0,0:0:0:0:
316,112,102921,1,0,0:0:0:0:
487,66,103093,5,8,0:0:0:0:
328,14,103265,1,0,0:0:0:0:
401,158,103438,1,0,0:0:0:0:
401,158,103610,1,0,0:0:0:0:
248,52,103783,6,0,P|199:45|155:66,1,98.9999969787599,10|0,0:0|0:0,0:0:0:0:
0,120,104127,2,0,P|48:124|87:153,1,98.9999969787599,2|0,0:0|0:0,0:0:0:0:
250,233,104472,2,0,P|221:194|217:146,1,98.9999969787599,10|0,0:0|0:0,0:0:0:0:
12,214,104817,6,0,L|21:322,1,98.9999969787599,2|0,0:0|0:0,0:0:0:0:
87,153,105162,1,8,0:0:0:0:
87,153,105334,1,0,0:0:0:0:
250,233,105507,6,0,L|240:341,1,98.9999969787599,2|0,0:0|0:0,0:0:0:0:
175,172,105852,1,8,0:0:0:0:
175,172,106024,1,0,0:0:0:0:
350,104,106196,6,0,P|301:110|262:140,1,98.9999969787599,2|0,0:0|0:0,0:0:0:0:
250,233,106541,1,8,0:0:0:0:
343,200,106714,1,0,0:0:0:0:
175,172,106886,6,0,P|156:217|163:265,1,98.9999969787599,2|0,0:0|0:0,0:0:0:0:
238,330,107231,1,8,0:0:0:0:
250,233,107403,1,0,0:0:0:0:
372,366,107576,6,0,B|417:390|455:348|455:348|440:282|369:260|318:297,1,263.99999194336,2|0,0:0|0:0,0:0:0:0:
238,330,109127,1,0,0:0:0:0:
250,233,109300,1,0,0:0:0:0:
134,328,109472,5,0,0:0:0:0:
134,328,109558,2,0,L|129:378,4,49.4999984893799,8|0|0|0|0,0:0|0:0|0:0|0:0|0:0,0:0:0:0:
150,143,109990,1,10,0:0:0:0:
59,216,110162,1,0,0:0:0:0:
441,250,110334,5,4,0:0:0:0:
256,192,110421,12,0,113093,0:0:0:0:
512,214,132403,5,2,0:0:0:0:
512,214,133093,6,0,P|448:200|388:224,1,131.99999597168,2|0,0:0|0:0,0:0:0:0:
402,323,133610,2,0,P|341:347|278:333,1,131.99999597168,0|0,0:0|0:0,0:0:0:0:
143,374,134127,1,2,0:0:0:0:
277,332,134472,1,2,0:0:0:0:
143,374,134817,5,0,0:0:0:0:
199,315,134990,1,2,0:0:0:0:
277,332,135162,6,0,B|298:281|266:223|266:223|224:138|287:83|287:83|353:119|348:179|348:179|287:218|210:188,1,527.999983886719,2|0,0:0|0:0,0:0:0:0:
14,173,136886,6,0,L|68:169,1,49.4999984893799,2|0,0:0|0:0,0:0:0:0:
85,147,137231,2,0,L|139:143,1,49.4999984893799,2|0,0:0|0:0,0:0:0:0:
156,121,137576,2,0,L|210:117,1,49.4999984893799,2|0,0:0|0:0,0:0:0:0:
287,83,137921,5,2,0:0:0:0:
287,83,138610,6,0,P|295:113|289:153,1,65.9999979858399,2|0,0:0|0:0,0:0:0:0:
268,223,138955,1,0,0:0:0:0:
469,224,139127,2,0,P|409:197|344:205,1,131.99999597168,2|0,0:0|0:0,0:0:0:0:
326,287,139645,1,2,0:0:0:0:
185,224,139990,1,2,0:0:0:0:
326,287,140334,5,0,0:0:0:0:
268,223,140507,1,2,0:0:0:0:
185,224,140679,6,0,B|137:270|82:270|25:213|25:213|49:163|112:173|112:173|154:104|89:35|89:35|112:87|86:134,1,527.999983886719,2|0,0:0|0:0,0:0:0:0:
246,154,142748,5,2,0:0:0:0:
246,154,142921,2,0,P|230:147|214:145,2,32.99999899292,0|0|0,0:0|0:0|0:0,0:0:0:0:
359,241,143438,5,2,0:0:0:0:
359,241,144127,6,0,P|344:172|370:106,1,131.99999597168,2|0,0:0|0:0,0:0:0:0:
332,15,144645,2,0,P|279:61|209:72,1,131.99999597168,0|0,0:0|0:0,0:0:0:0:
62,40,145162,1,2,0:0:0:0:
220,73,145507,1,2,0:0:0:0:
62,40,145852,5,0,0:0:0:0:
134,94,146024,1,2,0:0:0:0:
220,73,146196,6,0,B|233:121|190:162|190:162|245:107|315:144|315:144|354:192|318:238|318:238|295:216|264:219|264:219|229:281|288:344,1,527.999983886719,2|0,0:0|0:0,0:0:0:0:
281,337,147921,1,0,0:0:0:0:
84,353,148265,5,2,0:0:0:0:
63,325,148438,1,2,0:0:0:0:
82,297,148610,1,0,0:0:0:0:
114,308,148783,1,2,0:0:0:0:
114,341,148955,1,2,0:0:0:0:
114,341,149645,6,0,P|145:348|177:340,1,65.9999979858399,2|0,0:0|0:0,0:0:0:0:
224,272,149990,1,0,0:0:0:0:
138,132,150162,2,0,P|121:196|140:259,1,131.99999597168,2|0,0:0|0:0,0:0:0:0:
260,344,150679,1,2,0:0:0:0:
249,193,151024,1,2,0:0:0:0:
260,344,151369,5,0,0:0:0:0:
224,272,151541,1,2,0:0:0:0:
249,192,151714,6,0,B|303:163|355:202|355:202|416:167|475:205|475:205|475:263|412:271|412:271|377:220|402:140|402:140|373:156|343:151,1,527.999983886719,2|0,0:0|0:0,0:0:0:0:
354,56,153783,6,0,P|292:39|229:55,1,132,2|0,0:0|0:0,0:0:0:0:
234,81,154127,2,0,P|171:97|109:79,1,132,2|0,0:0|0:0,0:0:0:0:
82,60,154472,5,2,0:0:0:0:
9,0,154645,1,0,0:0:0:0:
17,131,154817,2,0,L|25:229,1,98.9999969787599,10|0,0:0|0:0,0:0:0:0:
108,78,155162,1,0,0:0:0:0:
116,209,155334,2,0,L|124:307,1,98.9999969787599,2|8,0:0|0:0,0:0:0:0:
180,140,155679,1,0,0:0:0:0:
25,229,155852,1,0,0:0:0:0:
201,367,156196,1,8,0:0:0:0:
281,282,156369,5,2,0:0:0:0:
279,257,156455,1,2,0:0:0:0:
277,232,156541,1,2,0:0:0:0:
381,348,156714,5,2,0:0:0:0:
410,253,156886,1,8,0:0:0:0:
378,158,157058,1,2,0:0:0:0:
474,180,157231,1,0,0:0:0:0:
474,180,157403,1,0,0:0:0:0:
298,144,157576,6,0,P|245:146|206:174,1,98.9999969787599,10|0,0:0|0:0,0:0:0:0:
176,248,157921,1,0,0:0:0:0:
89,24,158093,2,0,P|77:71|86:119,1,98.9999969787599,2|8,0:0|0:0,0:0:0:0:
129,182,158438,1,0,0:0:0:0:
59,285,158610,1,2,0:0:0:0:
199,79,158955,1,8,0:0:0:0:
439,267,159300,5,2,0:0:0:0:
346,231,159472,1,2,0:0:0:0:
298,144,159645,1,8,0:0:0:0:
336,52,159817,1,2,0:0:0:0:
423,4,159990,1,0,0:0:0:0:
245,231,160334,5,10,0:0:0:0:
185,303,160507,2,0,B|155:280|150:237|150:237|102:283|40:266,1,197.99999395752,2|2,0:0|0:0,0:0:0:0:
38,265,161024,1,8,0:0:0:0:
64,16,161369,6,0,P|95:81|83:153,1,148.49999546814,2|0,0:0|0:0,0:0:0:0:
72,170,161714,1,8,0:0:0:0:
220,47,162058,5,2,0:0:0:0:
310,6,162231,1,2,0:0:0:0:
405,34,162403,1,8,0:0:0:0:
318,136,162576,1,2,0:0:0:0:
456,255,162748,6,0,L|448:157,1,98.9999969787599,2|0,0:0|0:0,0:0:0:0:
448,156,163093,1,8,0:0:0:0:
359,240,163265,6,0,B|303:261|258:231|258:231|214:202|158:222,1,197.99999395752,2|2,0:0|0:0,0:0:0:0:
169,219,163783,1,8,0:0:0:0:
318,136,164127,5,2,0:0:0:0:
203,311,164472,1,10,0:0:0:0:
95,180,164817,6,0,P|47:171|0:183,1,98.9999969787599,2|0,0:0|0:0,0:0:0:0:
144,95,165162,2,0,P|191:107|240:98,1,98.9999969787599,10|0,0:0|0:0,0:0:0:0:
396,1,165507,5,8,0:0:0:0:
422,187,165679,1,0,0:0:0:0:
289,0,165852,1,0,0:0:0:0:
489,107,166024,1,0,0:0:0:0:
307,186,166196,5,8,0:0:0:0:
501,11,166369,1,0,0:0:0:0:
474,271,166541,1,0,0:0:0:0:
394,97,166714,1,0,0:0:0:0:
162,216,166886,5,8,0:0:0:0:
307,186,167058,1,0,0:0:0:0:
57,322,167231,1,0,0:0:0:0:
207,359,167403,1,0,0:0:0:0:
2,171,167576,5,8,0:0:0:0:
254,270,167748,1,0,0:0:0:0:
120,384,167921,5,0,0:0:0:0:
107,115,168093,1,0,0:0:0:0:
307,186,168265,5,8,0:0:0:0:
141,299,168438,1,0,0:0:0:0:
227,72,168610,1,0,0:0:0:0:
254,270,168783,1,0,0:0:0:0:
107,115,168955,5,8,0:0:0:0:
359,57,169127,1,0,0:0:0:0:
307,186,169300,1,0,0:0:0:0:
285,0,169472,1,0,0:0:0:0:
203,178,169645,5,8,0:0:0:0:
431,144,169817,1,0,0:0:0:0:
227,72,169990,1,0,0:0:0:0:
320,274,170162,1,0,0:0:0:0:
463,51,170334,5,8,0:0:0:0:
203,178,170507,1,0,0:0:0:0:
431,144,170679,1,0,0:0:0:0:
238,340,170852,1,0,0:0:0:0:
238,340,170938,1,0,0:0:0:0:
238,340,171024,5,8,0:0:0:0:
188,364,171110,1,0,0:0:0:0:
134,376,171196,1,0,0:0:0:0:
80,365,171283,1,0,0:0:0:0:
33,335,171369,1,0,0:0:0:0:
63,289,171455,1,0,0:0:0:0:
74,233,171541,1,0,0:0:0:0:
62,179,171627,1,0,0:0:0:0:
39,131,171714,1,8,0:0:0:0:
43,185,171800,1,0,0:0:0:0:
86,218,171886,1,0,0:0:0:0:
140,218,171972,1,0,0:0:0:0:
185,188,172058,2,0,L|189:133,3,49.4999984893799
111,25,172403,5,8,0:0:0:0:
161,5,172490,1,0,0:0:0:0:
215,4,172576,1,0,0:0:0:0:
264,25,172662,1,0,0:0:0:0:
300,64,172748,1,0,0:0:0:0:
337,104,172834,1,0,0:0:0:0:
386,124,172921,1,0,0:0:0:0:
440,123,173007,1,0,0:0:0:0:
490,104,173093,5,8,0:0:0:0:
450,329,173265,1,0,0:0:0:0:
300,64,173438,5,0,0:0:0:0:
331,255,173610,1,0,0:0:0:0:
11,141,173783,5,8,0:0:0:0:
52,105,173869,1,0,0:0:0:0:
106,100,173955,1,0,0:0:0:0:
154,126,174041,1,0,0:0:0:0:
174,176,174127,1,0,0:0:0:0:
166,229,174214,1,0,0:0:0:0:
127,266,174300,1,0,0:0:0:0:
73,276,174386,1,0,0:0:0:0:
24,249,174472,5,8,0:0:0:0:
49,230,174558,1,0,0:0:0:0:
81,224,174645,1,0,0:0:0:0:
110,237,174731,1,0,0:0:0:0:
127,266,174817,1,0,0:0:0:0:
145,295,174903,1,0,0:0:0:0:
173,308,174990,1,0,0:0:0:0:
205,302,175076,1,0,0:0:0:0:
255,233,175162,6,0,L|358:242,1,98.9999969787599,0|0,0:0|0:0,0:0:0:0:
436,345,175507,2,0,L|332:354,1,98.9999969787599,0|0,0:0|0:0,0:0:0:0:
508,254,175852,5,0,3:0:0:0:
259,362,176024,1,0,0:0:0:0:
442,142,176196,5,0,3:0:0:0:
436,345,176369,1,0,3:0:0:0:
324,74,176541,6,0,B|270:78|270:78|254:93|254:93|198:99,1,131.99999597168,0|0,3:0|0:0,0:0:0:0:
0,248,176886,1,8,0:0:0:0:
164,233,177058,1,0,0:0:0:0:
59,0,177231,1,0,0:0:0:0:
80,222,177403,2,0,L|91:353,2,131.99999597168,0|8|0,3:0|0:0|0:0,0:0:0:0:
59,0,177921,6,0,B|125:-7|160:46|160:46|208:-4|273:9,1,242.000007385254,0|8,3:0|0:0,0:0:0:0:
323,24,178352,1,0,0:0:0:0:
375,20,178438,1,0,0:0:0:0:
427,15,178524,1,0,0:0:0:0:
479,11,178610,1,0,0:0:0:0:
245,110,178783,5,0,3:0:0:0:
429,339,178955,2,0,B|445:288|445:288|422:204,1,131.99999597168,8|0,0:0|0:0,0:0:0:0:
375,20,179300,1,0,3:0:0:0:
375,20,179645,6,0,B|335:23|335:23|320:15|320:15|243:22,1,131.99999597168,8|0,0:0|0:0,0:0:0:0:
0,45,179990,1,0,0:0:0:0:
208,105,180162,1,0,3:0:0:0:
7,273,180334,1,8,0:0:0:0:
126,8,180507,1,0,0:0:0:0:
186,214,180679,6,0,B|234:224|278:193|278:193|331:158|395:198,1,197.99999395752,0|0,3:0|0:0,0:0:0:0:
396,196,181024,1,8,0:0:0:0:
300,93,181196,1,0,0:0:0:0:
383,345,181369,5,0,0:0:0:0:
431,19,181541,1,0,3:0:0:0:
0,192,181714,5,8,0:0:0:0:
512,138,181886,1,0,0:0:0:0:
251,257,182058,6,0,B|235:306|235:306|255:383,1,131.99999597168,0|0,3:0|0:0,0:0:0:0:
183,178,182403,1,8,0:0:0:0:
332,309,182576,1,0,0:0:0:0:
150,282,182748,1,0,0:0:0:0:
232,76,182921,1,0,3:0:0:0:
251,257,183093,1,8,0:0:0:0:
98,131,183265,1,0,0:0:0:0:
337,107,183438,5,0,3:0:0:0:
251,257,183610,1,0,0:0:0:0:
419,191,183783,1,8,0:0:0:0:
404,362,183955,1,0,0:0:0:0:
338,133,184127,5,0,0:0:0:0:
269,253,184300,1,0,3:0:0:0:
403,200,184472,1,8,0:0:0:0:
390,335,184645,1,0,0:0:0:0:
242,153,184817,6,0,P|187:147|134:170,1,110,0|0,3:0|0:0,0:0:0:0:
0,265,185162,2,0,P|32:220|39:162,1,110,8|0,0:0|0:0,0:0:0:0:
90,95,185507,1,0,0:0:0:0:
113,250,185679,1,0,3:0:0:0:
32,18,185852,2,0,P|82:-1|134:10,1,110,8|0,0:0|0:0,0:0:0:0:
250,152,186196,6,0,B|295:147|295:147|322:156|322:156|347:143|347:143|414:137,1,165,0|0,3:0|0:0,0:0:0:0:
441,133,186541,1,8,0:0:0:0:
168,100,186714,5,0,3:0:0:0:
155,142,186800,1,8,0:0:0:0:
161,184,186886,1,0,0:0:0:0:
185,220,186972,1,0,3:0:0:0:
223,240,187058,2,0,L|277:235,1,55,0|0,3:0|3:0,0:0:0:0:
435,220,187231,5,8,0:0:0:0:
245,63,187403,1,0,3:0:0:0:
128,353,187576,5,0,3:0:0:0:
128,353,187921,6,0,B|132:300|132:300|120:275|120:275|126:211,1,131.99999597168,8|0,0:0|0:0,0:0:0:0:
139,0,188265,1,0,0:0:0:0:
194,122,188438,2,0,P|131:134|69:113,2,131.99999597168,0|8|0,3:0|0:0|0:0,0:0:0:0:
439,47,188955,6,0,B|464:88|447:149|447:149|463:175|463:175|446:224|474:276,1,242.000007385254,0|8,3:0|0:0,0:0:0:0:
428,260,189386,1,0,0:0:0:0:
375,253,189472,1,0,0:0:0:0:
325,270,189558,1,0,0:0:0:0:
287,307,189645,1,0,0:0:0:0:
340,104,189817,5,0,3:0:0:0:
352,376,189990,2,0,B|283:387|283:387|202:363,1,131.99999597168,8|0,0:0|0:0,0:0:0:0:
1,264,190334,1,0,3:0:0:0:
1,264,190679,6,0,B|5:214|5:214|-3:191|-3:191|2:117,1,131.99999597168,8|0,0:0|0:0,0:0:0:0:
137,0,191024,1,0,0:0:0:0:
143,161,191196,1,0,3:0:0:0:
0,0,191369,1,8,0:0:0:0:
280,80,191541,1,0,0:0:0:0:
0,265,191714,6,0,B|43:238|98:256|98:256|150:276|207:246,1,197.99999395752,0|0,3:0|0:0,0:0:0:0:
218,243,192058,1,8,0:0:0:0:
61,353,192231,1,0,0:0:0:0:
135,80,192403,5,0,0:0:0:0:
200,384,192576,1,0,3:0:0:0:
512,187,192748,5,8,0:0:0:0:
0,265,192921,1,0,0:0:0:0:
299,301,193093,6,0,B|317:250|317:250|299:169,1,131.99999597168,0|0,3:0|0:0,0:0:0:0:
235,57,193438,1,8,0:0:0:0:
218,243,193610,1,0,0:0:0:0:
334,78,193783,1,0,0:0:0:0:
143,161,193955,1,0,3:0:0:0:
300,173,194127,5,8,0:0:0:0:
142,69,194300,1,0,0:0:0:0:
111,283,194472,5,0,3:0:0:0:
225,139,194645,1,0,0:0:0:0:
274,355,194817,1,8,0:0:0:0:
300,173,194990,1,0,0:0:0:0:
135,276,195162,5,0,0:0:0:0:
222,158,195334,1,0,3:0:0:0:
265,333,195507,1,8,0:0:0:0:
292,190,195679,1,0,0:0:0:0:
163,384,195852,5,0,3:0:0:0:
163,384,197231,6,0,B|121:369|114:322|114:322|81:352|28:346,1,165,0|0,3:0|0:0,0:0:0:0:
23,364,197576,1,0,0:0:0:0:
205,304,197748,5,0,0:0:0:0:
218,263,197834,1,8,0:0:0:0:
217,219,197921,1,0,0:0:0:0:
201,178,198007,1,0,3:0:0:0:
166,151,198093,2,0,L|111:155,1,55,0|0,3:0|3:0,0:0:0:0:
0,229,198265,5,8,0:0:0:0:
144,41,198438,1,0,3:0:0:0:
304,241,198610,6,0,L|419:251,1,98.9999969787599,2|0,0:0|0:0,0:0:0:0:
205,304,198955,1,8,0:0:0:0:
240,157,199127,1,0,0:0:0:0:
292,326,199300,1,0,0:0:0:0:
178,219,199472,1,0,0:0:0:0:
366,133,199645,5,8,0:0:0:0:
304,241,199817,1,0,0:0:0:0:
287,59,199990,1,0,0:0:0:0:
287,59,200162,1,0,0:0:0:0:
74,75,200334,6,0,P|123:72|167:93,1,98.9999969787599,10|0,0:0|0:0,0:0:0:0:
240,157,200679,1,0,0:0:0:0:
397,222,200852,2,0,P|348:219|304:240,1,98.9999969787599,2|8,0:0|0:0,0:0:0:0:
231,304,201196,1,0,0:0:0:0:
327,136,201369,6,0,P|337:88|323:41,1,98.9999969787599,2|0,0:0|0:0,0:0:0:0:
202,5,201714,1,8,0:0:0:0:
240,157,201886,1,0,0:0:0:0:
126,105,202058,1,0,0:0:0:0:
126,105,202231,1,0,0:0:0:0:
323,41,202403,5,8,0:0:0:0:
301,223,202576,1,0,0:0:0:0:
428,142,202748,1,0,0:0:0:0:
428,142,202921,1,0,0:0:0:0:
314,319,203093,6,0,P|266:316|227:287,1,98.9999969787599,10|0,0:0|0:0,0:0:0:0:
57,301,203438,2,0,P|98:274|117:229,1,98.9999969787599,2|0,0:0|0:0,0:0:0:0:
179,93,203783,2,0,P|182:141|211:180,1,98.9999969787599,10|0,0:0|0:0,0:0:0:0:
436,240,204127,6,0,L|427:140,1,98.9999969787599,2|0,0:0|0:0,0:0:0:0:
419,56,204472,1,8,0:0:0:0:
419,56,204645,1,0,0:0:0:0:
297,135,204817,6,0,L|306:235,1,98.9999969787599,2|0,0:0|0:0,0:0:0:0:
314,319,205162,1,8,0:0:0:0:
314,319,205334,1,0,0:0:0:0:
330,46,205507,6,0,P|282:41|236:59,1,98.9999969787599,2|0,0:0|0:0,0:0:0:0:
147,63,205852,1,8,0:0:0:0:
209,139,206024,1,0,0:0:0:0:
63,205,206196,6,0,P|110:200|156:218,1,98.9999969787599,2|0,0:0|0:0,0:0:0:0:
246,222,206541,1,8,0:0:0:0:
184,298,206714,1,0,0:0:0:0:
307,148,206886,6,0,B|340:137|377:157|377:157|413:175|450:163,1,148.49999546814,2|0,0:0|0:0,0:0:0:0:
473,148,207231,1,8,0:0:0:0:
397,195,207403,1,0,0:0:0:0:
388,283,207576,1,0,0:0:0:0:
493,256,207748,1,0,0:0:0:0:
309,232,207921,2,0,L|192:242,1,98.9999969787599,8|0,0:0|0:0,0:0:0:0:
51,299,208265,2,0,P|68:252|62:204,1,98.9999969787599,0|0,0:0|0:0,0:0:0:0:
22,20,208610,1,10,0:0:0:0:
179,228,208783,5,0,0:0:0:0:
179,228,208869,2,0,L|183:277,4,49.4999984893799,8|0|0|0|0,0:0|0:0|0:0|0:0|0:0,0:0:0:0:
190,55,209300,1,8,0:0:0:0:
1,121,209472,1,0,0:0:0:0:
271,153,209645,6,0,L|380:143,1,98.9999969787599,2|0,0:0|0:0,0:0:0:0:
512,224,209990,1,8,0:0:0:0:
444,81,210162,1,0,0:0:0:0:
407,248,210334,1,0,0:0:0:0:
510,137,210507,1,0,0:0:0:0:
474,308,210679,5,8,0:0:0:0:
369,144,210852,1,0,0:0:0:0:
329,291,211024,1,0,0:0:0:0:
329,291,211196,1,0,0:0:0:0:
191,108,211369,6,0,P|177:154|194:200,1,98.9999969787599,10|0,0:0|0:0,0:0:0:0:
250,257,211714,1,0,0:0:0:0:
103,317,211886,2,0,P|149:330|195:313,1,98.9999969787599,2|8,0:0|0:0,0:0:0:0:
250,257,212231,1,0,0:0:0:0:
30,375,212403,6,0,P|11:329|18:281,1,98.9999969787599,2|0,0:0|0:0,0:0:0:0:
105,151,212748,1,8,0:0:0:0:
103,317,212921,1,0,0:0:0:0:
16,175,213093,1,0,0:0:0:0:
16,175,213265,1,0,0:0:0:0:
194,200,213438,5,8,0:0:0:0:
111,0,213610,1,0,0:0:0:0:
105,151,213783,1,0,0:0:0:0:
105,151,213955,1,0,0:0:0:0:
257,54,214127,6,0,P|305:46|353:58,1,98.9999969787599,10|0,0:0|0:0,0:0:0:0:
512,125,214472,2,0,P|464:139|427:170,1,98.9999969787599,2|0,0:0|0:0,0:0:0:0:
299,180,214817,2,0,P|332:215|349:261,1,98.9999969787599,10|0,0:0|0:0,0:0:0:0:
487,373,215162,6,0,L|377:363,1,98.9999969787599,2|0,0:0|0:0,0:0:0:0:
276,355,215507,1,8,0:0:0:0:
276,355,215679,1,0,0:0:0:0:
138,279,215852,6,0,L|247:269,1,98.9999969787599,2|0,0:0|0:0,0:0:0:0:
349,261,216196,1,8,0:0:0:0:
349,261,216369,1,0,0:0:0:0:
61,337,216541,6,0,P|42:291|46:242,1,98.9999969787599,2|0,0:0|0:0,0:0:0:0:
120,187,216886,1,8,0:0:0:0:
138,279,217058,1,0,0:0:0:0:
62,110,217231,6,0,P|107:91|156:95,1,98.9999969787599,2|0,0:0|0:0,0:0:0:0:
212,169,217576,1,8,0:0:0:0:
120,187,217748,1,0,0:0:0:0:
347,60,217921,6,0,B|395:74|392:131|392:131|335:167|269:132|260:70,1,263.99999194336,2|0,0:0|0:0,0:0:0:0:
293,0,219472,1,0,0:0:0:0:
212,169,219645,1,0,0:0:0:0:
23,49,219817,5,0,0:0:0:0:
23,49,219903,2,0,L|18:-1,4,49.4999984893799,8|0|0|0|0,0:0|0:0|0:0|0:0|0:0,0:0:0:0:
36,209,220334,1,10,0:0:0:0:
165,51,220507,1,0,0:0:0:0:
51,384,220679,5,4,0:0:0:0:
256,192,220765,12,0,223438,0:0:0:0:
