osu file format v14

[General]
AudioFilename: clockwork.mp3
AudioLeadIn: 0
PreviewTime: 111847
Countdown: 0
SampleSet: Soft
StackLeniency: 0.7
Mode: 0
LetterboxInBreaks: 1
WidescreenStoryboard: 1

[Editor]
Bookmarks: 22545,67196,111847,201150
DistanceSpacing: 0.9
BeatDivisor: 4
GridSize: 4
TimelineZoom: 1

[Metadata]
Title:Clockwork Hearts
TitleUnicode:Clockwork Hearts
Artist:Feint
ArtistUnicode:Feint
Creator:Niokin
Version:Timeless
Source:
Tags:dnb drum and bass base liquid
BeatmapID:899117
BeatmapSetID:414842

[Difficulty]
HPDrainRate:6
CircleSize:4.5
OverallDifficulty:8
ApproachRate:9.3
SliderMultiplier:1.8
SliderTickRate:2

[Events]
//Background and Video events
0,0,"1454845364150.jpg",0,0
//Break Periods
2,156699,178270
//Storyboard Layer 0 (Background)
//Storyboard Layer 1 (Fail)
//Storyboard Layer 2 (Pass)
//Storyboard Layer 3 (Foreground)
//Storyboard Sound Samples

[TimingPoints]
220,348.837209302326,4,2,0,100,1,0
24638,-200,4,2,0,100,0,0
67196,-100,4,2,0,100,0,1
67283,-100,4,2,0,100,0,0
111847,-100,4,2,0,100,0,1
122923,-100,4,2,0,100,0,0
123010,-100,4,2,0,100,0,1
134086,-100,4,2,0,100,0,0
134173,-100,4,2,0,100,0,1
145249,-100,4,2,0,100,0,0
145336,-100,4,2,0,100,0,1
156499,-100,4,2,0,100,0,0
178824,-133.333333333333,4,2,0,100,0,0
201150,-100,4,2,0,100,0,1
212225,-100,4,2,0,100,0,0
212313,-100,4,2,0,100,0,1
223388,-100,4,2,0,100,0,0
223475,-100,4,2,0,100,0,1
234551,-100,4,2,0,100,0,0
234638,-100,4,2,0,100,0,1
244406,-100,4,2,0,100,0,0
245801,-100,4,2,0,100,0,1
256876,-100,4,2,0,100,0,0
256964,-100,4,2,0,100,0,1
268039,-100,4,2,0,100,0,0
268126,-100,4,2,0,100,0,1
279202,-100,4,2,0,100,0,0
279289,-100,4,2,0,100,0,1
290452,-100,4,2,0,100,0,0

[Colours]
Combo1 : 255,55,55
Combo2 : 0,128,128
Combo3 : 4,193,151
Combo4 : 139,251,15
Combo5 : 255,192,0

[HitObjects]
76,112,220,5,0,0:0:0:0:
148,32,394,1,0,0:0:0:0:
176,136,568,1,0,0:0:0:0:
136,284,743,1,0,0:0:0:0:
175,273,830,1,0,0:0:0:0:
215,274,917,1,0,0:0:0:0:
254,286,1004,1,0,0:0:0:0:
288,307,1091,1,0,0:0:0:0:
392,188,1266,2,0,B|404:140|404:140|392:92,1,90
160,260,1615,6,0,B|148:308|148:308|160:356,1,90
284,316,1964,1,0,0:0:0:0:
68,260,2138,1,0,0:0:0:0:
65,219,2225,1,0,0:0:0:0:
62,179,2312,1,0,0:0:0:0:
60,138,2399,1,0,0:0:0:0:
57,98,2486,1,0,0:0:0:0:
192,72,2661,1,0,0:0:0:0:
24,16,2836,1,0,0:0:0:0:
215,155,3010,6,0,P|253:133|277:95,1,90
68,260,3359,2,0,P|68:306|101:353,1,90
128,336,3621,1,0,0:0:0:0:
168,328,3708,1,0,0:0:0:0:
208,320,3795,1,0,0:0:0:0:
248,316,3882,1,0,0:0:0:0:
356,204,4057,2,0,L|456:200,1,90
268,24,4406,5,0,0:0:0:0:
268,24,4580,1,0,0:0:0:0:
196,76,4754,2,0,L|96:72,1,90
72,96,5016,1,0,0:0:0:0:
56,132,5103,1,0,0:0:0:0:
56,172,5190,1,0,0:0:0:0:
72,208,5277,1,0,0:0:0:0:
208,292,5452,1,0,0:0:0:0:
158,121,5626,5,0,0:0:0:0:
172,352,5801,1,0,0:0:0:0:
72,208,5975,1,0,0:0:0:0:
240,152,6150,1,0,0:0:0:0:
264,360,6324,1,0,0:0:0:0:
304,362,6411,1,0,0:0:0:0:
342,349,6498,1,0,0:0:0:0:
372,322,6585,1,0,0:0:0:0:
389,286,6672,1,0,0:0:0:0:
308,168,6847,2,0,L|292:268,1,90
168,92,7196,6,0,L|184:192,1,90
256,252,7545,1,0,0:0:0:0:
76,304,7720,1,0,0:0:0:0:
89,265,7807,1,0,0:0:0:0:
87,225,7894,1,0,0:0:0:0:
70,189,7981,1,0,0:0:0:0:
41,161,8068,1,0,0:0:0:0:
120,48,8243,2,0,L|224:56,1,90
244,64,8504,6,0,L|188:84,1,45
104,128,8766,1,0,0:0:0:0:
296,148,8940,1,0,0:0:0:0:
284,288,9115,1,0,0:0:0:0:
324,288,9202,1,0,0:0:0:0:
362,275,9289,1,0,0:0:0:0:
393,249,9376,1,0,0:0:0:0:
413,214,9463,1,0,0:0:0:0:
432,76,9638,2,0,P|388:76|344:100,1,90
347,96,9900,5,0,0:0:0:0:
347,96,9987,1,0,0:0:0:0:
272,56,10161,1,0,0:0:0:0:
412,160,10336,1,0,0:0:0:0:
160,120,10510,1,0,0:0:0:0:
125,140,10597,1,0,0:0:0:0:
99,170,10684,1,0,0:0:0:0:
84,208,10771,1,0,0:0:0:0:
83,248,10858,1,0,0:0:0:0:
96,287,10946,1,0,0:0:0:0:
120,319,11033,1,0,0:0:0:0:
176,192,11208,5,0,0:0:0:0:
44,204,11382,1,0,0:0:0:0:
100,80,11557,1,0,0:0:0:0:
248,244,11731,2,0,P|204:276|144:276,1,90
140,288,11993,2,0,L|148:336,1,45
64,240,12167,2,0,L|72:188,1,45
128,64,12429,1,0,0:0:0:0:
12,128,12603,1,0,0:0:0:0:
208,148,12778,6,0,L|312:140,1,90
500,224,13126,2,0,L|396:232,1,90
380,236,13388,2,0,L|416:196,1,45
280,248,13563,2,0,L|300:296,1,45
332,360,13824,1,0,0:0:0:0:
164,244,13999,1,0,0:0:0:0:
328,168,14173,2,0,B|368:152|368:152|432:160,1,90
216,68,14522,6,0,B|176:84|176:84|112:76,1,90
92,76,14783,2,0,L|40:80,1,45
16,156,14958,2,0,L|68:160,1,45
200,192,15220,1,0,0:0:0:0:
312,64,15394,1,0,0:0:0:0:
312,64,15481,1,0,0:0:0:0:
312,64,15568,5,0,0:0:0:0:
324,232,15743,1,0,0:0:0:0:
392,72,15917,2,0,P|436:100|488:100,1,90
496,112,16179,2,0,L|504:160,1,45
416,148,16353,2,0,L|404:200,1,45
280,48,16615,2,0,P|233:72|207:117,1,90
124,48,16964,5,0,0:0:0:0:
184,216,17138,1,0,0:0:0:0:
52,120,17313,1,0,0:0:0:0:
264,164,17487,2,0,L|316:156,4,45
332,76,18010,1,0,0:0:0:0:
280,256,18185,1,0,0:0:0:0:
176,100,18359,6,0,B|168:52|168:52|180:12,1,90
356,240,18708,2,0,B|364:288|364:288|352:328,1,90
320,340,18970,2,0,L|328:384,3,45
204,272,19406,2,0,L|188:168,1,90
88,88,19754,5,0,0:0:0:0:
212,24,19929,1,0,0:0:0:0:
300,124,20103,2,0,L|400:132,1,90
396,168,20365,1,0,0:0:0:0:
401,208,20452,1,0,0:0:0:0:
407,248,20539,1,0,0:0:0:0:
412,288,20626,1,0,0:0:0:0:
308,180,20801,1,0,0:0:0:0:
472,136,20975,1,0,0:0:0:0:
328,64,21150,6,0,P|284:60|236:88,1,90
88,296,21499,2,0,P|132:300|180:272,1,90
192,248,21760,1,0,0:0:0:0:
224,223,21847,1,0,0:0:0:0:
263,215,21934,1,0,0:0:0:0:
302,224,22021,1,0,0:0:0:0:
334,248,22108,1,0,0:0:0:0:
348,284,22196,2,0,B|392:272|392:272|436:284,1,90
488,184,22545,1,0,0:0:0:0:
152,120,24638,6,0,P|216:172|312:156,1,180
388,80,26033,1,0,0:0:0:0:
420,180,26731,1,0,0:0:0:0:
436,276,27080,6,0,B|448:320|448:320|436:364,1,90
240,276,27778,1,0,0:0:0:0:
164,136,28126,2,0,P|252:96|344:120,1,180
144,224,29522,2,0,P|112:248|96:160,1,180
388,184,30917,2,0,P|420:160|436:248,1,180
232,112,32313,2,0,B|168:108|168:108|124:124|124:124|48:120,2,180
316,60,34406,5,0,0:0:0:0:
368,120,35103,1,0,0:0:0:0:
364,208,35801,2,0,L|372:304,1,90
244,300,36499,2,0,P|168:344|76:320,1,180
56,160,37894,2,0,P|132:116|224:140,1,180
304,40,39289,5,0,0:0:0:0:
240,196,39987,1,0,0:0:0:0:
184,64,40685,2,0,L|88:68,1,90
8,216,41382,2,0,L|104:212,1,90
160,284,42080,1,0,0:0:0:0:
260,248,42778,2,0,P|348:256|416:328,2,180
112,332,44871,6,0,P|80:244|116:156,1,180
144,92,45917,2,0,P|168:112|188:172,1,90
312,112,46964,1,0,0:0:0:0:
408,176,47313,6,0,B|416:224|416:224|404:264,1,90
336,304,48010,1,0,0:0:0:0:
452,340,48359,1,0,0:0:0:0:
300,352,48708,2,0,L|208:360,1,90
120,344,49406,2,0,P|124:312|32:336,1,180
56,164,50452,6,0,L|44:72,2,90
208,84,51499,2,0,P|240:80|304:100,1,90
440,192,52196,2,0,P|408:196|344:176,1,90
224,296,53243,5,0,0:0:0:0:
204,288,53940,1,0,0:0:0:0:
100,140,54638,5,0,0:0:0:0:
120,132,55335,1,0,0:0:0:0:
288,80,56033,6,0,P|304:128|216:108,1,180
144,164,57080,2,0,P|248:236|364:156,1,270
396,72,58475,1,0,0:0:0:0:
448,180,58824,2,0,L|544:188,2,90
332,272,59871,1,0,0:0:0:0:
212,184,60917,6,0,P|164:204|176:320,1,180
92,332,61964,2,0,L|-4:340,1,90
56,168,62661,2,0,L|244:184,1,180
336,192,63708,6,0,P|348:152|336:100,1,90
208,248,64406,2,0,P|196:288|208:340,1,90
312,360,65103,1,0,0:0:0:0:
264,256,65452,2,0,L|76:244,1,180
24,172,66499,1,0,0:0:0:0:
304,144,67196,5,0,0:0:0:0:
192,108,67371,1,0,0:0:0:0:
288,40,67545,1,0,0:0:0:0:
236,200,67720,1,0,0:0:0:0:
228,239,67807,1,0,0:0:0:0:
235,279,67894,1,0,0:0:0:0:
255,314,67981,1,0,0:0:0:0:
286,339,68068,1,0,0:0:0:0:
376,268,68243,1,0,0:0:0:0:
448,352,68417,5,0,0:0:0:0:
448,352,68504,1,0,0:0:0:0:
448,352,68592,1,0,0:0:0:0:
472,204,68766,1,0,0:0:0:0:
264,240,68940,2,0,L|172:248,1,90
164,220,69202,1,0,0:0:0:0:
154,180,69289,1,0,0:0:0:0:
145,141,69376,1,0,0:0:0:0:
136,101,69463,1,0,0:0:0:0:
224,40,69638,1,0,0:0:0:0:
48,120,69813,5,0,0:0:0:0:
48,120,69900,1,0,0:0:0:0:
48,120,69987,2,0,L|40:220,1,90
248,360,70336,2,0,L|256:260,1,90
276,268,70597,2,0,L|324:260,1,45
248,192,70772,2,0,L|296:172,1,45
448,124,71033,6,0,B|464:80|464:80|452:28,1,90
344,40,71295,1,0,0:0:0:0:
328,36,71382,2,0,L|236:40,1,90
128,48,71731,1,0,0:0:0:0:
88,176,71906,1,0,0:0:0:0:
114,206,71993,1,0,0:0:0:0:
149,226,72080,1,0,0:0:0:0:
189,231,72167,1,0,0:0:0:0:
228,221,72254,1,0,0:0:0:0:
356,176,72429,6,0,L|448:180,1,90
464,184,72690,1,0,0:0:0:0:
480,188,72778,2,0,P|476:240|448:272,1,90
252,252,73126,2,0,P|207:247|168:268,1,90
96,276,73388,2,0,L|48:272,1,45
120,204,73563,2,0,L|84:168,1,45
76,32,73824,2,0,P|128:32|160:56,1,90
168,72,74086,1,0,0:0:0:0:
176,92,74173,6,0,L|272:88,1,90
364,84,74522,1,0,0:0:0:0:
436,168,74696,1,0,0:0:0:0:
431,208,74783,1,0,0:0:0:0:
427,248,74870,1,0,0:0:0:0:
423,288,74957,1,0,0:0:0:0:
418,329,75044,1,0,0:0:0:0:
308,276,75220,1,0,0:0:0:0:
216,352,75394,5,0,0:0:0:0:
216,352,75481,1,0,0:0:0:0:
216,352,75568,1,0,0:0:0:0:
224,232,75743,1,0,0:0:0:0:
120,288,75917,2,0,L|20:292,1,90
28,256,76179,2,0,L|40:208,1,45
104,176,76353,2,0,L|96:124,1,45
120,40,76615,2,0,P|164:60|212:48,1,90
272,36,76876,5,0,0:0:0:0:
280,44,76964,2,0,L|272:140,1,90
344,188,77313,1,0,0:0:0:0:
188,160,77487,1,0,0:0:0:0:
158,187,77574,1,0,0:0:0:0:
138,222,77661,1,0,0:0:0:0:
131,262,77748,1,0,0:0:0:0:
136,302,77835,1,0,0:0:0:0:
153,338,77923,1,0,0:0:0:0:
181,368,78010,1,0,0:0:0:0:
264,276,78185,5,0,0:0:0:0:
32,232,78359,1,0,0:0:0:0:
80,48,78533,1,0,0:0:0:0:
128,116,78708,2,0,L|224:112,1,90
284,80,78970,2,0,L|324:56,1,45
288,152,79144,2,0,L|336:160,1,45
476,188,79406,2,0,B|472:232|472:232|439:270,1,90
144,340,79754,5,0,0:0:0:0:
144,340,79929,1,0,0:0:0:0:
236,232,80103,1,0,0:0:0:0:
72,252,80278,2,0,L|60:200,1,45
132,164,80452,2,0,L|136:112,1,45
168,72,80626,1,0,0:0:0:0:
168,72,80714,1,0,0:0:0:0:
168,72,80801,2,0,L|264:76,1,90
448,96,81150,6,0,P|408:120|384:156,1,90
208,232,81499,2,0,P|248:256|272:292,1,90
304,308,81760,1,0,0:0:0:0:
343,315,81847,1,0,0:0:0:0:
383,313,81934,1,0,0:0:0:0:
422,299,82021,1,0,0:0:0:0:
328,180,82196,1,0,0:0:0:0:
188,320,82371,5,0,0:0:0:0:
188,320,82458,1,0,0:0:0:0:
188,320,82545,1,0,0:0:0:0:
68,284,82720,1,0,0:0:0:0:
168,196,82894,2,0,L|156:100,1,90
140,68,83156,2,0,L|92:64,1,45
240,112,83330,2,0,L|288:104,1,45
416,84,83592,2,0,P|432:128|424:176,1,90
240,112,83940,5,0,0:0:0:0:
240,112,84115,1,0,0:0:0:0:
113,137,84289,2,0,P|108:93|124:52,1,90
156,32,84551,1,0,0:0:0:0:
194,19,84638,1,0,0:0:0:0:
234,17,84725,1,0,0:0:0:0:
274,26,84812,1,0,0:0:0:0:
309,45,84899,1,0,0:0:0:0:
338,72,84987,1,0,0:0:0:0:
448,32,85161,5,0,0:0:0:0:
448,32,85249,1,0,0:0:0:0:
448,32,85336,2,0,L|456:128,1,90
360,296,85685,2,0,L|368:200,1,90
328,208,85946,1,0,0:0:0:0:
287,211,86033,1,0,0:0:0:0:
247,215,86120,1,0,0:0:0:0:
206,218,86207,1,0,0:0:0:0:
72,232,86382,2,0,B|64:276|64:276|80:328,1,90
128,112,86731,6,0,B|93:83|93:83|49:72,1,90
224,72,87080,2,0,L|232:168,1,90
240,212,87342,2,0,L|292:216,1,45
396,256,87516,2,0,L|344:252,1,45
208,304,87778,2,0,P|240:344|280:360,1,90
351,270,88039,1,0,0:0:0:0:
351,270,88126,2,0,P|319:230|279:214,1,90
304,120,88475,5,0,0:0:0:0:
208,256,88650,2,0,L|152:264,1,45
0,220,88824,2,0,L|56:212,1,45
64,108,88999,1,0,0:0:0:0:
52,76,89086,1,0,0:0:0:0:
40,48,89173,2,0,L|132:52,1,90
264,104,89435,1,0,0:0:0:0:
264,104,89522,6,0,P|268:148|244:192,1,90
124,212,89871,1,0,0:0:0:0:
304,232,90045,1,0,0:0:0:0:
344,230,90132,1,0,0:0:0:0:
384,228,90219,1,0,0:0:0:0:
425,226,90306,1,0,0:0:0:0:
465,224,90393,1,0,0:0:0:0:
388,144,90568,1,0,0:0:0:0:
360,328,90743,5,0,0:0:0:0:
360,328,90830,1,0,0:0:0:0:
360,328,90917,2,0,B|316:344|316:344|264:336,1,90
80,272,91266,2,0,B|124:256|124:256|176:264,1,90
200,244,91528,1,0,0:0:0:0:
215,206,91615,1,0,0:0:0:0:
214,166,91702,1,0,0:0:0:0:
197,130,91789,1,0,0:0:0:0:
180,28,91964,5,0,0:0:0:0:
136,184,92138,1,0,0:0:0:0:
136,184,92225,1,0,0:0:0:0:
136,184,92313,1,0,0:0:0:0:
260,100,92487,1,0,0:0:0:0:
324,216,92661,2,0,P|368:220|416:260,1,90
468,280,92923,2,0,L|516:300,1,45
420,312,93097,2,0,L|440:360,1,45
260,268,93359,2,0,P|241:227|252:166,1,90
308,84,93708,6,0,L|400:72,2,90
144,44,94231,1,0,0:0:0:0:
142,84,94318,1,0,0:0:0:0:
140,124,94405,1,0,0:0:0:0:
138,165,94492,1,0,0:0:0:0:
136,205,94579,1,0,0:0:0:0:
140,340,94754,2,0,B|184:328|184:328|220:292,1,90
296,296,95016,5,0,0:0:0:0:
296,296,95103,2,0,B|328:328|328:328|372:340,1,90
464,360,95452,2,0,P|480:312|468:264,1,90
448,244,95714,1,0,0:0:0:0:
428,208,95801,1,0,0:0:0:0:
424,168,95888,1,0,0:0:0:0:
437,130,95975,1,0,0:0:0:0:
328,48,96150,1,0,0:0:0:0:
312,184,96324,5,0,0:0:0:0:
312,184,96411,1,0,0:0:0:0:
312,184,96499,1,0,0:0:0:0:
212,80,96673,1,0,0:0:0:0:
252,252,96847,2,0,P|292:276|340:268,1,90
356,256,97109,2,0,L|380:296,1,45
296,320,97283,2,0,L|300:368,1,45
160,280,97545,2,0,L|168:184,1,90
276,32,97894,6,0,L|268:128,1,90
364,92,98243,1,0,0:0:0:0:
168,100,98417,1,0,0:0:0:0:
128,109,98504,1,0,0:0:0:0:
95,132,98591,1,0,0:0:0:0:
74,166,98678,1,0,0:0:0:0:
66,205,98765,1,0,0:0:0:0:
8,104,98940,1,0,0:0:0:0:
84,288,99115,5,0,0:0:0:0:
84,288,99202,1,0,0:0:0:0:
84,288,99289,1,0,0:0:0:0:
164,192,99464,1,0,0:0:0:0:
244,288,99638,2,0,L|336:292,1,90
364,272,99900,1,0,0:0:0:0:
377,233,99987,1,0,0:0:0:0:
379,193,100074,1,0,0:0:0:0:
368,154,100161,1,0,0:0:0:0:
347,120,100248,1,0,0:0:0:0:
316,94,100336,1,0,0:0:0:0:
456,132,100510,5,0,0:0:0:0:
256,164,100685,1,0,0:0:0:0:
456,224,100859,1,0,0:0:0:0:
208,220,101033,2,0,P|184:180|188:128,1,90
200,112,101295,2,0,L|208:64,1,45
128,72,101470,2,0,L|112:24,1,45
68,196,101731,2,0,P|108:220|156:216,1,90
172,236,101993,5,0,0:0:0:0:
172,236,102080,2,0,P|216:234|254:258,1,90
328,192,102429,1,0,0:0:0:0:
196,308,102603,1,0,0:0:0:0:
193,267,102690,1,0,0:0:0:0:
190,227,102777,1,0,0:0:0:0:
188,186,102864,1,0,0:0:0:0:
185,146,102951,1,0,0:0:0:0:
172,36,103126,2,0,L|264:48,1,90
420,112,103388,5,0,0:0:0:0:
420,112,103475,2,0,L|328:124,1,90
216,136,103824,1,0,0:0:0:0:
336,212,103999,1,0,0:0:0:0:
353,248,104086,1,0,0:0:0:0:
353,288,104173,1,0,0:0:0:0:
337,325,104260,1,0,0:0:0:0:
306,351,104347,1,0,0:0:0:0:
180,368,104522,2,0,L|184:268,1,90
104,240,104783,5,0,0:0:0:0:
104,240,104871,2,0,L|100:140,1,90
96,64,105220,1,0,0:0:0:0:
196,112,105394,1,0,0:0:0:0:
232,94,105481,1,0,0:0:0:0:
272,90,105568,1,0,0:0:0:0:
310,102,105655,1,0,0:0:0:0:
342,127,105742,1,0,0:0:0:0:
420,48,105917,1,0,0:0:0:0:
448,156,106092,5,0,0:0:0:0:
448,156,106179,1,0,0:0:0:0:
448,156,106266,1,0,0:0:0:0:
364,232,106440,1,0,0:0:0:0:
340,52,106615,2,0,B|296:48|296:48|252:68,1,90
232,88,106876,2,0,L|180:64,1,45
172,148,107051,2,0,L|124:152,1,45
64,316,107313,2,0,B|108:320|108:320|152:300,1,90
172,264,107574,5,0,0:0:0:0:
172,264,107661,2,0,L|264:272,1,90
376,328,108010,2,0,P|400:272|396:236,1,90
376,208,108272,2,0,L|424:192,1,45
336,144,108446,2,0,L|376:116,1,45
260,64,108708,2,0,L|160:72,1,90
128,76,108970,1,0,0:0:0:0:
128,76,109057,2,0,P|144:120|132:168,1,90
56,56,109406,1,0,0:0:0:0:
116,244,109580,5,0,0:0:0:0:
156,241,109667,1,0,0:0:0:0:
196,238,109754,1,0,0:0:0:0:
237,235,109841,1,0,0:0:0:0:
277,233,109928,1,0,0:0:0:0:
336,140,110103,1,0,0:0:0:0:
332,328,110278,5,0,0:0:0:0:
348,312,110365,1,0,0:0:0:0:
356,292,110452,1,0,0:0:0:0:
360,268,110539,1,0,0:0:0:0:
356,244,110626,1,0,0:0:0:0:
344,224,110714,1,0,0:0:0:0:
328,208,110801,1,0,0:0:0:0:
308,196,110888,1,0,0:0:0:0:
288,192,110975,1,0,0:0:0:0:
248,196,111063,5,0,0:0:0:0:
216,220,111150,1,0,0:0:0:0:
176,228,111237,1,0,0:0:0:0:
136,220,111324,1,0,0:0:0:0:
104,192,111411,1,0,0:0:0:0:
88,156,111499,1,0,0:0:0:0:
84,116,111586,1,0,0:0:0:0:
96,76,111673,1,0,0:0:0:0:
124,44,111760,1,0,0:0:0:0:
164,32,111847,6,0,B|208:44|208:44|256:32,1,90
436,212,112196,2,0,B|392:200|392:200|344:212,1,90
348,210,112458,1,0,0:0:0:0:
348,210,112545,1,0,0:0:0:0:
392,316,112720,1,0,0:0:0:0:
416,108,112894,1,0,0:0:0:0:
320,284,113068,1,0,0:0:0:0:
496,224,113243,1,0,0:0:0:0:
284,168,113417,1,0,0:0:0:0:
144,312,113592,6,0,P|100:273|76:205,1,90
265,69,113940,2,0,P|253:126|206:181,1,90
3,83,114289,2,0,P|58:64|129:77,1,90
344,184,114638,1,0,0:0:0:0:
184,36,114813,1,0,0:0:0:0:
240,272,114987,1,0,0:0:0:0:
308,96,115161,5,0,0:0:0:0:
348,93,115248,1,0,0:0:0:0:
388,90,115335,1,0,0:0:0:0:
429,88,115422,1,0,0:0:0:0:
469,85,115509,1,0,0:0:0:0:
420,220,115685,2,0,L|416:312,1,90
187,177,116033,2,0,L|183:87,1,90
256,32,116382,5,0,0:0:0:0:
72,120,116557,1,0,0:0:0:0:
304,152,116731,1,0,0:0:0:0:
304,152,116818,1,0,0:0:0:0:
304,152,116906,1,0,0:0:0:0:
92,252,117080,2,0,L|-4:260,1,90
280,320,117429,2,0,L|376:328,1,90
468,228,117778,5,0,0:0:0:0:
308,160,117952,1,0,0:0:0:0:
267,157,118039,1,0,0:0:0:0:
231,140,118126,1,0,0:0:0:0:
202,112,118213,1,0,0:0:0:0:
186,75,118300,1,0,0:0:0:0:
224,264,118475,1,0,0:0:0:0:
292,44,118650,1,0,0:0:0:0:
448,240,118824,6,0,L|456:336,1,90
264,236,119173,2,0,L|271:146,1,90
232,144,119435,1,0,0:0:0:0:
191,140,119522,1,0,0:0:0:0:
151,137,119609,1,0,0:0:0:0:
110,133,119696,1,0,0:0:0:0:
16,224,119871,2,0,L|24:324,1,90
172,64,120220,5,0,0:0:0:0:
284,180,120394,1,0,0:0:0:0:
160,268,120568,2,0,L|168:368,1,90
208,352,120830,1,0,0:0:0:0:
248,344,120917,1,0,0:0:0:0:
288,336,121004,1,0,0:0:0:0:
328,328,121091,1,0,0:0:0:0:
416,180,121266,1,0,0:0:0:0:
444,352,121440,1,0,0:0:0:0:
292,256,121615,5,0,0:0:0:0:
496,216,121789,1,0,0:0:0:0:
428,364,121964,1,0,0:0:0:0:
452,104,122138,1,0,0:0:0:0:
412,276,122313,2,0,L|420:324,1,45
332,268,122487,2,0,L|312:320,1,45
268,224,122661,2,0,L|212:260,1,45
248,152,122836,2,0,L|200:148,1,45
76,40,123010,6,0,B|64:100|64:100|76:152|76:152|64:220,1,180
168,328,123533,1,0,0:0:0:0:
168,328,123620,1,0,0:0:0:0:
168,328,123708,2,0,L|160:224,1,90
56,156,124057,1,0,0:0:0:0:
268,176,124231,1,0,0:0:0:0:
192,24,124406,1,0,0:0:0:0:
161,238,124580,1,0,0:0:0:0:
340,72,124754,6,0,L|436:44,1,90
465,203,125103,2,0,L|376:200,1,90
324,324,125452,2,0,L|420:344,1,90
512,328,125801,1,0,0:0:0:0:
312,364,125975,1,0,0:0:0:0:
392,172,126150,1,0,0:0:0:0:
256,248,126324,5,0,0:0:0:0:
215,244,126411,1,0,0:0:0:0:
175,240,126498,1,0,0:0:0:0:
134,237,126585,1,0,0:0:0:0:
94,233,126672,1,0,0:0:0:0:
0,96,126847,1,0,0:0:0:0:
88,304,127022,1,0,0:0:0:0:
120,56,127196,1,0,0:0:0:0:
208,244,127371,1,0,0:0:0:0:
208,244,127545,6,0,P|268:256|296:280,1,90
496,220,127894,1,0,0:0:0:0:
400,124,128068,1,0,0:0:0:0:
372,258,128243,2,0,P|365:318|343:348,1,90
216,112,128592,2,0,P|254:64|289:51,1,90
372,112,128940,1,0,0:0:0:0:
164,44,129115,5,0,0:0:0:0:
123,47,129202,1,0,0:0:0:0:
83,51,129289,1,0,0:0:0:0:
42,54,129376,1,0,0:0:0:0:
2,58,129463,1,0,0:0:0:0:
52,164,129638,2,0,L|64:256,1,90
216,256,129987,2,0,L|204:348,1,90
296,312,130336,5,0,0:0:0:0:
120,168,130510,1,0,0:0:0:0:
148,139,130597,1,0,0:0:0:0:
185,122,130684,1,0,0:0:0:0:
225,119,130771,1,0,0:0:0:0:
264,129,130858,1,0,0:0:0:0:
384,208,131033,2,0,L|396:112,1,90
200,24,131382,5,0,0:0:0:0:
216,248,131557,1,0,0:0:0:0:
280,20,131731,1,0,0:0:0:0:
152,200,131906,1,0,0:0:0:0:
84,36,132080,1,0,0:0:0:0:
84,36,132167,1,0,0:0:0:0:
84,36,132254,1,0,0:0:0:0:
184,276,132429,2,0,L|280:272,1,90
380,268,132778,5,0,0:0:0:0:
248,140,132952,1,0,0:0:0:0:
220,364,133126,1,0,0:0:0:0:
376,160,133301,1,0,0:0:0:0:
168,240,133475,1,0,0:0:0:0:
168,240,133563,1,0,0:0:0:0:
168,240,133650,1,0,0:0:0:0:
328,384,133824,1,0,0:0:0:0:
292,132,133999,1,0,0:0:0:0:
212,336,134173,6,0,P|168:340|120:308,1,90
212,108,134522,1,0,0:0:0:0:
184,260,134696,1,0,0:0:0:0:
80,80,134871,1,0,0:0:0:0:
80,80,134958,1,0,0:0:0:0:
80,80,135045,1,0,0:0:0:0:
272,168,135220,2,0,L|368:164,1,90
436,84,135568,1,0,0:0:0:0:
464,240,135743,1,0,0:0:0:0:
264,272,135917,6,0,L|168:276,1,90
20,68,136266,1,0,0:0:0:0:
20,68,136353,1,0,0:0:0:0:
20,68,136440,1,0,0:0:0:0:
44,248,136615,1,0,0:0:0:0:
128,80,136789,1,0,0:0:0:0:
272,180,136964,6,0,P|316:192|368:180,1,90
408,280,137313,1,0,0:0:0:0:
244,96,137487,1,0,0:0:0:0:
209,116,137574,1,0,0:0:0:0:
187,150,137661,1,0,0:0:0:0:
181,190,137748,1,0,0:0:0:0:
193,228,137835,1,0,0:0:0:0:
240,328,138010,2,0,L|140:320,1,90
340,140,138359,5,0,0:0:0:0:
316,364,138533,1,0,0:0:0:0:
240,184,138708,2,0,P|280:160|340:172,1,90
140,112,139057,2,0,P|100:88|40:100,1,90
184,0,139406,1,0,0:0:0:0:
76,176,139580,1,0,0:0:0:0:
304,140,139754,6,0,L|296:244,1,90
288,328,140103,1,0,0:0:0:0:
385,132,140278,1,0,0:0:0:0:
344,136,140365,1,0,0:0:0:0:
304,140,140452,1,0,0:0:0:0:
264,145,140539,1,0,0:0:0:0:
223,149,140626,1,0,0:0:0:0:
76,64,140801,2,0,B|56:104|56:104|64:160,1,90
212,344,141150,6,0,B|232:304|232:304|224:248,1,90
336,204,141499,1,0,0:0:0:0:
92,236,141673,2,0,L|40:228,1,45
120,172,141847,2,0,L|84:144,1,45
52,112,142022,2,0,P|88:84|104:36,1,90
320,96,142371,5,0,0:0:0:0:
256,176,142545,2,0,P|262:221|295:259,1,90
164,300,142894,1,0,0:0:0:0:
324,344,143068,1,0,0:0:0:0:
357,321,143155,1,0,0:0:0:0:
378,287,143242,1,0,0:0:0:0:
383,247,143329,1,0,0:0:0:0:
371,209,143416,1,0,0:0:0:0:
452,132,143592,1,0,0:0:0:0:
320,76,143766,1,0,0:0:0:0:
420,204,143940,6,0,P|464:212|516:180,1,90
312,0,144289,2,0,P|270:15|242:70,1,90
312,288,144638,2,0,P|324:245|298:190,1,90
128,128,144900,1,0,0:0:0:0:
128,128,144987,2,0,P|115:170|141:225,1,90
204,272,145336,5,0,0:0:0:0:
40,188,145510,1,0,0:0:0:0:
196,76,145685,1,0,0:0:0:0:
88,240,145859,2,0,L|132:252,1,45
168,340,146033,2,0,L|212:328,1,45
228,300,146208,2,0,L|320:308,1,90
388,360,146557,1,0,0:0:0:0:
432,172,146731,1,0,0:0:0:0:
432,172,146906,1,0,0:0:0:0:
328,64,147080,6,0,L|232:68,1,90
200,76,147342,1,0,0:0:0:0:
163,93,147429,1,0,0:0:0:0:
136,123,147516,1,0,0:0:0:0:
121,160,147603,1,0,0:0:0:0:
100,288,147778,1,0,0:0:0:0:
100,288,147952,1,0,0:0:0:0:
36,116,148126,5,0,0:0:0:0:
204,208,148301,1,0,0:0:0:0:
380,112,148475,2,0,P|400:64|384:16,1,90
428,24,148737,2,0,L|480:28,1,45
312,52,148911,2,0,L|264:56,1,45
144,64,149173,1,0,0:0:0:0:
272,136,149347,1,0,0:0:0:0:
160,232,149522,5,0,0:0:0:0:
212,32,149696,1,0,0:0:0:0:
280,200,149871,2,0,L|372:208,1,90
408,212,150132,1,0,0:0:0:0:
424,248,150219,1,0,0:0:0:0:
424,288,150306,1,0,0:0:0:0:
404,324,150394,1,0,0:0:0:0:
232,248,150568,1,0,0:0:0:0:
300,76,150743,1,0,0:0:0:0:
472,144,150917,6,0,P|484:96|464:52,1,90
232,248,151266,2,0,P|267:282|315:287,1,90
324,316,151528,2,0,L|332:364,1,45
228,284,151702,2,0,L|220:336,1,45
116,240,151964,1,0,0:0:0:0:
320,204,152138,1,0,0:0:0:0:
136,128,152313,5,0,0:0:0:0:
136,128,152487,1,0,0:0:0:0:
372,276,152661,2,0,P|404:236|404:188,1,90
448,192,152923,2,0,L|504:184,1,45
388,104,153097,2,0,L|340:112,1,45
260,56,153359,1,0,0:0:0:0:
248,208,153533,1,0,0:0:0:0:
176,92,153708,5,0,0:0:0:0:
176,92,153882,1,0,0:0:0:0:
244,312,154057,1,0,0:0:0:0:
376,216,154231,1,0,0:0:0:0:
399,248,154318,1,0,0:0:0:0:
411,287,154405,1,0,0:0:0:0:
409,327,154492,1,0,0:0:0:0:
394,364,154579,1,0,0:0:0:0:
208,236,154754,2,0,L|116:244,1,90
52,316,155103,5,0,0:0:0:0:
216,132,155278,1,0,0:0:0:0:
260,364,155452,1,0,0:0:0:0:
112,248,155626,1,0,0:0:0:0:
104,208,155713,1,0,0:0:0:0:
112,168,155800,1,0,0:0:0:0:
136,128,155887,1,0,0:0:0:0:
180,100,155974,5,0,0:0:0:0:
236,92,156063,1,0,0:0:0:0:
292,112,156150,1,0,0:0:0:0:
420,260,156324,1,0,0:0:0:0:
468,72,156499,1,0,0:0:0:0:
140,336,178824,6,0,L|136:256,1,67.5000025749208
200,192,179347,1,0,0:0:0:0:
424,72,181615,6,0,P|372:120|300:112,1,135.000005149842
200,56,182138,2,0,L|212:192,1,135.000005149842
220,272,182661,1,0,0:0:0:0:
220,272,182836,1,0,0:0:0:0:
336,288,183708,5,0,0:0:0:0:
184,196,184406,6,0,P|140:244|156:324,1,135.000005149842
368,364,184929,2,0,P|412:316|396:236,1,135.000005149842
336,148,187196,6,0,L|472:140,1,135.000005149842
424,68,187720,1,0,0:0:0:0:
396,280,188592,1,0,0:0:0:0:
176,336,189289,6,0,L|184:260,1,67.5000025749208
88,156,189638,2,0,L|149:200,1,67.5000025749208
352,140,189987,2,0,L|224:191,1,135.000005149842
236,104,190510,1,0,0:0:0:0:
424,160,191033,1,0,0:0:0:0:
180,268,192778,6,0,P|116:268|64:216,1,135.000005149842
264,244,193301,2,0,P|264:180|316:128,1,135.000005149842
232,92,193824,1,0,0:0:0:0:
432,148,194871,5,0,0:0:0:0:
344,200,195568,6,0,L|204:204,1,135.000005149842
209,203,196092,1,0,0:0:0:0:
412,244,198359,6,0,P|416:172|360:128,1,135.000005149842
320,64,198882,2,0,L|176:68,1,135.000005149842
185,67,199406,1,0,0:0:0:0:
260,180,199754,5,0,0:0:0:0:
128,132,200103,1,0,0:0:0:0:
332,156,200452,2,0,P|296:252|188:216,1,236.250009012223
172,192,201150,6,0,B|180:236|180:236|168:288,1,90
124,112,201499,2,0,B|168:101|168:101|212:109,1,90
308,28,201847,1,0,0:0:0:0:
308,28,201935,1,0,0:0:0:0:
308,28,202022,1,0,0:0:0:0:
212,196,202196,1,0,0:0:0:0:
200,24,202371,1,0,0:0:0:0:
364,92,202545,2,0,P|388:52|388:4,1,90
260,140,202894,6,0,P|312:196|416:188,1,180
409,191,203330,1,0,0:0:0:0:
409,191,203417,1,0,0:0:0:0:
288,284,203592,1,0,0:0:0:0:
496,232,203766,1,0,0:0:0:0:
304,360,203940,2,0,P|260:360|220:328,1,90
200,104,204289,6,0,P|222:189|166:261,1,180
156,272,204725,2,0,L|152:220,1,45
312,32,204987,2,0,L|308:132,1,90
412,72,205336,1,0,0:0:0:0:
212,116,205510,1,0,0:0:0:0:
436,160,205685,5,0,0:0:0:0:
220,36,205859,1,0,0:0:0:0:
216,76,205946,1,0,0:0:0:0:
212,116,206033,1,0,0:0:0:0:
208,156,206121,1,0,0:0:0:0:
204,196,206208,1,0,0:0:0:0:
388,224,206382,2,0,P|360:184|364:120,1,90
152,256,206731,6,0,P|192:273|236:268,1,90
296,356,207080,1,0,0:0:0:0:
204,196,207254,1,0,0:0:0:0:
164,204,207342,1,0,0:0:0:0:
124,212,207429,1,0,0:0:0:0:
84,220,207516,1,0,0:0:0:0:
44,228,207603,1,0,0:0:0:0:
196,100,207778,2,0,L|188:196,1,90
400,132,208126,6,0,L|392:42,1,90
308,152,208475,1,0,0:0:0:0:
456,208,208650,1,0,0:0:0:0:
420,228,208737,1,0,0:0:0:0:
392,256,208824,1,0,0:0:0:0:
372,292,208911,1,0,0:0:0:0:
368,332,208999,1,0,0:0:0:0:
252,256,209173,1,0,0:0:0:0:
484,288,209347,1,0,0:0:0:0:
248,336,209522,6,0,P|204:324|172:276,1,90
240,56,209871,2,0,P|248:144|164:200,1,180
160,200,210307,2,0,L|208:208,1,45
304,220,210568,1,0,0:0:0:0:
164,108,210743,1,0,0:0:0:0:
328,144,210917,5,0,0:0:0:0:
304,220,211092,1,0,0:0:0:0:
280,296,211266,1,0,0:0:0:0:
168,216,211440,2,0,L|220:224,1,45
376,280,211615,2,0,L|324:272,1,45
236,152,211789,2,0,L|288:160,1,45
444,216,211964,2,0,L|392:208,1,45
432,32,212138,2,0,L|380:36,1,45
376,56,212313,6,0,P|304:108|208:88,1,180
252,200,212836,1,0,0:0:0:0:
252,200,212923,1,0,0:0:0:0:
252,200,213010,1,0,0:0:0:0:
280,20,213185,1,0,0:0:0:0:
392,164,213359,2,0,L|400:256,1,90
120,180,213708,2,0,L|212:188,1,90
256,276,214057,5,0,0:0:0:0:
174,108,214231,1,0,0:0:0:0:
112,276,214406,1,0,0:0:0:0:
112,276,214493,1,0,0:0:0:0:
112,276,214580,1,0,0:0:0:0:
380,136,214754,2,0,L|288:128,1,90
196,68,215103,2,0,P|156:148|196:228,1,180
280,276,215626,6,0,L|336:272,1,45
224,200,215801,2,0,L|168:196,1,45
100,192,215975,1,0,0:0:0:0:
212,276,216150,1,0,0:0:0:0:
224,140,216324,1,0,0:0:0:0:
144,296,216499,1,0,0:0:0:0:
164,72,216673,1,0,0:0:0:0:
244,360,216847,6,0,P|296:312|272:212,1,180
274,214,217283,1,0,0:0:0:0:
274,214,217371,1,0,0:0:0:0:
372,344,217545,1,0,0:0:0:0:
216,280,217720,1,0,0:0:0:0:
392,208,217894,6,0,L|488:200,1,90
192,184,218243,2,0,L|96:176,1,90
200,104,218592,1,0,0:0:0:0:
200,104,218679,1,0,0:0:0:0:
200,104,218766,1,0,0:0:0:0:
124,304,218940,1,0,0:0:0:0:
36,128,219115,1,0,0:0:0:0:
244,240,219289,6,0,P|264:188|260:148,1,90
336,88,219638,1,0,0:0:0:0:
184,184,219813,1,0,0:0:0:0:
188,224,219900,1,0,0:0:0:0:
192,264,219987,1,0,0:0:0:0:
196,304,220074,1,0,0:0:0:0:
200,344,220161,1,0,0:0:0:0:
312,248,220336,1,0,0:0:0:0:
128,316,220510,1,0,0:0:0:0:
244,128,220685,6,0,P|207:103|162:103,1,90
248,216,221033,2,0,P|320:172|308:72,1,180
317,84,221470,1,0,0:0:0:0:
317,84,221557,1,0,0:0:0:0:
400,212,221731,1,0,0:0:0:0:
244,128,221906,1,0,0:0:0:0:
440,92,222080,5,0,0:0:0:0:
336,268,222254,1,0,0:0:0:0:
240,80,222429,2,0,L|144:88,1,90
316,256,222778,2,0,L|296:208,1,45
252,252,222952,2,0,L|224:216,1,45
188,256,223126,2,0,P|144:236|96:248,1,90
316,256,223475,6,0,P|352:176|304:80,1,180
388,24,223999,1,0,0:0:0:0:
388,24,224086,1,0,0:0:0:0:
388,24,224173,1,0,0:0:0:0:
256,176,224347,1,0,0:0:0:0:
476,76,224522,1,0,0:0:0:0:
376,240,224696,1,0,0:0:0:0:
340,36,224871,1,0,0:0:0:0:
340,36,225045,1,0,0:0:0:0:
256,260,225220,6,0,P|212:252|180:220,1,90
392,196,225568,1,0,0:0:0:0:
392,196,225656,1,0,0:0:0:0:
392,196,225743,1,0,0:0:0:0:
200,344,225917,1,0,0:0:0:0:
248,188,226092,1,0,0:0:0:0:
112,256,226266,6,0,P|168:328|264:336,1,180
396,384,226789,1,0,0:0:0:0:
392,344,226876,1,0,0:0:0:0:
388,304,226964,1,0,0:0:0:0:
384,264,227051,1,0,0:0:0:0:
380,224,227138,1,0,0:0:0:0:
472,300,227313,1,0,0:0:0:0:
216,240,227487,1,0,0:0:0:0:
436,176,227661,1,0,0:0:0:0:
436,176,227836,1,0,0:0:0:0:
312,360,228010,6,0,L|316:268,1,90
500,240,228359,1,0,0:0:0:0:
500,240,228446,1,0,0:0:0:0:
500,240,228533,1,0,0:0:0:0:
232,304,228708,1,0,0:0:0:0:
400,332,228882,1,0,0:0:0:0:
248,204,229057,2,0,L|152:208,1,90
4,80,229406,6,0,L|100:76,1,90
136,72,229667,1,0,0:0:0:0:
176,60,229754,1,0,0:0:0:0:
216,48,229842,1,0,0:0:0:0:
256,36,229929,1,0,0:0:0:0:
200,212,230103,1,0,0:0:0:0:
200,212,230278,1,0,0:0:0:0:
104,28,230452,5,0,0:0:0:0:
336,112,230626,1,0,0:0:0:0:
120,196,230801,2,0,P|124:244|156:280,1,90
172,304,231063,2,0,L|220:296,1,45
336,336,231237,2,0,L|288:344,1,45
356,256,231499,1,0,0:0:0:0:
172,340,231673,1,0,0:0:0:0:
224,184,231847,5,0,0:0:0:0:
224,184,232022,1,0,0:0:0:0:
388,340,232196,1,0,0:0:0:0:
126,171,232371,1,0,0:0:0:0:
144,136,232459,1,0,0:0:0:0:
172,108,232546,1,0,0:0:0:0:
212,96,232633,1,0,0:0:0:0:
252,104,232720,1,0,0:0:0:0:
160,272,232894,1,0,0:0:0:0:
128,56,233068,1,0,0:0:0:0:
304,216,233243,6,0,L|396:224,2,90
184,328,233766,1,0,0:0:0:0:
192,288,233853,1,0,0:0:0:0:
180,248,233940,1,0,0:0:0:0:
156,216,234028,1,0,0:0:0:0:
136,180,234115,1,0,0:0:0:0:
132,140,234202,1,0,0:0:0:0:
144,100,234289,1,0,0:0:0:0:
84,280,234464,1,0,0:0:0:0:
216,148,234638,6,0,P|288:104|268:16,1,180
392,176,235161,1,0,0:0:0:0:
392,176,235249,1,0,0:0:0:0:
392,176,235336,1,0,0:0:0:0:
196,168,235510,1,0,0:0:0:0:
384,80,235685,1,0,0:0:0:0:
208,72,235859,1,0,0:0:0:0:
432,244,236033,2,0,P|464:208|468:156,1,90
216,272,236382,6,0,P|231:317|274:347,1,90
292,348,236644,2,0,L|308:300,1,45
204,188,236818,2,0,L|212:244,1,45
264,116,237080,1,0,0:0:0:0:
124,264,237254,1,0,0:0:0:0:
320,280,237429,2,0,P|408:288|448:372,1,180
228,300,237952,5,0,0:0:0:0:
232,260,238039,1,0,0:0:0:0:
236,220,238126,1,0,0:0:0:0:
240,180,238214,1,0,0:0:0:0:
244,140,238301,1,0,0:0:0:0:
152,308,238475,1,0,0:0:0:0:
300,172,238650,1,0,0:0:0:0:
364,356,238824,1,0,0:0:0:0:
364,356,238999,1,0,0:0:0:0:
312,96,239173,6,0,P|268:100|228:132,1,90
192,116,239435,1,0,0:0:0:0:
200,156,239522,1,0,0:0:0:0:
208,196,239609,1,0,0:0:0:0:
216,236,239696,1,0,0:0:0:0:
360,152,239871,2,0,P|384:96|376:64,1,90
128,152,240220,1,0,0:0:0:0:
268,272,240394,5,0,0:0:0:0:
312,96,240568,1,0,0:0:0:0:
176,280,240743,1,0,0:0:0:0:
220,284,240830,1,0,0:0:0:0:
260,288,240917,1,0,0:0:0:0:
300,292,241004,1,0,0:0:0:0:
340,296,241092,1,0,0:0:0:0:
184,192,241266,2,0,L|88:204,1,90
220,108,241615,5,0,0:0:0:0:
220,108,241789,1,0,0:0:0:0:
176,328,241964,1,0,0:0:0:0:
260,180,242138,2,0,L|316:176,1,45
240,96,242313,2,0,L|288:76,1,45
164,64,242487,1,0,0:0:0:0:
352,112,242661,1,0,0:0:0:0:
180,160,242836,1,0,0:0:0:0:
316,32,243010,5,0,0:0:0:0:
256,248,243185,1,0,0:0:0:0:
100,80,243359,1,0,0:0:0:0:
288,168,243533,1,0,0:0:0:0:
245,164,243621,1,0,0:0:0:0:
209,183,243708,1,0,0:0:0:0:
181,213,243795,1,0,0:0:0:0:
170,253,243882,1,0,0:0:0:0:
380,344,244057,2,0,L|372:252,1,90
204,264,244406,5,0,0:0:0:0:
200,224,244493,1,0,0:0:0:0:
220,188,244580,1,0,0:0:0:0:
252,164,244667,1,0,0:0:0:0:
292,156,244754,1,0,0:0:0:0:
332,160,244842,1,0,0:0:0:0:
372,160,244929,1,0,0:0:0:0:
408,140,245016,1,0,0:0:0:0:
432,92,245103,5,0,0:0:0:0:
424,40,245190,1,0,0:0:0:0:
384,4,245278,1,0,0:0:0:0:
332,8,245365,1,0,0:0:0:0:
288,40,245452,1,0,0:0:0:0:
280,92,245539,1,0,0:0:0:0:
248,136,245626,1,0,0:0:0:0:
196,144,245714,1,0,0:0:0:0:
144,128,245801,6,0,P|124:196|196:276,1,180
56,240,246324,1,0,0:0:0:0:
56,240,246411,1,0,0:0:0:0:
56,240,246499,1,0,0:0:0:0:
208,192,246673,1,0,0:0:0:0:
84,332,246847,1,0,0:0:0:0:
228,144,247022,1,0,0:0:0:0:
216,360,247196,1,0,0:0:0:0:
216,360,247371,1,0,0:0:0:0:
120,240,247545,1,0,0:0:0:0:
332,276,247720,5,0,0:0:0:0:
208,144,247894,1,0,0:0:0:0:
208,144,247981,1,0,0:0:0:0:
208,144,248068,1,0,0:0:0:0:
384,240,248243,2,0,P|420:192|420:152,1,90
180,204,248592,2,0,P|132:272|188:360,1,180
288,144,249115,5,0,0:0:0:0:
248,148,249202,1,0,0:0:0:0:
208,152,249289,1,0,0:0:0:0:
168,156,249376,1,0,0:0:0:0:
128,160,249464,1,0,0:0:0:0:
212,280,249638,2,0,P|252:312|264:348,1,90
232,184,249987,1,0,0:0:0:0:
188,352,250161,1,0,0:0:0:0:
324,256,250336,5,0,0:0:0:0:
132,200,250510,1,0,0:0:0:0:
128,160,250598,1,0,0:0:0:0:
124,120,250685,1,0,0:0:0:0:
120,80,250772,1,0,0:0:0:0:
116,40,250859,1,0,0:0:0:0:
324,124,251033,2,0,L|228:132,1,90
84,200,251382,6,0,B|144:196|144:196|192:220|192:220|260:216,1,180
416,100,251906,1,0,0:0:0:0:
412,140,251993,1,0,0:0:0:0:
408,180,252080,1,0,0:0:0:0:
404,220,252167,1,0,0:0:0:0:
400,260,252255,1,0,0:0:0:0:
308,120,252429,1,0,0:0:0:0:
504,252,252603,1,0,0:0:0:0:
344,72,252778,5,0,0:0:0:0:
308,224,252952,1,0,0:0:0:0:
456,256,253126,1,0,0:0:0:0:
492,104,253300,1,0,0:0:0:0:
372,288,253475,1,0,0:0:0:0:
372,288,253563,1,0,0:0:0:0:
372,288,253650,1,0,0:0:0:0:
424,56,253824,1,0,0:0:0:0:
248,168,253999,1,0,0:0:0:0:
444,336,254173,6,0,P|456:284|440:240,1,90
248,168,254522,2,0,P|237:211|250:254,1,90
184,108,254871,1,0,0:0:0:0:
184,108,254958,1,0,0:0:0:0:
184,108,255045,1,0,0:0:0:0:
320,208,255220,1,0,0:0:0:0:
128,216,255394,1,0,0:0:0:0:
296,128,255568,5,0,0:0:0:0:
256,312,255743,1,0,0:0:0:0:
76,268,255917,1,0,0:0:0:0:
116,84,256092,1,0,0:0:0:0:
140,332,256266,1,0,0:0:0:0:
180,320,256353,1,0,0:0:0:0:
220,308,256440,1,0,0:0:0:0:
260,296,256528,1,0,0:0:0:0:
300,284,256615,2,0,L|396:292,1,90
280,132,256964,6,0,L|100:144,1,180
