osu file format v14

[General]
AudioFilename: audio.mp3
AudioLeadIn: 0
PreviewTime: -1
Countdown: 0
SampleSet: Soft
StackLeniency: 0.7
Mode: 0
LetterboxInBreaks: 0
WidescreenStoryboard: 0

[Editor]
Bookmarks: 44103,49621,55138,63414,65828,88241,110310,132379,151690,154448,176517,198586,220655
DistanceSpacing: 0.5
BeatDivisor: 4
GridSize: 4
TimelineZoom: 1

[Metadata]
Title:Snake Eyes
TitleUnicode:Snake Eyes
Artist:Feint (feat CoMa)
ArtistUnicode:Feint (feat CoMa)
Creator:Herbayse
Version:Extra
Source:
Tags:
BeatmapID:971338
BeatmapSetID:452867

[Difficulty]
HPDrainRate:6.3
CircleSize:4
OverallDifficulty:8.6
ApproachRate:9.3
SliderMultiplier:1.9
SliderTickRate:1

[Events]
//Background and Video events
0,0,"bg (2).jpg",0,0
//Break Periods
2,44303,49067
2,49821,52515
2,110510,126308
//Storyboard Layer 0 (Background)
//Storyboard Layer 1 (Fail)
//Storyboard Layer 2 (Pass)
//Storyboard Layer 3 (Foreground)
//Storyboard Sound Samples

[TimingPoints]
22035,344.827586206897,4,1,0,80,1,0
22035,-133.333333333333,4,3,0,40,0,0
44103,-133.333333333333,4,3,0,50,0,0
53069,-133.333333333333,4,3,0,10,0,0
55138,-100,4,2,0,80,0,0
66172,-100,4,2,0,80,0,1
86862,-100,4,2,0,80,0,0
88241,-100,4,2,0,80,0,1
102035,-66.6666666666667,4,2,0,80,0,1
104793,-100,4,2,0,80,0,1
108931,-100,4,2,0,80,0,0
110310,-200,4,2,0,20,0,0
132379,-133.333333333333,4,2,0,50,0,0
143414,-117.647058823529,4,2,0,60,0,0
154448,-90.9090909090909,4,2,0,80,0,1
175138,-90.9090909090909,4,2,0,80,0,0
176517,-90.9090909090909,4,2,0,80,0,1
190310,-50,4,2,0,80,0,1
192724,-90.9090909090909,4,2,0,80,0,1
197207,-90.9090909090909,4,2,0,60,0,0
198586,-100,4,2,0,50,0,0

[HitObjects]
104,244,22035,6,0,B|136:256|136:256|196:248,1,71.2500027179719
256,200,22379,2,0,B|288:188|288:188|324:192,1,71.2500027179719
408,252,22724,1,0,0:0:0:0:
440,104,23069,6,0,P|400:112|364:100,1,71.2500027179719
280,96,23414,2,0,B|264:120|264:120|260:176,1,71.2500027179719
352,192,23759,2,0,B|368:216|368:216|372:272,1,71.2500027179719
276,304,24103,1,0,0:0:0:0:
276,304,24448,6,0,B|240:316|240:316|204:304,1,71.2500027179719
132,248,24793,2,0,B|144:200|144:200|136:168,1,71.2500027179719
256,188,25138,2,0,B|244:140|244:140|252:108,1,71.2500027179719
396,84,25483,2,0,L|408:232,1,142.500005435944
324,296,26000,5,0,0:0:0:0:
240,236,26172,2,0,B|216:220|216:220|152:216,1,71.2500027179719
160,116,26517,2,0,B|136:132|136:132|76:136,1,71.2500027179719
48,244,26862,1,0,0:0:0:0:
144,312,27034,2,0,B|212:328|212:328|284:312,1,142.500005435944
384,256,27552,6,0,P|392:220|384:180,1,71.2500027179719
272,152,27897,2,0,P|264:116|272:76,1,71.2500027179719
380,56,28241,1,0,0:0:0:0:
252,272,28586,6,0,L|324:280,1,71.2500027179719
180,208,28931,2,0,L|108:216,1,71.2500027179719
168,296,29276,2,0,B|176:336|176:336|168:376,1,71.2500027179719
264,188,29621,1,0,0:0:0:0:
264,188,29966,5,0,0:0:0:0:
372,112,30310,6,0,B|400:148|400:148|408:244,1,142.500005435944
328,300,30828,2,0,L|256:300,1,71.2500027179719
428,336,31172,2,0,L|500:336,1,71.2500027179719
180,204,31690,6,0,B|172:276|172:276|112:312,1,142.500005435944
60,208,32207,1,0,0:0:0:0:
240,304,32379,2,0,L|232:384,1,71.2500027179719
316,240,32724,2,0,L|324:164,1,71.2500027179719
264,80,33069,6,0,B|240:64|240:64|184:64,1,71.2500027179719
128,136,33414,2,0,B|104:152|104:152|44:152,1,71.2500027179719
176,228,33759,1,0,0:0:0:0:
176,228,34103,5,0,0:0:0:0:
284,192,34448,6,0,L|428:192,1,142.500005435944
492,316,34966,1,0,0:0:0:0:
344,284,35138,2,0,L|268:284,1,71.2500027179719
344,112,35483,2,0,L|416:112,1,71.2500027179719
248,180,35828,6,0,B|212:196|212:196|172:196,1,71.2500027179719
104,328,36172,2,0,B|140:312|140:312|184:312,1,71.2500027179719
300,312,36517,1,0,0:0:0:0:
300,312,36862,6,0,B|348:312|348:312|384:332|384:332|440:332,1,142.500005435944
492,240,37379,1,0,0:0:0:0:
368,204,37552,2,0,L|296:204,1,71.2500027179719
368,96,37897,2,0,L|440:96,1,71.2500027179719
256,112,38241,6,0,B|216:136|200:200|200:200|144:176|88:188,1,213.750008153916
64,308,38931,2,0,L|152:324,1,71.2500027179719
272,264,39276,2,0,L|180:280,1,71.2500027179719
384,328,39621,6,0,B|384:256|384:256|404:224|404:224|384:200|384:200|416:128|380:56,1,285.000010871888
256,96,40483,1,0,0:0:0:0:
256,232,40655,2,0,P|224:256|164:260,1,71.2500027179719
80,184,41000,2,0,P|112:160|172:156,1,71.2500027179719
244,344,41345,6,0,L|388:344,1,142.500005435944
468,260,41862,1,0,0:0:0:0:
388,152,42035,2,0,L|384:240,1,71.2500027179719
388,140,42379,1,0,0:0:0:0:
228,104,42724,6,0,B|196:120|196:120|168:156,1,71.2500027179719
296,220,43069,2,0,B|328:236|328:236|356:272,1,71.2500027179719
180,316,43414,2,0,B|168:280|168:280|184:244,1,71.2500027179719
344,160,43759,1,0,0:0:0:0:
268,300,43931,1,0,0:0:0:0:
252,76,44103,1,0,0:0:0:0:
252,76,49621,5,0,0:0:0:0:
256,192,53069,12,0,54793,0:0:0:0:
120,172,55138,6,0,B|112:220|112:220|128:276,1,95
256,332,55483,1,0,0:0:0:0:
248,176,55655,2,0,B|296:164|296:164|348:176,1,95
472,232,56000,1,0,0:0:0:0:
380,88,56172,1,0,0:0:0:0:
412,328,56345,1,0,0:0:0:0:
276,120,56517,6,0,P|228:108|176:124,1,95
80,224,56862,1,0,0:0:0:0:
204,308,57035,1,0,0:0:0:0:
204,308,57121,1,0,0:0:0:0:
204,308,57207,1,0,0:0:0:0:
84,116,57379,1,0,0:0:0:0:
288,224,57552,2,0,B|300:180|300:180|284:128,1,95
408,140,57897,6,0,B|408:212|408:212|428:260|428:260|428:328,1,190
496,188,58414,2,0,L|496:80,1,95
336,276,58759,2,0,L|336:384,1,95
472,280,59103,5,0,0:0:0:0:
332,188,59276,2,0,B|344:140|344:140|336:92,1,95
224,8,59621,1,0,0:0:0:0:
432,76,59793,1,0,0:0:0:0:
232,136,59966,2,0,P|184:148|140:140,1,95
64,260,60310,1,0,0:0:0:0:
84,268,60397,1,0,0:0:0:0:
100,276,60483,1,0,0:0:0:0:
292,308,60655,6,0,P|312:264|308:216,1,95
224,116,61000,1,0,0:0:0:0:
392,192,61172,1,0,0:0:0:0:
216,248,61345,2,0,L|116:236,1,95
168,104,61690,1,0,0:0:0:0:
196,96,61776,1,0,0:0:0:0:
224,92,61862,1,0,0:0:0:0:
252,96,61948,1,0,0:0:0:0:
280,108,62035,6,0,P|332:124|376:112,1,95
468,56,62379,1,0,0:0:0:0:
432,264,62552,1,0,0:0:0:0:
404,268,62638,1,0,0:0:0:0:
376,272,62724,1,0,0:0:0:0:
348,276,62810,1,0,0:0:0:0:
320,280,62897,1,0,0:0:0:0:
228,176,63069,5,0,0:0:0:0:
176,316,63241,1,0,0:0:0:0:
136,64,63414,1,0,0:0:0:0:
256,192,65828,5,0,0:0:0:0:
392,324,66172,6,0,B|404:276|404:276|392:232,1,95
304,96,66517,1,0,0:0:0:0:
460,136,66690,1,0,0:0:0:0:
272,256,66862,2,0,B|260:208|260:208|272:164,1,95
168,252,67207,6,0,B|180:300|180:300|168:344,1,95
64,184,67552,1,0,0:0:0:0:
60,340,67724,1,0,0:0:0:0:
168,152,67897,2,0,P|216:140|264:152,1,95
368,252,68241,6,0,L|340:344,1,95
171,342,68586,2,0,L|144:252,1,95
380,160,68931,6,0,B|396:116|396:116|384:64,1,95
126,69,69276,2,0,B|116:116|116:116|132:160,1,95
328,248,69621,1,0,0:0:0:0:
184,248,69793,1,0,0:0:0:0:
256,336,69966,1,0,0:0:0:0:
256,104,70138,1,0,0:0:0:0:
420,208,70310,6,0,B|432:260|432:260|420:304,1,95
256,236,70655,1,0,0:0:0:0:
324,352,70828,1,0,0:0:0:0:
344,104,71000,2,0,P|300:88|240:104,1,95
136,164,71345,2,0,P|120:116|140:64,1,95
312,264,71690,5,0,0:0:0:0:
236,144,71862,1,0,0:0:0:0:
224,344,72035,2,0,B|176:356|176:356|124:340,1,95
44,162,72379,2,0,B|92:150|92:150|144:166,1,95
304,256,72724,1,0,0:0:0:0:
248,116,72897,1,0,0:0:0:0:
184,284,73069,1,0,0:0:0:0:
376,124,73241,1,0,0:0:0:0:
436,300,73414,2,0,B|392:320|392:320|360:320|352:296,1,95
272,136,73759,6,0,P|224:124|176:136,1,95
72,236,74103,1,0,0:0:0:0:
208,304,74276,2,0,P|256:316|304:304,1,95
368,176,74621,1,0,0:0:0:0:
424,304,74793,1,0,0:0:0:0:
400,76,74966,1,0,0:0:0:0:
276,220,75138,2,0,B|228:232|228:232|184:220,1,95
152,68,75483,2,0,B|200:56|200:56|244:68,1,95
388,256,75828,5,0,0:0:0:0:
184,284,76000,1,0,0:0:0:0:
184,284,76086,1,0,0:0:0:0:
184,284,76172,1,0,0:0:0:0:
356,88,76345,1,0,0:0:0:0:
300,336,76517,1,0,0:0:0:0:
208,84,76690,1,0,0:0:0:0:
208,84,76776,1,0,0:0:0:0:
208,84,76862,1,0,0:0:0:0:
436,216,77035,5,0,0:0:0:0:
264,256,77207,6,0,P|248:204|260:156,1,95
360,64,77552,1,0,0:0:0:0:
384,240,77724,1,0,0:0:0:0:
228,52,77897,2,0,B|180:68|180:68|152:104,1,95
68,236,78241,5,0,0:0:0:0:
248,200,78414,1,0,0:0:0:0:
172,328,78586,2,0,B|192:356|236:360|236:360|260:336,1,95
352,164,78931,1,0,0:0:0:0:
392,336,79103,1,0,0:0:0:0:
212,164,79276,2,0,P|200:116|212:64,1,95
412,88,79621,5,0,0:0:0:0:
280,276,79793,1,0,0:0:0:0:
288,64,79966,1,0,0:0:0:0:
416,288,80138,1,0,0:0:0:0:
176,140,80310,5,0,0:0:0:0:
184,360,80483,1,0,0:0:0:0:
308,160,80655,1,0,0:0:0:0:
64,208,80828,1,0,0:0:0:0:
316,296,81000,5,0,0:0:0:0:
184,80,81172,1,0,0:0:0:0:
144,352,81345,1,0,0:0:0:0:
272,192,81517,2,0,B|320:176|320:176|368:188,1,95
464,264,81862,1,0,0:0:0:0:
364,344,82035,2,0,B|316:360|316:360|268:348,1,95
164,176,82379,5,0,0:0:0:0:
120,344,82552,1,0,0:0:0:0:
56,100,82724,1,0,0:0:0:0:
296,184,82897,1,0,0:0:0:0:
188,64,83069,5,0,0:0:0:0:
192,292,83241,1,0,0:0:0:0:
400,120,83414,1,0,0:0:0:0:
360,324,83586,1,0,0:0:0:0:
292,72,83759,5,0,0:0:0:0:
116,200,83931,1,0,0:0:0:0:
436,232,84103,1,0,0:0:0:0:
240,324,84276,1,0,0:0:0:0:
240,324,84362,1,0,0:0:0:0:
240,324,84448,1,0,0:0:0:0:
360,88,84621,1,0,0:0:0:0:
380,320,84793,6,0,P|432:336|480:324,1,95
492,196,85138,1,0,0:0:0:0:
296,192,85310,2,0,B|264:180|264:180|232:192|232:192|176:164|104:192,1,190
192,304,85828,2,0,B|212:328|212:328|280:328,1,95
368,212,86172,1,0,0:0:0:0:
440,352,86345,1,0,0:0:0:0:
440,352,86431,1,0,0:0:0:0:
440,352,86517,1,0,0:0:0:0:
476,88,86690,1,0,0:0:0:0:
256,272,86862,5,0,0:0:0:0:
84,76,87121,5,0,0:0:0:0:
104,360,87379,5,0,0:0:0:0:
412,112,87724,5,0,0:0:0:0:
412,112,87810,1,0,0:0:0:0:
412,112,87897,1,0,0:0:0:0:
404,344,88069,1,0,0:0:0:0:
204,32,88241,1,0,0:0:0:0:
96,260,88586,5,0,0:0:0:0:
212,216,88759,2,0,B|264:208|264:208|312:216,1,95
372,328,89103,1,0,0:0:0:0:
436,132,89276,2,0,P|400:100|348:92,1,95
256,112,89535,1,0,0:0:0:0:
256,112,89621,2,0,B|268:160|268:160|260:216,1,95
384,300,89966,5,0,0:0:0:0:
188,332,90138,2,0,B|164:280|164:280|168:252|192:244,1,95
168,112,90483,1,0,0:0:0:0:
76,264,90655,1,0,0:0:0:0:
288,120,90828,1,0,0:0:0:0:
452,252,91000,6,0,B|384:252|384:252|344:276|344:276|268:276,1,190
136,172,91517,1,0,0:0:0:0:
260,96,91690,2,0,L|360:96,1,95
176,48,92035,2,0,L|81:48,1,95
80,224,92379,6,0,B|128:196|176:216|176:216|204:260|260:256,1,190
352,180,92897,1,0,0:0:0:0:
432,284,93069,2,0,B|452:336|432:376,1,95
288,376,93328,1,0,0:0:0:0:
288,376,93414,2,0,B|268:324|288:284,1,95
384,144,93759,5,0,0:0:0:0:
244,44,93931,1,0,0:0:0:0:
276,268,94103,1,0,0:0:0:0:
192,164,94276,2,0,B|144:156|144:156|92:164,1,95
112,336,94621,2,0,B|160:344|160:344|212:336,1,95
308,192,94966,1,0,0:0:0:0:
448,324,95138,6,0,P|464:272|456:228,1,95
380,144,95483,2,0,P|364:92|372:48,1,95
188,200,95828,1,0,0:0:0:0:
240,44,96000,1,0,0:0:0:0:
320,240,96172,2,0,P|332:288|320:336,1,95
128,312,96517,5,0,0:0:0:0:
124,284,96603,1,0,0:0:0:0:
120,256,96690,1,0,0:0:0:0:
116,228,96776,1,0,0:0:0:0:
112,200,96862,1,0,0:0:0:0:
204,96,97035,1,0,0:0:0:0:
320,236,97207,2,0,P|368:252|412:240,1,95
456,128,97552,1,0,0:0:0:0:
484,312,97724,1,0,0:0:0:0:
312,64,97897,5,0,0:0:0:0:
200,288,98069,1,0,0:0:0:0:
200,288,98155,1,0,0:0:0:0:
200,288,98241,1,0,0:0:0:0:
140,60,98414,1,0,0:0:0:0:
360,296,98586,1,0,0:0:0:0:
424,56,98759,1,0,0:0:0:0:
424,56,98845,1,0,0:0:0:0:
424,56,98931,1,0,0:0:0:0:
452,348,99103,5,0,0:0:0:0:
304,196,99276,2,0,B|244:196|224:152|224:152|172:156|156:212,1,190
160,336,99793,1,0,0:0:0:0:
84,136,99966,2,0,P|72:88|84:40,1,95
324,92,100310,1,0,0:0:0:0:
168,108,100483,1,0,0:0:0:0:
432,60,100655,2,0,B|432:136|432:136|456:172|456:172|456:248,1,190
352,336,101172,1,0,0:0:0:0:
288,196,101345,5,0,0:0:0:0:
260,196,101431,1,0,0:0:0:0:
232,196,101517,1,0,0:0:0:0:
204,196,101603,1,0,0:0:0:0:
176,196,101690,1,0,0:0:0:0:
316,196,101862,1,0,0:0:0:0:
232,312,102035,6,0,B|160:276|96:320|96:320|40:240|112:172,1,285.000010871888
164,140,102466,5,0,0:0:0:0:
244,108,102552,6,0,B|348:232|348:232|388:164|464:172,1,285.000010871888
460,256,102983,5,0,0:0:0:0:
424,332,103069,6,0,B|336:364|240:332|240:332|264:280|236:232,1,285.000010871888
236,76,103586,5,0,0:0:0:0:
124,288,103759,1,0,0:0:0:0:
432,176,103931,1,0,0:0:0:0:
232,40,104103,1,0,0:0:0:0:
320,320,104276,5,0,0:0:0:0:
104,92,104448,1,0,0:0:0:0:
152,288,104621,1,0,0:0:0:0:
264,188,104793,6,0,B|304:188|328:156|328:156|376:196|444:184,1,190
488,296,105310,1,0,0:0:0:0:
336,352,105483,2,0,P|320:304|332:256,1,95
232,68,105828,2,0,P|248:116|236:164,1,95
108,308,106172,5,0,0:0:0:0:
84,132,106345,1,0,0:0:0:0:
236,280,106517,2,0,B|284:292|284:292|336:284,1,95
404,200,106776,1,0,0:0:0:0:
404,200,106862,2,0,B|416:148|416:148|404:96,1,95
288,32,107207,1,0,0:0:0:0:
216,204,107379,1,0,0:0:0:0:
112,56,107552,6,0,B|80:104|112:152|112:152|100:208|28:204,1,190
84,328,108069,1,0,0:0:0:0:
224,140,108241,1,0,0:0:0:0:
356,344,108414,1,0,0:0:0:0:
356,344,108500,1,0,0:0:0:0:
356,344,108586,1,0,0:0:0:0:
376,48,108759,1,0,0:0:0:0:
48,164,108931,5,0,0:0:0:0:
464,164,109190,1,0,0:0:0:0:
120,312,109448,5,0,0:0:0:0:
392,312,109793,1,0,0:0:0:0:
392,312,109879,1,0,0:0:0:0:
392,312,109966,1,0,0:0:0:0:
256,56,110138,1,0,0:0:0:0:
256,344,110310,1,0,0:0:0:0:
256,192,126862,12,0,130655,0:0:0:0:
160,120,131000,6,0,B|168:220|168:220|184:240|184:240|172:264|172:264|176:296,1,166.25
264,316,131690,6,0,B|308:340|364:324|364:324|340:288,1,142.5
192,176,132379,6,0,B|176:156|176:156|188:112,1,71.2500027179719
332,72,132724,1,0,0:0:0:0:
332,72,133069,5,0,0:0:0:0:
408,184,133241,1,0,0:0:0:0:
348,312,133414,1,0,0:0:0:0:
348,312,133759,6,0,B|312:296|312:296|276:304|276:304|280:304,1,71.2500027179719
172,244,134103,1,0,0:0:0:0:
172,244,134448,5,0,0:0:0:0:
240,120,134621,1,0,0:0:0:0:
216,336,134793,1,0,0:0:0:0:
216,336,135138,2,0,L|232:252,1,71.2500027179719
300,348,135483,2,0,L|320:220,1,106.875004076958
316,242,135828,5,0,0:0:0:0:
456,236,136000,1,0,0:0:0:0:
248,140,136172,1,0,0:0:0:0:
248,140,136517,6,0,L|256:60,1,71.2500027179719
160,172,136862,2,0,L|172:56,1,106.875004076958
160,172,137207,5,0,0:0:0:0:
48,192,137379,1,0,0:0:0:0:
244,248,137552,1,0,0:0:0:0:
244,248,137897,6,0,P|272:220|280:184,1,71.2500027179719
284,80,138241,1,0,0:0:0:0:
284,80,138586,5,0,0:0:0:0:
424,112,138759,1,0,0:0:0:0:
192,128,138931,1,0,0:0:0:0:
192,128,139276,6,0,B|184:212|184:208,1,71.2500027179719
172,304,139621,1,0,0:0:0:0:
172,304,139966,5,0,0:0:0:0:
72,236,140138,1,0,0:0:0:0:
296,272,140310,1,0,0:0:0:0:
296,272,140655,6,0,L|312:196,1,71.2500027179719
376,292,141000,2,0,L|400:180,1,106.875004076958
400,184,141345,5,0,0:0:0:0:
344,68,141517,1,0,0:0:0:0:
344,68,141603,1,0,0:0:0:0:
344,68,141690,1,0,0:0:0:0:
168,168,141862,1,0,0:0:0:0:
288,192,142035,1,0,0:0:0:0:
288,192,142897,5,0,0:0:0:0:
288,192,142983,1,0,0:0:0:0:
288,192,143069,1,0,0:0:0:0:
384,104,143241,1,0,0:0:0:0:
380,288,143414,2,0,B|332:312|332:312|280:296|224:312,1,161.500003080368
120,224,143931,1,0,0:0:0:0:
104,356,144103,1,0,0:0:0:0:
216,200,144276,2,0,P|256:192|296:200,1,80.750001540184
416,136,144793,6,0,L|424:236,1,80.750001540184
324,280,145138,2,0,B|316:228|316:228|300:212|300:212|308:188|308:188|300:120,1,161.500003080368
380,48,145655,1,0,0:0:0:0:
184,68,145828,1,0,0:0:0:0:
228,192,146000,1,0,0:0:0:0:
120,240,146172,6,0,B|120:284|120:284|136:316,1,80.750001540184
256,276,146517,1,0,0:0:0:0:
376,332,146690,2,0,B|416:312|456:328|456:328|472:288|448:244,1,161.500003080368
408,140,147207,1,0,0:0:0:0:
272,220,147552,6,0,P|240:168|248:96,1,121.125002310276
356,216,147897,2,0,P|320:292|244:300,1,161.500003080368
116,196,148414,1,0,0:0:0:0:
208,88,148586,2,0,L|384:104,1,161.500003080368
444,208,149103,1,0,0:0:0:0:
436,40,149276,1,0,0:0:0:0:
384,272,149448,1,0,0:0:0:0:
280,196,149621,6,0,B|264:172|264:172|208:164,1,80.750001540184
84,156,149966,1,0,0:0:0:0:
176,324,150310,6,0,L|308:324,1,121.125002310276
297,324,150655,1,0,0:0:0:0:
376,384,150828,1,0,0:0:0:0:
336,176,151000,1,0,0:0:0:0:
196,220,151172,5,0,0:0:0:0:
196,220,151259,1,0,0:0:0:0:
196,220,151345,1,0,0:0:0:0:
248,64,151517,1,0,0:0:0:0:
420,256,151690,1,0,0:0:0:0:
256,192,151776,12,0,154017,0:0:0:0:
256,192,154103,5,0,0:0:0:0:
432,276,154448,6,0,B|360:276|360:276|312:304|312:304|220:304,1,209.000006378174
128,216,154966,1,0,0:0:0:0:
284,120,155138,2,0,P|232:132|184:120,1,104.500003189087
360,56,155483,2,0,P|412:44|460:56,1,104.500003189087
367,196,155828,6,0,B|247:188|295:272|175:260,1,209.000006378174
284,108,156345,1,0,0:0:0:0:
344,280,156517,2,0,B|356:332|356:332|344:388,1,104.500003189087
196,176,156862,2,0,B|184:124|184:124|196:68,1,104.500003189087
344,336,157207,5,0,0:0:0:0:
336,48,157379,1,0,0:0:0:0:
192,328,157552,1,0,0:0:0:0:
184,48,157724,1,0,0:0:0:0:
340,348,157897,5,0,0:0:0:0:
344,28,158069,1,0,0:0:0:0:
160,352,158241,1,0,0:0:0:0:
164,32,158414,1,0,0:0:0:0:
400,192,158586,6,0,B|352:208|352:208|300:192,1,104.500003189087
180,100,158931,1,0,0:0:0:0:
344,80,159103,1,0,0:0:0:0:
188,232,159276,2,0,P|172:284|188:340,1,104.500003189087
396,340,159621,2,0,P|412:288|396:232,1,104.500003189087
92,160,159966,5,0,0:0:0:0:
420,156,160138,1,0,0:0:0:0:
104,280,160310,1,0,0:0:0:0:
440,268,160483,1,0,0:0:0:0:
64,140,160655,5,0,0:0:0:0:
444,136,160828,1,0,0:0:0:0:
76,284,161000,1,0,0:0:0:0:
456,284,161172,1,0,0:0:0:0:
248,236,161345,6,0,B|236:184|236:184|248:128,1,104.500003189087
360,52,161690,1,0,0:0:0:0:
344,224,161862,1,0,0:0:0:0:
160,72,162035,1,0,0:0:0:0:
152,104,162121,1,0,0:0:0:0:
148,136,162207,1,0,0:0:0:0:
152,168,162293,1,0,0:0:0:0:
160,196,162379,1,0,0:0:0:0:
404,276,162552,1,0,0:0:0:0:
268,340,162724,2,0,P|256:288|272:236,1,104.500003189087
400,104,163069,6,0,B|308:96|308:96|264:140|200:120,1,209.000006378174
72,56,163586,1,0,0:0:0:0:
104,224,163759,2,0,L|124:336,1,104.500003189087
368,108,164103,5,0,0:0:0:0:
232,360,164276,1,0,0:0:0:0:
232,360,164362,1,0,0:0:0:0:
232,360,164448,1,0,0:0:0:0:
160,32,164621,1,0,0:0:0:0:
336,360,164793,1,0,0:0:0:0:
408,44,164966,1,0,0:0:0:0:
408,44,165052,1,0,0:0:0:0:
408,44,165138,1,0,0:0:0:0:
460,252,165310,5,0,0:0:0:0:
312,188,165483,2,0,B|272:172|272:172|256:132|256:132|184:116|140:172,1,209.000006378174
68,312,166000,1,0,0:0:0:0:
252,312,166172,2,0,L|364:316,1,104.500003189087
452,188,166517,1,0,0:0:0:0:
456,352,166690,1,0,0:0:0:0:
352,144,166862,2,0,P|300:120|252:128,1,104.500003189087
144,208,167207,2,0,P|167:254|161:305,1,104.500003189087
432,300,167552,5,0,0:0:0:0:
304,148,167724,1,0,0:0:0:0:
308,352,167897,2,0,B|256:364|256:364|204:348,1,104.500003189087
140,48,168241,5,0,0:0:0:0:
408,312,168414,1,0,0:0:0:0:
84,272,168586,1,0,0:0:0:0:
400,52,168759,1,0,0:0:0:0:
264,364,168931,5,0,0:0:0:0:
108,44,169103,1,0,0:0:0:0:
432,272,169276,1,0,0:0:0:0:
80,272,169448,1,0,0:0:0:0:
248,56,169621,6,0,B|264:84|264:84|244:124|264:160,1,104.500003189087
384,332,169966,1,0,0:0:0:0:
132,200,170138,1,0,0:0:0:0:
208,364,170310,1,0,0:0:0:0:
384,200,170483,1,0,0:0:0:0:
312,364,170655,1,0,0:0:0:0:
256,112,170828,1,0,0:0:0:0:
116,328,171000,5,0,0:0:0:0:
440,44,171172,1,0,0:0:0:0:
380,352,171345,1,0,0:0:0:0:
72,40,171517,1,0,0:0:0:0:
488,240,171690,5,0,0:0:0:0:
104,324,171862,1,0,0:0:0:0:
356,16,172035,1,0,0:0:0:0:
336,376,172207,1,0,0:0:0:0:
176,280,172379,6,0,L|284:284,1,104.500003189087
88,108,172724,2,0,L|196:104,1,104.500003189087
396,96,173069,1,0,0:0:0:0:
400,304,173241,1,0,0:0:0:0:
400,304,173328,1,0,0:0:0:0:
400,304,173414,1,0,0:0:0:0:
256,48,173586,1,0,0:0:0:0:
244,336,173759,1,0,0:0:0:0:
364,156,173931,1,0,0:0:0:0:
228,212,174103,6,0,B|196:192|196:192|160:208|160:208|100:176|24:208,1,209.000006378174
156,332,174621,1,0,0:0:0:0:
208,336,174707,1,0,0:0:0:0:
260,340,174793,1,0,0:0:0:0:
428,172,174966,1,0,0:0:0:0:
180,84,175138,5,0,0:0:0:0:
448,344,175397,5,0,0:0:0:0:
32,236,175655,5,0,0:0:0:0:
424,64,176000,5,0,0:0:0:0:
424,64,176086,1,0,0:0:0:0:
424,64,176172,1,0,0:0:0:0:
252,356,176345,1,0,0:0:0:0:
64,16,176517,1,0,0:0:0:0:
332,136,176862,5,0,0:0:0:0:
284,272,177035,2,0,B|256:288|256:288|252:324|252:324|188:292|116:316,1,209.000006378174
72,92,177552,1,0,0:0:0:0:
16,248,177724,1,0,0:0:0:0:
184,144,177897,2,0,B|236:132|236:132|288:144,1,104.500003189087
448,260,178241,2,0,B|396:272|396:272|344:260,1,104.500003189087
364,96,178586,1,0,0:0:0:0:
260,324,178759,1,0,0:0:0:0:
168,112,178931,5,0,0:0:0:0:
256,336,179103,1,0,0:0:0:0:
356,108,179276,2,0,L|304:228,1,104.500003189087
116,144,179621,5,0,0:0:0:0:
452,192,179793,1,0,0:0:0:0:
180,328,179966,2,0,B|164:296|164:296|160:252|188:224,1,104.500003189087
332,108,180310,2,0,B|348:140|348:140|352:184|324:212,1,104.500003189087
452,288,180655,6,0,B|372:288|372:288|328:320|328:320|248:320,1,209.000006378174
124,184,181172,1,0,0:0:0:0:
368,96,181345,2,0,B|384:148|384:148|372:200,1,104.500003189087
188,40,181690,1,0,0:0:0:0:
420,24,181862,1,0,0:0:0:0:
240,188,182035,6,0,B|200:208|160:180|160:180|100:220|124:300,1,209.000006378174
388,336,182552,2,0,B|400:284|400:284|388:232,1,104.500003189087
320,100,182897,1,0,0:0:0:0:
256,236,183069,2,0,B|244:288|244:288|256:340,1,104.500003189087
418,111,183414,6,0,P|366:91|306:107,1,104.500003189087
160,196,183759,1,0,0:0:0:0:
204,36,183931,1,0,0:0:0:0:
300,200,184103,2,0,B|312:252|312:252|300:308,1,104.500003189087
152,316,184448,5,0,0:0:0:0:
368,312,184621,1,0,0:0:0:0:
152,316,184793,2,0,B|152:244|152:244|168:220|168:220|152:196|152:196|152:96,1,209.000006378174
272,44,185310,1,0,0:0:0:0:
344,208,185483,2,0,L|344:312,1,104.500003189087
444,156,185828,2,0,L|444:52,1,104.500003189087
236,72,186172,5,0,0:0:0:0:
412,320,186345,1,0,0:0:0:0:
412,320,186431,1,0,0:0:0:0:
412,320,186517,1,0,0:0:0:0:
128,224,186690,1,0,0:0:0:0:
364,56,186862,1,0,0:0:0:0:
224,348,187035,1,0,0:0:0:0:
224,348,187121,1,0,0:0:0:0:
224,348,187207,1,0,0:0:0:0:
116,108,187379,5,0,0:0:0:0:
280,192,187552,6,0,P|328:212|384:192,1,104.500003189087
356,72,187897,1,0,0:0:0:0:
476,228,188069,1,0,0:0:0:0:
340,340,188241,1,0,0:0:0:0:
440,80,188414,1,0,0:0:0:0:
220,176,188586,6,0,P|208:124|216:72,1,104.500003189087
304,232,188931,2,0,B|272:236|272:236|236:264|236:264|188:260|188:260|156:288|112:292,1,209.000006378174
72,144,189448,1,0,0:0:0:0:
180,348,189621,1,0,0:0:0:0:
184,116,189793,1,0,0:0:0:0:
336,328,189966,6,0,B|376:292|376:292|388:236,1,104.500003189087
432,152,190310,6,0,P|336:32|340:176,1,380
360,260,190741,5,0,0:0:0:0:
296,332,190828,6,0,B|188:264|68:320|68:320|144:272|120:184,1,380
176,120,191259,5,0,0:0:0:0:
268,104,191345,6,0,B|416:80|488:204|488:204|444:256|376:236,1,380
72,192,191862,1,0,0:0:0:0:
432,36,192035,1,0,0:0:0:0:
176,364,192207,1,0,0:0:0:0:
276,16,192379,1,0,0:0:0:0:
404,368,192552,1,0,0:0:0:0:
200,208,192724,6,0,P|200:168|188:140,1,52.2500015945435
152,68,192897,1,0,0:0:0:0:
200,208,193069,2,0,B|276:232|336:196|336:196|328:244|368:268,1,209.000006378174
424,344,193586,1,0,0:0:0:0:
448,184,193759,2,0,B|456:132|456:132|444:80,1,104.500003189087
264,36,194103,2,0,B|256:88|256:88|268:140,1,104.500003189087
376,264,194448,6,0,B|296:264|296:264|252:292|252:292|168:292,1,209.000006378174
72,160,194965,1,0,0:0:0:0:
144,348,195138,1,0,0:0:0:0:
232,144,195310,1,0,0:0:0:0:
324,348,195483,2,0,L|436:348,1,104.500003189087
444,172,195828,6,0,B|472:120|432:72|432:72|360:80|344:152,1,209.000006378174
296,260,196345,1,0,0:0:0:0:
176,100,196517,2,0,P|232:80|292:96,1,104.500003189087
120,176,196776,1,0,0:0:0:0:
120,176,196862,2,0,P|64:196|4:180,1,104.500003189087
96,288,197207,5,0,0:0:0:0:
144,268,197293,1,0,0:0:0:0:
196,268,197379,1,0,0:0:0:0:
244,292,197466,1,0,0:0:0:0:
288,268,197552,1,0,0:0:0:0:
340,256,197638,1,0,0:0:0:0:
392,256,197724,1,0,0:0:0:0:
436,288,197810,1,0,0:0:0:0:
440,340,197897,1,0,0:0:0:0:
388,364,197983,5,0,0:0:0:0:
344,328,198069,1,0,0:0:0:0:
364,276,198155,1,0,0:0:0:0:
404,236,198241,1,0,0:0:0:0:
424,184,198328,1,0,0:0:0:0:
420,128,198414,1,0,0:0:0:0:
384,84,198500,1,0,0:0:0:0:
332,84,198586,1,0,0:0:0:0:
244,216,198759,5,0,0:0:0:0:
176,128,198931,1,0,0:0:0:0:
164,108,199017,1,0,0:0:0:0:
152,88,199103,1,0,0:0:0:0:
140,68,199190,1,0,0:0:0:0:
128,48,199276,2,0,P|80:36|32:48,1,95
80,272,199621,5,0,0:0:0:0:
248,336,199793,1,0,0:0:0:0:
256,164,199966,1,0,0:0:0:0:
240,344,200138,1,0,0:0:0:0:
268,152,200310,1,0,0:0:0:0:
412,256,200483,5,0,0:0:0:0:
412,256,200655,2,0,B|432:208|432:208|432:160,1,95
348,60,201000,1,0,0:0:0:0:
472,72,201172,1,0,0:0:0:0:
272,192,201345,6,0,B|260:240|260:240|272:292,1,95
388,344,201690,1,0,0:0:0:0:
172,288,201862,1,0,0:0:0:0:
292,384,202035,1,0,0:0:0:0:
388,240,202207,1,0,0:0:0:0:
388,240,202293,1,0,0:0:0:0:
388,240,202380,1,0,0:0:0:0:
288,144,202552,5,0,0:0:0:0:
204,236,202724,2,0,B|152:248|152:248|112:236,1,95
152,76,203069,1,0,0:0:0:0:
288,156,203241,1,0,0:0:0:0:
296,276,203414,5,0,0:0:0:0:
392,116,203587,1,0,0:0:0:0:
304,284,203759,1,0,0:0:0:0:
384,108,203932,1,0,0:0:0:0:
216,172,204103,6,0,B|168:184|168:184|120:168,1,95
32,96,204448,1,0,0:0:0:0:
80,272,204621,1,0,0:0:0:0:
4,200,204793,1,0,0:0:0:0:
196,256,204966,6,0,P|208:304|192:356,1,95
328,284,205310,1,0,0:0:0:0:
312,156,205483,1,0,0:0:0:0:
308,132,205569,1,0,0:0:0:0:
304,108,205655,1,0,0:0:0:0:
300,84,205741,1,0,0:0:0:0:
296,60,205828,1,0,0:0:0:0:
448,96,206000,1,0,0:0:0:0:
416,224,206172,6,0,B|368:240|368:240|320:232,1,95
188,112,206517,2,0,B|168:144|168:144|192:164|192:164|168:192|168:192|192:232|172:280,1,190
308,340,207035,1,0,0:0:0:0:
416,212,207207,1,0,0:0:0:0:
268,208,207379,1,0,0:0:0:0:
440,332,207552,1,0,0:0:0:0:
372,148,207724,1,0,0:0:0:0:
372,148,207810,1,0,0:0:0:0:
372,148,207897,1,0,0:0:0:0:
248,276,208069,6,0,L|228:232,1,47.5
220,116,208241,2,0,L|180:88,2,47.5
116,204,208587,1,0,0:0:0:0:
316,204,208759,1,0,0:0:0:0:
176,296,208932,1,0,0:0:0:0:
376,296,209104,1,0,0:0:0:0:
400,296,209190,1,0,0:0:0:0:
424,296,209276,1,0,0:0:0:0:
460,160,209448,2,0,P|468:140|464:108,2,47.5
328,92,209793,5,0,0:0:0:0:
228,204,209966,2,0,B|216:252|216:252|228:304,1,95
384,340,210310,2,0,B|404:308|404:308|380:288|380:288|404:260|404:260|380:220|400:172,1,190
296,72,210828,1,0,0:0:0:0:
216,200,211000,2,0,P|168:212|120:196,1,95
208,312,211259,1,0,0:0:0:0:
208,312,211345,2,0,P|256:300|304:316,1,95
400,184,211690,1,0,0:0:0:0:
408,344,211862,1,0,0:0:0:0:
476,264,212035,1,0,0:0:0:0:
316,248,212207,1,0,0:0:0:0:
316,248,212379,6,0,P|272:260|216:244,1,95
136,136,212724,1,0,0:0:0:0:
116,268,212897,1,0,0:0:0:0:
256,148,213069,2,0,L|256:48,1,95
256,53,213328,1,0,0:0:0:0:
256,53,213414,1,0,0:0:0:0:
412,152,213586,5,0,0:0:0:0:
312,272,213759,1,0,0:0:0:0:
328,144,213931,1,0,0:0:0:0:
396,280,214103,2,0,P|440:296|488:284,1,95
252,236,214448,2,0,L|252:336,1,95
144,280,214793,1,0,0:0:0:0:
252,332,214966,1,0,0:0:0:0:
148,196,215138,1,0,0:0:0:0:
148,360,215310,1,0,0:0:0:0:
364,264,215483,6,0,B|412:256|412:256|456:268,1,95
432,148,215828,1,0,0:0:0:0:
452,336,216000,1,0,0:0:0:0:
336,172,216172,1,0,0:0:0:0:
312,328,216345,2,0,B|264:344|264:344|208:332,1,95
164,184,216690,5,0,0:0:0:0:
84,352,216862,2,0,B|72:304|72:304|80:252,1,95
168,116,217207,5,0,0:0:0:0:
248,284,217379,2,0,B|260:236|260:236|252:184,1,95
360,112,217724,5,0,0:0:0:0:
464,184,217897,1,0,0:0:0:0:
336,232,218069,1,0,0:0:0:0:
232,140,218241,6,0,B|204:120|204:120|172:136|172:136|112:104|56:140,1,190
136,288,218759,1,0,0:0:0:0:
160,288,218845,1,0,0:0:0:0:
184,288,218931,1,0,0:0:0:0:
268,208,219103,2,0,L|300:248,1,47.5
392,344,219276,2,0,B|392:280|392:280|404:256|404:256|392:236|392:236|392:160,1,190
256,64,219793,6,0,L|256:168,1,95
256,316,220138,1,0,0:0:0:0:
256,292,220224,1,0,0:0:0:0:
256,268,220310,1,0,0:0:0:0:
148,156,220483,1,0,0:0:0:0:
364,156,220655,1,0,0:0:0:0:
