osu file format v14

[General]
AudioFilename: audio.mp3
AudioLeadIn: 0
PreviewTime:64727
Countdown: 0
SampleSet: Soft
StackLeniency: 0.7
Mode: 0
LetterboxInBreaks: 0
WidescreenStoryboard: 1

[Editor]
DistanceSpacing: 1
BeatDivisor: 2
GridSize: 32
TimelineZoom: 1.88

[Metadata]
Title:Solace (Cut Ver.)
TitleUnicode:Solace (Cut Ver.)
Artist:Feint & Laura Brehm
ArtistUnicode:Feint & Laura Brehm
Creator:Kujinn
Version:Normal
Source:
Tags:Reform A_r_M_i_N Armin DnB Drum n and Bass edm monstercat english electronic
BeatmapID:2763464
BeatmapSetID:1330028

[Difficulty]
HPDrainRate:3
CircleSize:3
OverallDifficulty:4
ApproachRate:6
SliderMultiplier:1.14
SliderTickRate:1

[Events]
//Background and Video events
0,0,"Background.png",0,0
//Break Periods
//Storyboard Layer 0 (Background)
//Storyboard Layer 1 (Fail)
//Storyboard Layer 2 (Pass)
//Storyboard Layer 3 (Foreground)
//Storyboard Layer 4 (Overlay)
//Storyboard Sound Samples

[TimingPoints]
1365,344.827586206897,4,2,1,45,1,0
23433,-106.382978723404,4,2,7,45,0,0
45502,-106.382978723404,4,2,7,65,0,0
56537,-106.382978723404,4,2,7,75,0,0
67571,-96.1538461538461,4,2,1,85,0,1
89640,-96.1538461538461,4,2,1,65,0,0
89985,-96.1538461538461,4,2,1,75,0,0

[Colours]
Combo1 : 245,158,41
Combo2 : 79,65,126
Combo3 : 58,46,150
Combo4 : 54,123,226

[HitObjects]
256,192,20675,12,0,23433,0:0:0:0:
0,83,24123,6,0,L|9:152,1,53.5799991824341,2|2,0:0|0:0,0:0:0:0:
71,221,24640,2,0,P|116:233|186:191,1,107.159998364868,2|0,0:0|0:0,0:0:0:0:
210,174,25158,1,2,0:0:0:0:
210,174,25330,2,0,P|257:152|309:163,1,107.159998364868,2|0,0:0|0:0,0:0:0:0:
391,231,26020,6,0,B|374:269|346:287|346:287|395:381,1,160.739997547302,2|2,0:0|0:0,0:0:0:0:
489,178,27227,1,2,0:0:0:0:
489,178,27399,2,0,P|478:113|469:58,1,107.159998364868,2|0,0:0|0:0,0:0:0:0:
438,29,27916,2,0,P|397:57|332:43,1,107.159998364868,2|0,0:0|0:0,0:0:0:0:
248,3,28606,2,0,P|239:55|230:108,1,107.159998364868,2|0,0:0|0:0,0:0:0:0:
53,230,29640,6,0,P|103:211|155:197,1,107.159998364868,2|2,0:0|0:0,0:0:0:0:
205,216,30158,2,0,P|227:246|211:322,1,107.159998364868,2|0,0:0|0:0,0:0:0:0:
264,340,30675,1,2,0:0:0:0:
264,340,30847,2,0,P|315:353|366:372,1,107.159998364868,2|0,0:0|0:0,0:0:0:0:
464,329,31537,6,0,P|475:274|501:162,1,160.739997547302,2|2,0:0|0:0,0:0:0:0:
376,67,32571,2,0,P|337:58|299:48,1,53.5799991824341,2|2,0:0|0:0,0:0:0:0:
272,72,32916,2,0,P|237:107|248:174,1,107.159998364868,2|2,0:0|0:0,0:0:0:0:
303,247,33606,1,2,0:0:0:0:
216,311,33951,1,2,0:0:0:0:
139,235,34296,2,0,P|104:227|66:219,1,53.5799991824341,2|0,0:0|1:2,0:0:0:0:
23,18,35158,6,0,P|75:12|119:40,1,107.159998364868,2|2,0:0|0:0,0:0:0:0:
145,87,35675,2,0,P|189:115|241:109,1,107.159998364868,2|2,0:0|0:0,0:0:0:0:
343,75,36365,1,2,0:0:0:0:
311,178,36709,1,2,0:0:0:0:
368,268,37054,6,0,B|285:243|307:318|203:285,1,160.739997547302,2|2,0:0|0:0,0:0:0:0:
76,369,38089,2,0,P|86:323|92:292,1,53.5799991824341,2|2,0:0|0:0,0:0:0:0:
119,274,38433,2,0,P|112:226|104:154,1,107.159998364868,2|0,0:0|0:0,0:0:0:0:
135,122,38951,2,0,P|166:99|246:117,1,107.159998364868,2|0,0:0|0:0,0:0:0:0:
322,161,39640,2,0,P|328:214|335:267,1,107.159998364868,2|0,0:0|0:0,0:0:0:0:
497,126,40675,6,0,P|508:83|462:29,1,107.159998364868,2|2,0:0|0:0,0:0:0:0:
421,24,41192,2,0,P|385:38|313:61,1,107.159998364868,2|0,0:0|0:0,0:0:0:0:
282,98,41709,1,2,0:0:0:0:
282,98,41882,2,0,P|246:84|174:61,1,107.159998364868,2|0,0:0|0:0,0:0:0:0:
81,102,42571,6,0,B|61:133|36:147|36:147|88:238,1,160.739997547302,2|2,0:0|0:0,0:0:0:0:
301,247,43778,1,2,0:0:0:0:
301,247,43951,2,0,P|288:316|280:365,1,107.159998364868,2|2,0:0|0:0,0:0:0:0:
183,311,44640,1,2,0:0:0:0:
89,362,44985,1,10,0:0:0:0:
27,281,45330,1,10,0:0:0:0:
27,281,45502,6,0,P|18:217|9:150,1,107.159998364868,4|0,1:2|0:0,0:0:0:0:
49,135,46020,1,8,0:0:0:0:
49,135,46192,2,0,P|87:109|159:127,1,107.159998364868,2|8,0:0|0:0,0:0:0:0:
249,159,46882,1,2,0:0:0:0:
249,159,47054,2,0,P|300:168|345:140,1,107.159998364868,8|0,0:0|0:0,0:0:0:0:
366,90,47571,2,0,L|355:27,2,53.5799991824341,10|8|8,0:0|0:0|0:0,0:0:0:0:
450,155,48261,6,0,L|432:277,1,107.159998364868,10|2,0:0|0:0,0:0:0:0:
407,309,48778,1,8,0:0:0:0:
407,309,48951,2,0,P|361:320|298:284,1,107.159998364868,2|10,0:0|0:0,0:0:0:0:
242,215,49640,1,2,0:0:0:0:
242,215,49813,2,0,P|194:191|143:202,1,107.159998364868,8|0,0:0|0:0,0:0:0:0:
96,229,50330,2,0,L|88:294,2,53.5799991824341,10|8|8,0:0|0:0|0:0,0:0:0:0:
17,155,51020,6,0,P|15:114|5:30,1,107.159998364868,8|0,0:0|0:0,0:0:0:0:
52,18,51537,1,8,0:0:0:0:
52,18,51709,2,0,P|90:43|163:25,1,107.159998364868,2|8,0:0|0:0,0:0:0:0:
255,6,52399,1,2,0:0:0:0:
255,6,52571,2,0,P|257:47|267:131,1,107.159998364868,8|0,0:0|0:0,0:0:0:0:
302,151,53089,2,0,P|337:151|375:141,2,53.5799991824341,10|8|8,0:0|0:0|0:0,0:0:0:0:
207,202,53778,6,0,P|168:199|86:210,1,107.159998364868,10|2,0:0|0:0,0:0:0:0:
56,237,54296,1,8,0:0:0:0:
56,237,54468,2,0,P|45:272|82:344,1,107.159998364868,2|10,0:0|0:0,0:0:0:0:
177,369,55158,1,2,0:0:0:0:
177,369,55330,2,0,P|230:361|283:364,1,107.159998364868,8|0,0:0|0:0,0:0:0:0:
334,380,55847,2,0,P|370:382|399:379,2,53.5799991824341,10|8|8,0:0|0:0|0:0,0:0:0:0:
286,283,56537,6,0,P|271:223|294:167,1,107.159998364868,8|0,0:0|1:2,0:0:0:0:
319,141,57054,1,8,0:0:0:0:
319,141,57227,2,0,P|334:81|311:25,1,107.159998364868,2|8,1:2|0:0,0:0:0:0:
221,18,57916,1,2,1:2:0:0:
221,18,58089,2,0,P|174:23|101:18,1,107.159998364868,8|0,0:0|1:2,0:0:0:0:
66,44,58606,2,0,P|33:46|-2:39,2,53.5799991824341,10|8|8,0:0|0:0|0:0,0:0:0:0:
132,128,59296,6,0,P|135:186|130:240,1,107.159998364868,10|2,0:0|1:2,0:0:0:0:
119,289,59813,1,8,0:0:0:0:
119,289,59985,1,2,1:2:0:0:
202,355,60330,1,10,0:0:0:0:
307,323,60675,1,2,1:2:0:0:
307,323,60847,2,0,P|303:264|308:210,1,107.159998364868,8|0,0:0|1:2,0:0:0:0:
327,165,61365,2,0,P|295:168|258:160,1,53.5799991824341,10|8,0:0|0:0,0:0:0:0:
221,154,61709,1,8,0:0:0:0:
149,73,62054,6,0,P|136:42|135:2,2,53.5799991824341,8|8|8,1:2|1:2|1:2,0:0:0:0:
81,156,62744,2,0,P|47:151|12:131,2,53.5799991824341,10|8|8,1:2|1:2|1:2,0:0:0:0:
122,254,63433,2,0,P|100:280|66:299,2,53.5799991824341,10|8|8,1:2|1:2|1:2,0:0:0:0:
229,261,64123,2,0,P|241:291|242:331,2,53.5799991824341,10|8|8,1:2|1:2|1:2,0:0:0:0:
256,192,64813,12,2,66882,0:0:0:0:
154,372,67571,6,0,P|159:318|151:239,1,118.559999276367,4|10,1:2|0:0,0:0:0:0:
88,154,68261,2,0,P|84:117|89:80,1,59.2799996381836,2|2,0:0|1:2,0:0:0:0:
65,39,68606,2,0,P|110:64|193:34,1,118.559999276367,10|0,0:0|0:0,0:0:0:0:
229,27,69123,1,0,1:2:0:0:
229,27,69296,1,8,0:0:0:0:
341,64,69640,2,0,P|384:60|428:64,2,59.2799996381836,2|2|10,0:0|1:2|0:0,0:0:0:0:
250,140,70330,5,2,1:2:0:0:
145,196,70675,2,0,P|144:226|146:257,1,59.2799996381836,10|2,0:0|0:0,0:0:0:0:
198,281,71020,2,0,P|202:318|199:359,1,59.2799996381836,2|2,0:0|1:2,0:0:0:0:
256,361,71365,2,0,P|292:374|376:354,1,118.559999276367,10|0,0:0|0:0,0:0:0:0:
417,323,71882,1,0,1:2:0:0:
417,323,72054,1,8,0:0:0:0:
382,209,72399,2,0,P|375:166|378:125,1,59.2799996381836,2|2,0:0|1:2,0:0:0:0:
418,109,72744,2,0,P|423:65|419:33,1,59.2799996381836,10|2,0:0|1:2,0:0:0:0:
385,2,73089,5,2,1:2:0:0:
290,73,73433,2,0,P|248:64|213:48,1,59.2799996381836,10|2,0:0|0:0,0:0:0:0:
188,18,73778,2,0,P|146:27|111:43,1,59.2799996381836,2|2,0:0|1:2,0:0:0:0:
82,67,74123,2,0,P|75:125|80:184,1,118.559999276367,10|0,0:0|0:0,0:0:0:0:
106,244,74640,1,0,1:2:0:0:
106,244,74813,1,8,0:0:0:0:
72,357,75158,2,0,P|44:362|7:351,2,59.2799996381836,2|2|10,0:0|1:2|0:0,0:0:0:0:
128,333,75675,1,2,1:2:0:0:
128,333,75847,6,0,P|189:326|268:376,1,118.559999276367,2|10,1:2|0:0,0:0:0:0:
355,378,76537,2,0,P|384:375|411:364,1,59.2799996381836,2|0,0:0|1:2,0:0:0:0:
464,336,76882,1,10,0:0:0:0:
445,218,77227,2,0,P|444:178|448:141,1,59.2799996381836,2|0,0:0|1:2,0:0:0:0:
486,115,77571,2,0,P|487:75|483:38,1,59.2799996381836,10|0,0:0|0:0,0:0:0:0:
448,9,77916,1,2,0:0:0:0:
363,91,78261,1,10,0:0:0:0:
270,17,78606,5,4,1:2:0:0:
163,69,78951,2,0,P|155:105|164:148,1,59.2799996381836,10|2,0:0|0:0,0:0:0:0:
181,185,79296,2,0,P|189:221|180:264,1,59.2799996381836,2|2,0:0|1:2,0:0:0:0:
156,293,79640,2,0,P|223:284|298:336,1,118.559999276367,10|0,0:0|0:0,0:0:0:0:
324,338,80158,1,0,1:2:0:0:
324,338,80330,1,8,0:0:0:0:
436,300,80675,2,0,P|440:344|430:379,2,59.2799996381836,2|2|10,0:0|1:2|0:0,0:0:0:0:
362,206,81365,5,2,1:2:0:0:
450,127,81709,2,0,P|454:79|439:40,1,59.2799996381836,10|2,0:0|0:0,0:0:0:0:
397,44,82054,2,0,P|354:51|305:37,1,59.2799996381836,2|2,0:0|1:2,0:0:0:0:
281,33,82399,2,0,P|220:23|143:55,1,118.559999276367,10|0,0:0|0:0,0:0:0:0:
120,74,82916,1,0,1:2:0:0:
120,74,83089,1,8,0:0:0:0:
0,33,83433,2,0,P|11:81|12:121,1,59.2799996381836,2|2,0:0|1:2,0:0:0:0:
26,148,83778,2,0,P|15:196|14:236,1,59.2799996381836,10|2,0:0|1:2,0:0:0:0:
29,263,84123,5,2,1:2:0:0:
125,331,84468,2,0,P|167:336|204:353,1,59.2799996381836,10|2,0:0|0:0,0:0:0:0:
232,374,84813,2,0,P|267:369|299:358,1,59.2799996381836,2|2,0:0|1:2,0:0:0:0:
310,306,85158,2,0,P|302:237|313:163,1,118.559999276367,10|0,0:0|0:0,0:0:0:0:
338,139,85675,1,0,1:2:0:0:
338,139,85847,1,8,0:0:0:0:
303,25,86192,2,0,P|340:25|376:39,1,59.2799996381836,2|2,0:0|1:2,0:0:0:0:
403,72,86537,2,0,P|440:72|476:58,1,59.2799996381836,10|2,0:0|1:2,0:0:0:0:
501,108,86882,6,0,P|510:171|483:251,1,118.559999276367,2|10,1:2|0:0,0:0:0:0:
468,275,87399,1,0,0:0:0:0:
468,275,87571,2,0,P|463:306|474:358,1,59.2799996381836,2|0,0:0|1:2,0:0:0:0:
498,383,87916,1,10,0:0:0:0:
382,355,88261,2,0,P|346:345|304:355,1,59.2799996381836,2|0,0:0|1:2,0:0:0:0:
270,371,88606,2,0,P|240:372|212:363,1,59.2799996381836,10|0,0:0|0:0,0:0:0:0:
179,313,88951,1,2,0:0:0:0:
262,228,89296,1,8,0:0:0:0:
194,138,89640,1,0,1:2:0:0:
230,25,89985,6,0,P|164:16|108:73,1,118.559999276367,14|2,0:0|0:0,0:0:0:0:
81,85,90502,1,2,1:2:0:0:
81,85,90675,1,8,0:0:0:0:
102,201,91020,2,0,P|115:266|101:334,1,118.559999276367,2|8,0:0|0:0,0:0:0:0:
142,365,91537,2,0,P|210:380|270:353,1,118.559999276367,2|2,0:0|1:2,0:0:0:0:
297,323,92054,2,0,P|329:316|379:330,2,59.2799996381836,8|2|2,0:0|0:0|1:2,0:0:0:0:
236,220,92744,6,0,P|223:155|237:87,1,118.559999276367,10|2,0:2|0:0,0:0:0:0:
246,49,93261,1,2,1:2:0:0:
246,49,93433,1,8,0:0:0:0:
361,78,93778,2,0,P|432:95|486:76,1,118.559999276367,2|10,0:0|0:0,0:0:0:0:
500,136,94296,2,0,P|513:201|499:269,1,118.559999276367,2|2,0:0|1:2,0:0:0:0:
473,302,94813,2,0,P|472:345|485:377,2,59.2799996381836,10|2|2,0:0|1:2|1:2,0:0:0:0:
388,218,95502,6,0,P|335:203|265:223,1,118.559999276367,10|2,0:0|0:0,0:0:0:0:
225,249,96020,1,2,1:2:0:0:
225,249,96192,1,8,0:0:0:0:
125,181,96537,2,0,P|109:121|129:49,1,118.559999276367,2|10,0:0|0:0,0:0:0:0:
155,19,97054,2,0,P|229:22|292:45,1,118.559999276367,2|2,0:0|1:2,0:0:0:0:
323,63,97571,2,0,P|362:52|427:43,2,59.2799996381836,10|2|2,0:0|1:2|1:2,0:0:0:0:
258,162,98261,6,0,P|265:229|259:305,1,118.559999276367,10|2,0:0|0:0,0:0:0:0:
252,339,98778,1,2,1:2:0:0:
252,339,98951,1,8,0:0:0:0:
356,282,99296,2,0,P|419:276|465:307,1,118.559999276367,2|10,0:0|0:0,0:0:0:0:
498,353,99813,2,0,P|491:286|497:210,1,118.559999276367,2|2,0:0|1:2,0:0:0:0:
508,177,100330,2,0,P|510:131|500:89,1,59.2799996381836,10|2,0:0|1:2,0:0:0:0:
498,59,100675,5,0,1:2:0:0:
401,128,101020,2,0,P|338:150|270:118,1,118.559999276367,10|2,0:0|0:0,0:0:0:0:
240,115,101537,1,2,1:2:0:0:
240,115,101709,1,8,0:0:0:0:
139,52,102054,2,0,P|155:103|145:182,1,118.559999276367,2|10,0:0|0:0,0:0:0:0:
111,212,102571,2,0,P|100:281|113:342,1,118.559999276367,2|2,0:0|1:2,0:0:0:0:
156,365,103089,2,0,P|199:372|245:356,2,59.2799996381836,10|2|2,0:0|0:0|1:2,0:0:0:0:
219,264,103778,6,0,P|292:256|366:273,1,118.559999276367,10|2,0:0|0:0,0:0:0:0:
393,279,104296,1,2,1:2:0:0:
393,279,104468,1,8,0:0:0:0:
478,196,104813,2,0,P|490:130|469:60,1,118.559999276367,2|10,0:0|0:0,0:0:0:0:
439,36,105330,2,0,P|366:44|292:27,1,118.559999276367,2|2,0:0|1:2,0:0:0:0:
264,21,105847,2,0,P|226:17|184:26,2,59.2799996381836,10|2|2,0:0|1:2|1:2,0:0:0:0:
312,129,106537,6,0,P|328:197|306:266,1,118.559999276367,10|2,0:0|0:0,0:0:0:0:
303,301,107054,1,2,1:2:0:0:
303,301,107227,1,8,0:0:0:0:
204,366,107571,2,0,P|148:351|78:377,1,118.559999276367,2|10,0:0|0:0,0:0:0:0:
36,343,108089,2,0,P|22:264|37:203,1,118.559999276367,2|2,0:0|1:2,0:0:0:0:
70,184,108606,2,0,P|75:137|62:94,1,59.2799996381836,10|2,0:0|1:2,0:0:0:0:
57,68,108951,5,2,1:2:0:0:
165,21,109296,2,0,P|236:50|295:29,1,118.559999276367,2|2,0:0|0:0,0:0:0:0:
333,45,109813,2,0,P|390:38|442:65,1,118.559999276367,2|2,0:0|0:0,0:0:0:0:
477,113,110330,1,2,1:2:0:0:
480,235,110675,1,2,1:2:0:0:
480,235,110847,2,0,P|417:254|359:231,1,118.559999276367,2|2,1:2|1:2,0:0:0:0:
310,253,111365,2,0,P|267:246|229:263,1,59.2799996381836,2|2,1:2|1:2,0:0:0:0:
203,283,111709,1,6,0:0:0:0:
