osu file format v14

[General]
AudioFilename: audio.mp3
AudioLeadIn: 0
PreviewTime:64727
Countdown: 0
SampleSet: Soft
StackLeniency: 0.7
Mode: 0
LetterboxInBreaks: 0
WidescreenStoryboard: 1

[Editor]
DistanceSpacing: 0.4
BeatDivisor: 4
GridSize: 32
TimelineZoom: 1.38

[Metadata]
Title:Solace (Cut Ver.)
TitleUnicode:Solace (Cut Ver.)
Artist:Feint & Laura Brehm
ArtistUnicode:Feint & Laura Brehm
Creator:Kujinn
Version:Insane
Source:
Tags:Reform A_r_M_i_N Armin DnB Drum n and Bass edm monstercat english electronic
BeatmapID:2782024
BeatmapSetID:1330028

[Difficulty]
HPDrainRate:5.3
CircleSize:3.8
OverallDifficulty:8
ApproachRate:9
SliderMultiplier:1.64
SliderTickRate:1

[Events]
//Background and Video events
0,0,"Background.png",0,0
//Break Periods
//Storyboard Layer 0 (Background)
//Storyboard Layer 1 (Fail)
//Storyboard Layer 2 (Pass)
//Storyboard Layer 3 (Foreground)
//Storyboard Layer 4 (Overlay)
//Storyboard Sound Samples

[TimingPoints]
1365,344.827586206897,4,2,1,45,1,0
23433,-156.25,4,2,7,45,0,0
45502,-119.047619047619,4,2,7,65,0,0
56537,-106.382978723404,4,2,7,75,0,0
67571,-87.7192982456139,4,2,1,85,0,1
89640,-119.047619047619,4,2,1,65,0,0
89985,-96.1538461538461,4,2,1,75,0,0

[Colours]
Combo1 : 245,158,41
Combo2 : 79,65,126
Combo3 : 58,46,150
Combo4 : 54,123,226

[HitObjects]
256,192,20675,12,0,23433,0:0:0:0:
118,60,24123,5,2,0:0:0:0:
118,60,24296,2,0,P|123:98|128:133,1,52.48,2|0,0:0|0:0,0:0:0:0:
84,179,24640,2,0,P|134:192|188:159,1,104.96,2|0,0:0|0:0,0:0:0:0:
238,118,25158,1,2,0:0:0:0:
238,118,25330,2,0,P|284:95|333:108,1,104.96,2|0,0:0|0:0,0:0:0:0:
409,153,25847,1,2,0:0:0:0:
409,153,26020,6,0,B|394:186|356:196|356:196|398:289,1,157.44,2|2,0:0|0:0,0:0:0:0:
259,350,27227,1,2,0:0:0:0:
259,350,27399,2,0,P|215:338|139:322,1,104.96,2|0,0:0|0:0,0:0:0:0:
92,367,27916,2,0,P|80:319|118:258,1,104.96,2|0,0:0|0:0,0:0:0:0:
160,214,28433,1,0,0:0:0:0:
160,214,28606,2,0,P|153:163|144:92,1,104.96,2|0,0:0|0:0,0:0:0:0:
322,17,29640,6,0,P|363:24|388:31,1,52.48,2|0,0:0|0:0,0:0:0:0:
437,76,29985,1,2,0:0:0:0:
437,76,30158,2,0,P|417:105|430:188,1,104.96,2|0,0:0|0:0,0:0:0:0:
479,233,30675,1,2,0:0:0:0:
479,233,30847,2,0,P|486:284|461:329,1,104.96,2|0,0:0|0:0,0:0:0:0:
389,362,31365,1,2,0:0:0:0:
389,362,31537,6,0,B|311:328|322:415|239:374,1,157.44,2|2,0:0|0:0,0:0:0:0:
53,292,32571,2,0,L|63:357,1,52.48,2|2,0:0|0:0,0:0:0:0:
44,206,32916,2,0,L|63:92,1,104.96,2|2,0:0|0:0,0:0:0:0:
257,9,33606,2,0,L|274:112,1,104.96,2|2,0:0|0:0,0:0:0:0:
416,216,34296,1,2,0:0:0:0:
416,216,34468,6,0,P|375:205|318:242,1,104.96,0|0,1:2|0:0,0:0:0:0:
223,379,35158,2,0,P|175:366|111:352,1,104.96,2|2,0:0|0:0,0:0:0:0:
47,287,35675,2,0,P|38:246|32:211,1,52.48,2|0,0:0|0:0,0:0:0:0:
145,173,36020,2,0,P|136:214|130:249,1,52.48,2|0,0:0|0:0,0:0:0:0:
3,132,36365,2,0,P|28:126|54:121,1,52.48,2|0,0:0|0:0,0:0:0:0:
156,42,36709,2,0,P|130:36|104:31,1,52.48,2|0,0:0|0:0,0:0:0:0:
218,119,37054,6,0,P|258:131|314:77,1,104.96,2|0,0:0|0:0,0:0:0:0:
371,0,37571,2,0,P|381:49|397:120,1,104.96,2|0,0:0|0:0,0:0:0:0:
462,168,38089,2,0,P|499:178|523:184,1,52.48,2|2,0:0|0:0,0:0:0:0:
383,232,38433,2,0,P|336:243|272:265,1,104.96,2|0,0:0|0:0,0:0:0:0:
233,328,38951,2,0,P|204:294|210:218,1,104.96,2|0,0:0|0:0,0:0:0:0:
248,169,39468,1,0,0:0:0:0:
248,169,39640,2,0,P|198:152|147:140,1,104.96,2|0,0:0|0:0,0:0:0:0:
363,23,40675,6,0,P|391:56|460:53,1,104.96,2|2,0:0|0:0,0:0:0:0:
509,133,41192,2,0,P|497:184|484:252,1,104.96,2|0,0:0|0:0,0:0:0:0:
512,322,41709,1,2,0:0:0:0:
512,322,41882,2,0,P|462:305|411:293,1,104.96,2|0,0:0|0:0,0:0:0:0:
359,232,42399,1,2,0:0:0:0:
359,232,42571,6,0,P|331:265|213:237,1,157.44,2|2,0:0|0:0,0:0:0:0:
62,55,43778,1,2,0:0:0:0:
62,55,43951,2,0,L|70:110,1,52.48,2|0,0:0|0:0,0:0:0:0:
145,159,44296,2,0,L|137:214,1,52.48,2|0,0:0|0:0,0:0:0:0:
59,288,44640,1,2,0:0:0:0:
59,288,44727,1,8,0:0:0:0:
59,288,44813,2,0,P|34:279|8:273,1,52.48,8|10,0:0|0:0,0:0:0:0:
109,380,45158,1,8,0:0:0:0:
191,282,45330,5,10,0:0:0:0:
191,282,45416,1,8,0:0:0:0:
191,282,45502,2,0,B|267:265|249:340|334:314,1,137.759995795899,4|0,1:2|0:0,0:0:0:0:
403,255,46020,1,8,0:0:0:0:
403,255,46192,2,0,P|417:310|426:350,1,68.8799978979493,2|0,0:0|0:0,0:0:0:0:
492,185,46537,2,0,P|500:151|508:118,1,68.8799978979493,8|0,0:0|0:0,0:0:0:0:
327,35,46882,5,2,0:0:0:0:
327,35,47054,1,8,0:0:0:0:
261,119,47227,2,0,P|230:137|187:128,1,68.8799978979493
53,42,47571,1,10,0:0:0:0:
129,176,47744,1,8,0:0:0:0:
171,34,47916,1,8,0:0:0:0:
25,127,48089,5,8,0:0:0:0:
25,127,48175,1,8,0:0:0:0:
25,127,48261,2,0,P|36:171|46:212,1,68.8799978979493,10|0,0:0|0:0,0:0:0:0:
142,195,48606,2,0,P|133:228|125:261,1,68.8799978979493,2|8,0:0|0:0,0:0:0:0:
231,259,48951,2,0,P|239:292|247:325,1,68.8799978979493,2|0,0:0|0:0,0:0:0:0:
350,318,49296,2,0,P|342:351|334:384,1,68.8799978979493,10|0,0:0|0:0,0:0:0:0:
440,292,49640,5,2,0:0:0:0:
440,292,49813,1,8,0:0:0:0:
377,212,49985,2,0,P|416:192|461:198,1,68.8799978979493,2|0,0:0|0:0,0:0:0:0:
340,119,50330,1,10,0:0:0:0:
438,71,50502,1,8,0:0:0:0:
346,20,50675,1,8,0:0:0:0:
346,20,51020,6,0,P|308:52|213:31,1,137.759995795899,8|0,0:0|0:0,0:0:0:0:
146,1,51537,1,8,0:0:0:0:
146,1,51709,2,0,P|154:48|162:98,1,68.8799978979493,2|0,0:0|0:0,0:0:0:0:
230,138,52054,2,0,P|222:185|214:235,1,68.8799978979493,8|0,0:0|0:0,0:0:0:0:
128,262,52399,5,2,0:0:0:0:
128,262,52571,1,8,0:0:0:0:
207,344,52744,2,0,P|247:333|300:322,1,68.8799978979493
353,195,53089,1,10,0:0:0:0:
408,323,53261,1,8,0:0:0:0:
278,252,53433,1,8,0:0:0:0:
444,171,53606,5,8,0:0:0:0:
444,171,53692,1,8,0:0:0:0:
444,171,53778,2,0,P|436:204|428:237,1,68.8799978979493,10|0,0:0|0:0,0:0:0:0:
336,112,54123,2,0,P|344:145|352:178,1,68.8799978979493,2|8,0:0|0:0,0:0:0:0:
262,59,54468,2,0,P|254:92|246:125,1,68.8799978979493,2|0,0:0|0:0,0:0:0:0:
159,1,54813,2,0,P|167:34|175:67,1,68.8799978979493,10|0,0:0|0:0,0:0:0:0:
109,151,55158,5,2,0:0:0:0:
109,151,55330,1,8,0:0:0:0:
172,233,55502,2,0,P|216:244|269:258,1,68.8799978979493
311,178,55847,1,10,0:0:0:0:
374,284,56020,1,8,0:0:0:0:
456,193,56192,2,0,L|463:150,3,34.4399989489746,8|8|8|8,0:0|0:0|0:0|0:0,0:0:0:0:
490,125,56537,6,0,P|451:126|399:29,1,154.159997647705,8|0,0:0|1:2,0:0:0:0:
313,106,57054,1,8,0:0:0:0:
313,106,57227,2,0,P|265:120|214:139,1,77.0799988238526,2|0,1:2|1:2,0:0:0:0:
103,19,57571,2,0,P|151:33|202:52,1,77.0799988238526,8|0,0:0|1:2,0:0:0:0:
142,200,57916,6,0,P|128:152|109:101,1,77.0799988238526,2|8,1:2|0:0,0:0:0:0:
275,233,58261,2,0,P|262:269|252:306,1,77.0799988238526,0|0,1:2|1:2,0:0:0:0:
342,193,58606,1,10,0:0:0:0:
188,256,58778,1,8,0:0:0:0:
327,350,58951,1,8,0:0:0:0:
256,192,59123,5,8,0:0:0:0:
256,192,59209,1,8,0:0:0:0:
256,192,59296,2,0,P|208:206|161:215,1,77.0799988238526,10|0,0:0|1:2,0:0:0:0:
72,279,59640,2,0,P|109:287|146:298,1,77.0799988238526,2|8,1:2|0:0,0:0:0:0:
239,384,59985,2,0,P|249:332|261:286,1,77.0799988238526,2|0,1:2|1:2,0:0:0:0:
359,255,60330,2,0,P|367:292|374:330,1,77.0799988238526,10|0,0:0|1:2,0:0:0:0:
448,242,60675,5,2,1:2:0:0:
324,173,60847,1,8,0:0:0:0:
430,84,61020,2,0,P|421:121|414:159,1,77.0799988238526,2|0,1:2|1:2,0:0:0:0:
371,16,61365,1,10,0:0:0:0:
512,116,61537,1,8,0:0:0:0:
324,173,61709,2,0,P|309:126|328:78,1,77.0799988238526,8|0,0:0|1:2,0:0:0:0:
468,239,62054,6,0,P|418:251|381:265,1,77.0799988238526,8|8,1:2|1:2,0:0:0:0:
255,345,62399,2,0,P|305:357|342:371,1,77.0799988238526,8|8,1:2|1:2,0:0:0:0:
149,187,62744,1,10,1:2:0:0:
119,332,62916,1,8,1:2:0:0:
232,163,63089,1,8,1:2:0:0:
274,320,63261,1,8,1:2:0:0:
85,245,63433,6,0,P|63:202|74:155,1,77.0799988238526,10|8,1:2|1:2,0:0:0:0:
212,68,63778,2,0,P|185:108|139:122,1,77.0799988238526,8|8,1:2|1:2,0:0:0:0:
7,17,64123,1,10,1:2:0:0:
83,178,64296,1,8,1:2:0:0:
150,15,64468,1,8,1:2:0:0:
0,100,64640,1,8,1:2:0:0:
195,228,64813,6,0,L|256:215,3,38.5399994119263,2|0|0|0,1:2|1:2|1:2|1:2,0:0:0:0:
281,124,65158,2,0,L|318:132,3,38.5399994119263,2|0|0|0,1:2|1:2|1:2|1:2,0:0:0:0:
396,226,65502,1,2,1:2:0:0:
396,226,65589,1,0,1:2:0:0:
396,226,65675,2,0,L|410:291,1,38.5399994119263,0|0,1:2|1:2,0:0:0:0:
482,154,65847,1,2,1:2:0:0:
482,154,65934,1,0,1:2:0:0:
482,154,66020,2,0,L|496:89,1,38.5399994119263,0|0,1:2|1:2,0:0:0:0:
410,22,66192,6,0,P|365:10|316:40,1,77.0799988238526,6|0,1:2|1:2,0:0:0:0:
239,92,66537,1,10,0:0:0:0:
123,11,66709,1,8,0:0:0:0:
114,19,66796,2,0,L|128:110,1,77.0799988238526,8|8,0:0|0:0,0:0:0:0:
132,134,67054,1,8,0:0:0:0:
47,261,67227,1,2,1:2:0:0:
65,265,67313,1,0,1:2:0:0:
83,269,67399,1,0,1:2:0:0:
101,273,67485,1,0,1:2:0:0:
118,278,67571,6,0,P|189:262|239:338,1,140.21999828833,4|0,1:2|0:0,0:0:0:0:
252,339,67916,1,10,0:0:0:0:
345,177,68089,1,2,0:0:0:0:
408,355,68261,1,2,0:0:0:0:
273,229,68433,1,2,1:2:0:0:
415,109,68606,6,0,B|436:146|473:159|473:159|419:275,1,186.959997717773,10|0,0:0|0:0,0:0:0:0:
274,124,69123,1,0,1:2:0:0:
274,124,69296,2,0,P|256:77|282:28,1,93.4799988588867,8|0,0:0|0:0,0:0:0:0:
232,240,69640,2,0,P|188:262|133:241,1,93.4799988588867,2|2,0:0|1:2,0:0:0:0:
55,96,69985,1,10,0:0:0:0:
192,166,70158,1,2,0:0:0:0:
66,346,70330,6,0,P|55:274|40:180,1,140.21999828833,2|0,1:2|0:0,0:0:0:0:
27,170,70675,1,10,0:0:0:0:
176,300,70847,1,2,0:0:0:0:
126,129,71020,1,2,0:0:0:0:
30,287,71192,1,2,1:2:0:0:
184,215,71365,6,0,B|259:179|331:241|271:278|356:344|437:292,1,280.43999657666,10|0,0:0|1:2,0:0:0:0:
411,126,72054,2,0,P|380:166|394:230,1,93.4799988588867,8|0,0:0|0:0,0:0:0:0:
512,103,72399,2,0,P|492:56|430:36,1,93.4799988588867,2|2,0:0|1:2,0:0:0:0:
309,111,72744,1,10,0:0:0:0:
471,205,72916,1,2,1:2:0:0:
365,34,73089,6,0,P|302:24|218:9,1,140.21999828833,2|0,1:2|0:0,0:0:0:0:
195,23,73433,1,10,0:0:0:0:
128,191,73606,1,2,0:0:0:0:
51,25,73778,1,2,0:0:0:0:
212,124,73951,1,2,1:2:0:0:
46,260,74123,6,0,P|19:215|79:97,1,186.959997717773,10|0,0:0|0:0,0:0:0:0:
216,252,74640,1,0,1:2:0:0:
216,252,74813,2,0,P|208:309|199:370,1,93.4799988588867,8|0,0:0|0:0,0:0:0:0:
288,141,75158,1,2,0:0:0:0:
127,229,75330,1,2,1:2:0:0:
305,313,75502,1,10,0:0:0:0:
199,157,75675,1,2,1:2:0:0:
77,323,75847,6,0,P|138:308|214:364,1,140.21999828833,2|0,1:2|0:0,0:0:0:0:
225,375,76192,1,10,0:0:0:0:
282,225,76365,1,0,0:0:0:0:
416,337,76537,1,2,0:0:0:0:
369,155,76709,1,0,1:2:0:0:
183,270,76882,2,0,P|198:209|211:155,1,93.4799988588867,10|0,0:0|0:0,0:0:0:0:
12,42,77227,6,0,P|23:87|34:132,1,93.4799988588867,2|0,0:0|1:2,0:0:0:0:
177,41,77571,1,10,0:0:0:0:
90,239,77744,2,0,P|45:253|-10:273,1,93.4799988588867,0|2,0:0|0:0,0:0:0:0:
209,201,78089,1,0,1:2:0:0:
209,201,78175,1,0,1:2:0:0:
209,201,78261,1,10,0:0:0:0:
99,58,78433,1,0,1:2:0:0:
232,242,78606,6,0,P|290:259|389:296,1,140.21999828833,4|0,1:2|0:0,0:0:0:0:
385,305,78951,1,10,0:0:0:0:
308,144,79123,1,2,0:0:0:0:
259,335,79296,1,2,0:0:0:0:
414,192,79468,1,2,1:2:0:0:
509,351,79640,6,0,B|403:314|439:422|312:363,1,186.959997717773,10|0,0:0|0:0,0:0:0:0:
186,248,80158,1,0,1:2:0:0:
186,248,80330,2,0,P|159:291|171:351,1,93.4799988588867,8|0,0:0|0:0,0:0:0:0:
297,254,80675,2,0,P|298:207|272:169,1,93.4799988588867,2|2,0:0|1:2,0:0:0:0:
93,251,81020,1,10,0:0:0:0:
263,344,81192,1,2,0:0:0:0:
253,83,81365,6,0,P|204:105|192:196,1,140.21999828833,2|0,1:2|0:0,0:0:0:0:
197,222,81709,1,10,0:0:0:0:
108,82,81882,1,2,0:0:0:0:
269,168,82054,1,2,0:0:0:0:
125,249,82226,1,2,1:2:0:0:
244,64,82399,6,0,B|285:4|380:28|380:28|398:116|474:119,1,280.43999657666,10|0,0:0|1:2,0:0:0:0:
349,194,83089,2,0,P|331:239|353:296,1,93.4799988588867,8|0,0:0|0:0,0:0:0:0:
503,290,83433,2,0,P|473:251|412:242,1,93.4799988588867,2|2,0:0|1:2,0:0:0:0:
259,304,83778,1,10,0:0:0:0:
432,384,83951,1,2,1:2:0:0:
220,213,84123,6,0,L|256:367,1,140.21999828833,2|0,1:2|0:0,0:0:0:0:
235,379,84468,1,10,0:0:0:0:
302,197,84640,1,2,0:0:0:0:
153,313,84813,1,2,0:0:0:0:
216,121,84985,1,2,1:2:0:0:
420,275,85158,6,0,B|438:229|469:216|469:216|419:97,1,186.959997717773,10|0,0:0|0:0,0:0:0:0:
251,63,85675,1,0,1:2:0:0:
251,63,85847,2,0,P|293:101|359:83,1,93.4799988588867,8|0,0:0|0:0,0:0:0:0:
463,2,86192,1,2,0:0:0:0:
401,189,86365,1,2,1:2:0:0:
322,9,86537,1,10,0:0:0:0:
497,110,86709,1,2,1:2:0:0:
267,206,86882,6,0,P|224:178|143:214,1,140.21999828833,2|0,1:2|0:0,0:0:0:0:
111,238,87227,1,10,0:0:0:0:
175,100,87399,1,0,0:0:0:0:
198,292,87571,1,2,0:0:0:0:
47,162,87744,1,0,1:2:0:0:
21,339,87916,2,0,P|72:361|123:338,1,93.4799988588867,10|0,0:0|0:0,0:0:0:0:
256,193,88261,6,0,L|283:309,1,93.4799988588867,2|0,0:0|1:2,0:0:0:0:
375,183,88606,1,10,0:0:0:0:
182,75,88778,2,0,L|155:191,1,93.4799988588867,0|2,0:0|0:0,0:0:0:0:
86,28,89123,1,0,1:2:0:0:
86,28,89209,1,0,1:2:0:0:
86,28,89296,1,8,0:0:0:0:
267,128,89468,1,0,1:2:0:0:
87,229,89640,1,0,1:2:0:0:
87,229,89985,6,0,P|141:240|203:260,1,85.2799994794922,14|2,0:0|0:0,0:0:0:0:
199,263,90244,1,2,0:0:0:0:
199,263,90330,1,2,0:0:0:0:
336,165,90502,1,2,1:2:0:0:
185,50,90675,2,0,P|194:109|202:167,1,85.2799994794922,8|2,0:0|0:0,0:0:0:0:
200,166,90933,1,2,0:0:0:0:
200,166,91020,5,2,0:0:0:0:
352,53,91192,1,2,1:2:0:0:
299,212,91365,2,0,P|290:271|282:329,1,85.2799994794922,8|2,0:0|0:0,0:0:0:0:
292,328,91623,1,2,0:0:0:0:
292,328,91709,1,2,0:0:0:0:
217,203,91882,1,2,1:2:0:0:
375,278,92054,1,10,0:0:0:0:
225,372,92227,1,2,0:0:0:0:
225,372,92313,1,2,0:0:0:0:
225,372,92399,5,2,1:2:0:0:
225,372,92744,2,0,P|180:357|130:347,1,85.2799994794922,10|2,0:2|0:0,0:0:0:0:
111,342,93002,1,2,0:0:0:0:
111,342,93089,1,2,0:0:0:0:
234,272,93261,1,2,1:2:0:0:
70,212,93433,2,0,P|115:197|165:187,1,85.2799994794922,8|2,0:0|0:0,0:0:0:0:
184,182,93691,1,2,0:0:0:0:
184,182,93778,5,2,0:0:0:0:
330,247,93951,1,2,1:2:0:0:
280,63,94123,2,0,P|272:122|266:172,1,85.2799994794922,10|2,0:0|0:0,0:0:0:0:
266,184,94382,1,2,0:0:0:0:
266,184,94468,1,2,0:0:0:0:
187,67,94640,1,2,1:2:0:0:
350,160,94813,1,10,0:0:0:0:
189,258,94985,1,2,1:2:0:0:
189,258,95071,1,2,0:0:0:0:
189,258,95158,5,2,1:2:0:0:
189,258,95502,2,0,P|183:215|177:173,1,85.2799994794922,10|2,0:0|0:0,0:0:0:0:
170,136,95761,1,2,0:0:0:0:
170,136,95847,1,2,0:0:0:0:
44,208,96020,1,2,1:2:0:0:
110,52,96192,2,0,P|160:33|209:24,1,85.2799994794922,8|2,0:0|0:0,0:0:0:0:
221,36,96451,1,2,0:0:0:0:
221,36,96537,5,2,0:0:0:0:
83,139,96709,1,2,1:2:0:0:
259,223,96882,2,0,P|209:204|160:195,1,85.2799994794922,10|2,0:0|0:0,0:0:0:0:
149,207,97141,1,2,0:0:0:0:
149,207,97227,1,2,0:0:0:0:
256,365,97399,1,2,1:2:0:0:
329,191,97571,1,10,0:0:0:0:
193,299,97744,1,2,1:2:0:0:
193,299,97830,1,2,0:0:0:0:
193,299,97916,5,2,1:2:0:0:
193,299,98261,2,0,P|204:244|210:198,1,85.2799994794922,10|2,0:0|0:0,0:0:0:0:
209,182,98520,1,2,0:0:0:0:
209,182,98606,1,2,0:0:0:0:
335,269,98778,1,2,1:2:0:0:
295,123,98951,2,0,P|284:68|278:22,1,85.2799994794922,8|2,0:0|0:0,0:0:0:0:
286,2,99209,1,2,0:0:0:0:
286,2,99296,5,2,0:0:0:0:
209,182,99468,1,2,1:2:0:0:
372,62,99640,2,0,P|417:74|465:99,1,85.2799994794922,10|2,0:0|0:0,0:0:0:0:
473,115,99899,1,2,0:0:0:0:
473,115,99985,1,2,0:0:0:0:
329,270,100158,1,2,1:2:0:0:
329,270,100244,1,0,1:2:0:0:
329,270,100330,1,10,0:0:0:0:
221,83,100502,1,2,1:2:0:0:
389,114,100675,6,0,P|374:171|368:215,1,85.2799994794922,0|0,1:2|0:0,0:0:0:0:
224,330,101020,2,0,P|216:288|204:247,1,85.2799994794922,10|2,0:0|0:0,0:0:0:0:
185,214,101278,1,2,0:0:0:0:
185,214,101365,1,2,0:0:0:0:
329,294,101537,1,2,1:2:0:0:
263,150,101709,2,0,P|219:134|166:121,1,85.2799994794922,8|2,0:0|0:0,0:0:0:0:
154,131,101968,1,2,0:0:0:0:
154,131,102054,5,2,0:0:0:0:
16,225,102227,1,2,1:2:0:0:
50,33,102399,2,0,P|61:74|69:115,1,85.2799994794922,10|2,0:0|0:0,0:0:0:0:
64,150,102658,1,2,0:0:0:0:
64,150,102744,1,2,0:0:0:0:
149,35,102916,1,2,1:2:0:0:
235,242,103089,1,10,0:0:0:0:
230,93,103261,1,2,0:0:0:0:
230,93,103347,1,2,0:0:0:0:
230,93,103433,5,2,1:2:0:0:
230,93,103778,2,0,P|189:109|132:125,1,85.2799994794922,10|2,0:0|0:0,0:0:0:0:
120,117,104037,1,2,0:0:0:0:
120,117,104123,1,2,0:0:0:0:
250,190,104296,1,2,1:2:0:0:
116,248,104468,2,0,P|156:260|196:275,1,85.2799994794922,8|2,0:0|0:0,0:0:0:0:
223,300,104727,1,2,0:0:0:0:
223,300,104813,5,2,0:0:0:0:
328,205,104985,1,2,1:2:0:0:
401,351,105158,2,0,P|412:302|426:250,1,85.2799994794922,10|2,0:0|0:0,0:0:0:0:
433,237,105416,1,2,0:0:0:0:
433,237,105502,1,2,0:0:0:0:
340,77,105675,1,2,1:2:0:0:
292,245,105847,1,10,0:0:0:0:
429,135,106020,1,2,1:2:0:0:
429,135,106106,1,2,0:0:0:0:
429,135,106192,5,2,1:2:0:0:
429,135,106537,2,0,P|387:146|330:158,1,85.2799994794922,10|2,0:0|0:0,0:0:0:0:
311,149,106796,1,2,0:0:0:0:
311,149,106882,1,2,0:0:0:0:
239,270,107054,1,2,1:2:0:0:
115,135,107227,2,0,P|129:186|141:237,1,85.2799994794922,8|2,0:0|0:0,0:0:0:0:
137,257,107485,1,2,0:0:0:0:
137,257,107571,5,2,0:0:0:0:
226,139,107744,1,2,1:2:0:0:
43,26,107916,2,0,P|29:77|17:128,1,85.2799994794922,10|2,0:0|0:0,0:0:0:0:
26,149,108175,1,2,0:0:0:0:
26,149,108261,1,2,0:0:0:0:
154,64,108433,1,2,1:2:0:0:
88,247,108606,1,10,0:0:0:0:
202,156,108778,1,2,1:2:0:0:
225,312,108951,6,0,P|261:345|319:341,1,85.2799994794922,2|0,1:2|0:0,0:0:0:0:
295,348,109296,1,2,0:0:0:0:
274,237,109468,2,0,P|320:222|346:170,1,85.2799994794922,0|2,1:2|0:0,0:0:0:0:
341,194,109813,1,2,0:0:0:0:
214,160,109985,2,0,P|224:112|192:64,1,85.2799994794922,0|2,1:2|0:0,0:0:0:0:
20,108,110330,5,2,1:2:0:0:
23,124,110416,1,0,1:2:0:0:
25,140,110502,1,0,1:2:0:0:
27,156,110589,1,0,1:2:0:0:
29,172,110675,1,2,1:2:0:0:
31,188,110761,1,0,1:2:0:0:
47,211,110847,5,2,1:2:0:0:
44,227,110933,1,0,1:2:0:0:
42,243,111019,1,0,1:2:0:0:
40,259,111106,1,0,1:2:0:0:
38,275,111192,1,2,1:2:0:0:
36,291,111278,1,0,1:2:0:0:
24,318,111365,6,0,L|79:334,1,42.6399997397461,2|0,1:2|1:2,0:0:0:0:
145,266,111537,2,0,L|215:252,1,42.6399997397461,2|0,1:2|1:2,0:0:0:0:
300,350,111709,5,6,0:0:0:0:
