osu file format v14

[General]
AudioFilename: audio.mp3
AudioLeadIn: 0
PreviewTime:64727
Countdown: 0
SampleSet: Soft
StackLeniency: 0.7
Mode: 0
LetterboxInBreaks: 0
WidescreenStoryboard: 1

[Editor]
DistanceSpacing: 1.1
BeatDivisor: 4
GridSize: 32
TimelineZoom: 1.38

[Metadata]
Title:Solace (Cut Ver.)
TitleUnicode:Solace (Cut Ver.)
Artist:Feint & Laura Brehm
ArtistUnicode:Feint & Laura Brehm
Creator:Kujinn
Version:Hard
Source:
Tags:Reform A_r_M_i_N Armin DnB Drum n and Bass edm monstercat english electronic
BeatmapID:2763200
BeatmapSetID:1330028

[Difficulty]
HPDrainRate:4
CircleSize:3.8
OverallDifficulty:6
ApproachRate:8
SliderMultiplier:1.44
SliderTickRate:1

[Events]
//Background and Video events
0,0,"Background.png",0,0
//Break Periods
//Storyboard Layer 0 (Background)
//Storyboard Layer 1 (Fail)
//Storyboard Layer 2 (Pass)
//Storyboard Layer 3 (Foreground)
//Storyboard Layer 4 (Overlay)
//Storyboard Sound Samples

[TimingPoints]
1365,344.827586206897,4,2,1,45,1,0
23433,-135.135135135135,4,2,7,45,0,0
45502,-119.047619047619,4,2,7,65,0,0
56537,-106.382978723404,4,2,7,75,0,0
67571,-87.7192982456139,4,2,1,85,0,1
89640,-119.047619047619,4,2,1,65,0,0
89985,-96.1538461538461,4,2,1,75,0,0

[Colours]
Combo1 : 245,158,41
Combo2 : 79,65,126
Combo3 : 58,46,150
Combo4 : 54,123,226

[HitObjects]
256,192,20675,12,0,23433,0:0:0:0:
140,313,24123,5,2,0:0:0:0:
140,313,24296,2,0,P|176:320|205:328,1,53.2800013007813,2|0,0:0|0:0,0:0:0:0:
233,384,24640,2,0,P|239:334|251:261,1,106.560002601563,2|0,0:0|0:0,0:0:0:0:
305,226,25158,1,2,0:0:0:0:
305,226,25330,2,0,P|273:206|200:218,1,106.560002601563,2|0,0:0|0:0,0:0:0:0:
125,233,25847,1,2,0:0:0:0:
125,233,26020,6,0,P|133:178|145:64,1,159.840003902344,2|2,0:0|0:0,0:0:0:0:
150,81,27227,1,2,0:0:0:0:
150,81,27399,2,0,P|179:105|262:87,1,106.560002601563,2|0,0:0|0:0,0:0:0:0:
304,52,27916,2,0,P|355:43|408:75,1,106.560002601563,2|0,0:0|0:0,0:0:0:0:
453,125,28433,1,0,0:0:0:0:
453,125,28606,2,0,P|445:180|437:249,1,106.560002601563,2|0,0:0|0:0,0:0:0:0:
263,347,29640,6,0,P|231:341|196:335,1,53.2800013007813,2|0,0:0|0:0,0:0:0:0:
136,359,29985,1,2,0:0:0:0:
136,359,30158,2,0,P|94:369|30:317,1,106.560002601563,2|0,0:0|0:0,0:0:0:0:
16,267,30675,1,2,0:0:0:0:
16,267,30847,2,0,P|28:225|105:196,1,106.560002601563,2|0,0:0|0:0,0:0:0:0:
164,208,31365,1,2,0:0:0:0:
164,208,31537,6,0,P|202:250|308:235,1,159.840003902344,2|2,0:0|0:0,0:0:0:0:
420,128,32571,2,0,P|423:98|426:56,1,53.2800013007813,2|2,0:0|0:0,0:0:0:0:
366,20,32916,2,0,P|331:1|256:28,1,106.560002601563,2|2,0:0|0:0,0:0:0:0:
150,100,33606,2,0,P|115:119|40:92,2,106.560002601563,2|2|2,0:0|0:0|0:0,0:0:0:0:
233,132,34468,6,0,B|258:171|258:171|236:230,1,106.560002601563,0|0,1:2|0:0,0:0:0:0:
129,327,35158,2,0,P|170:338|232:368,1,106.560002601563,2|2,0:0|0:0,0:0:0:0:
309,341,35675,2,0,P|303:299|291:216,1,106.560002601563,2|2,0:0|0:0,0:0:0:0:
237,185,36192,1,0,0:0:0:0:
237,185,36365,2,0,P|267:165|345:181,1,106.560002601563,2|2,0:0|0:0,0:0:0:0:
413,210,36882,1,0,0:0:0:0:
413,210,37054,6,0,P|405:157|388:43,1,159.840003902344,2|2,0:0|0:0,0:0:0:0:
164,5,38089,6,0,P|170:45|175:76,1,53.2800013007813,2|2,0:0|0:0,0:0:0:0:
124,117,38433,2,0,P|159:132|233:101,1,106.560002601563,2|0,0:0|0:0,0:0:0:0:
288,152,38951,2,0,P|294:193|305:278,1,106.560002601563,2|0,0:0|0:0,0:0:0:0:
252,317,39468,1,0,0:0:0:0:
252,317,39640,2,0,P|200:325|129:338,1,106.560002601563,2|0,0:0|0:0,0:0:0:0:
16,223,40675,6,0,P|21:189|26:154,1,53.2800013007813,2|0,0:0|0:0,0:0:0:0:
0,100,41020,1,2,0:0:0:0:
0,100,41192,2,0,P|29:122|105:112,1,106.560002601563,2|0,0:0|0:0,0:0:0:0:
170,80,41709,1,2,0:0:0:0:
170,80,41882,2,0,P|221:71|269:98,1,106.560002601563,2|0,0:0|0:0,0:0:0:0:
317,156,42399,1,2,0:0:0:0:
317,156,42571,2,0,B|287:98|287:98|329:7,1,159.840003902344,2|2,0:0|0:0,0:0:0:0:
480,109,43778,5,2,0:0:0:0:
480,109,43951,2,0,P|475:147|471:179,1,53.2800013007813,2|0,0:0|0:0,0:0:0:0:
408,212,44296,2,0,P|413:250|417:282,1,53.2800013007813,2|0,0:0|0:0,0:0:0:0:
471,330,44640,2,0,L|506:338,2,26.6400006503906,2|8|8,0:0|0:0|0:0,0:0:0:0:
400,384,44985,1,10,0:0:0:0:
348,318,45158,1,8,0:0:0:0:
258,384,45330,5,10,0:0:0:0:
258,384,45416,1,8,0:0:0:0:
258,384,45502,2,0,P|199:370|140:357,1,120.959996308594,4|0,1:2|0:0,0:0:0:0:
76,302,46020,1,8,0:0:0:0:
14,349,46192,2,0,P|-1:314|7:272,1,60.4799981542969,2|0,0:0|0:0,0:0:0:0:
27,218,46537,1,8,0:0:0:0:
101,82,46882,5,2,0:0:0:0:
101,82,47054,2,0,B|135:113|135:113|226:78,1,120.959996308594,8|0,0:0|0:0,0:0:0:0:
262,25,47571,2,0,L|331:40,1,60.4799981542969,10|8,0:0|0:0,0:0:0:0:
374,104,47916,1,8,0:0:0:0:
450,44,48089,1,8,0:0:0:0:
450,44,48175,1,8,0:0:0:0:
450,44,48261,6,0,L|460:116,1,60.4799981542969,10|0,0:0|0:0,0:0:0:0:
418,173,48606,2,0,L|408:245,1,60.4799981542969,2|8,0:0|0:0,0:0:0:0:
459,297,48951,2,0,P|426:314|384:307,1,60.4799981542969,2|0,0:0|0:0,0:0:0:0:
372,384,49296,2,0,P|340:363|325:324,1,60.4799981542969,10|0,0:0|0:0,0:0:0:0:
265,285,49640,6,0,L|275:200,1,60.4799981542969,2|8,0:0|0:0,0:0:0:0:
198,165,49985,2,0,L|190:225,1,60.4799981542969,2|0,0:0|0:0,0:0:0:0:
136,300,50330,1,10,0:0:0:0:
136,300,50502,1,8,0:0:0:0:
88,222,50675,1,8,0:0:0:0:
88,222,51020,6,0,L|68:87,1,120.959996308594,8|0,0:0|0:0,0:0:0:0:
131,29,51537,1,8,0:0:0:0:
131,29,51709,2,0,P|161:42|195:38,1,60.4799981542969,2|0,0:0|0:0,0:0:0:0:
266,15,52054,1,8,0:0:0:0:
400,135,52399,5,2,0:0:0:0:
400,135,52571,2,0,B|366:182|366:182|403:253,1,120.959996308594,8|0,0:0|0:0,0:0:0:0:
452,303,53089,2,0,L|382:315,1,60.4799981542969,10|8,0:0|0:0,0:0:0:0:
329,365,53433,1,8,0:0:0:0:
245,318,53606,1,8,0:0:0:0:
245,318,53692,1,8,0:0:0:0:
245,318,53778,6,0,L|253:241,1,60.4799981542969,10|0,0:0|0:0,0:0:0:0:
193,203,54123,2,0,L|185:126,1,60.4799981542969,2|8,0:0|0:0,0:0:0:0:
235,85,54468,2,0,P|199:68|163:73,1,60.4799981542969,2|0,0:0|0:0,0:0:0:0:
149,0,54813,2,0,P|116:22|102:56,1,60.4799981542969,10|0,0:0|0:0,0:0:0:0:
38,90,55158,5,2,0:0:0:0:
38,90,55330,2,0,L|58:234,1,120.959996308594,8|0,0:0|0:0,0:0:0:0:
118,262,55847,1,10,0:0:0:0:
62,330,56020,1,8,0:0:0:0:
133,380,56192,2,0,L|162:372,3,30.2399990771485,8|8|8|8,0:0|0:0|0:0|0:0,0:0:0:0:
198,340,56537,6,0,P|250:335|317:397,1,135.35999793457,8|0,0:0|1:2,0:0:0:0:
390,339,57054,1,8,0:0:0:0:
390,339,57227,2,0,L|400:269,1,67.6799989672852,2|0,1:2|1:2,0:0:0:0:
335,215,57571,2,0,L|325:145,1,67.6799989672852,8|0,0:0|1:2,0:0:0:0:
361,73,57916,5,2,1:2:0:0:
361,73,58089,2,0,P|394:67|427:63,2,67.6799989672852,8|0|0,0:0|1:2|1:2,0:0:0:0:
289,24,58606,1,10,0:0:0:0:
236,96,58778,1,8,0:0:0:0:
178,33,58951,1,8,0:0:0:0:
70,120,59296,6,0,P|78:163|83:199,1,67.6799989672852,10|0,0:0|1:2,0:0:0:0:
160,215,59640,2,0,P|152:258|147:294,1,67.6799989672852,2|8,1:2|0:0,0:0:0:0:
96,352,59985,2,0,P|141:363|178:377,1,67.6799989672852,2|0,1:2|1:2,0:0:0:0:
247,384,60330,2,0,P|240:350|235:317,1,67.6799989672852,10|0,0:0|1:2,0:0:0:0:
302,251,60675,5,2,1:2:0:0:
302,251,60847,2,0,P|334:240|367:232,2,67.6799989672852,8|2|0,0:0|1:2|1:2,0:0:0:0:
223,196,61365,1,10,0:0:0:0:
284,131,61537,1,8,0:0:0:0:
221,73,61709,1,8,0:0:0:0:
49,121,62054,6,0,P|60:171|66:212,1,67.6799989672852,8|8,1:2|1:2,0:0:0:0:
147,273,62399,2,0,P|152:239|160:206,1,67.6799989672852,8|8,1:2|1:2,0:0:0:0:
243,141,62744,2,0,P|286:151|314:186,1,67.6799989672852,10|8,1:2|1:2,0:0:0:0:
359,240,63089,2,0,P|402:230|430:195,1,67.6799989672852,8|8,1:2|1:2,0:0:0:0:
465,127,63433,6,0,P|457:82|453:48,1,67.6799989672852,10|8,1:2|1:2,0:0:0:0:
349,21,63778,2,0,P|355:54|359:87,1,67.6799989672852,8|8,1:2|1:2,0:0:0:0:
302,166,64123,2,0,P|259:156|231:121,1,67.6799989672852,10|8,1:2|1:2,0:0:0:0:
183,68,64468,2,0,P|140:78|112:113,1,67.6799989672852,8|8,1:2|1:2,0:0:0:0:
71,167,64813,6,0,L|77:215,3,33.8399994836426,2|0|0|0,1:2|1:2|1:2|1:2,0:0:0:0:
65,242,65158,2,0,L|109:260,3,33.8399994836426,2|0|0|0,1:2|1:2|1:2|1:2,0:0:0:0:
136,284,65502,2,0,L|174:254,3,33.8399994836426,2|0|0|0,1:2|1:2|1:2|1:2,0:0:0:0:
203,251,65847,2,0,L|197:203,3,33.8399994836426,2|0|0|0,1:2|1:2|1:2|1:2,0:0:0:0:
175,182,66192,6,0,P|170:133|164:93,1,67.6799989672852,6|0,1:2|1:2,0:0:0:0:
226,51,66537,2,0,P|258:42|291:48,1,67.6799989672852,10|8,0:0|0:0,0:0:0:0:
322,81,66796,2,0,P|327:130|333:170,1,67.6799989672852,8|8,0:0|0:0,0:0:0:0:
348,180,67054,1,8,0:0:0:0:
312,267,67227,2,0,L|317:308,3,33.8399994836426,2|0|0|0,1:2|1:2|1:2|1:2,0:0:0:0:
360,325,67571,6,0,P|309:330|206:351,1,123.11999849707,4|0,1:2|0:0,0:0:0:0:
201,318,67916,2,0,P|186:276|206:222,1,82.0799989980469,10|2,0:0|0:0,0:0:0:0:
250,165,68261,1,2,0:0:0:0:
188,94,68433,1,2,1:2:0:0:
272,20,68606,6,0,B|320:2|365:31|334:47|391:82|441:50,1,164.159997996094,10|0,0:0|0:0,0:0:0:0:
496,9,69123,1,0,1:2:0:0:
496,9,69296,2,0,P|503:49|509:89,1,82.0799989980469,8|0,0:0|0:0,0:0:0:0:
460,166,69640,2,0,P|424:183|375:164,1,82.0799989980469,2|2,0:0|1:2,0:0:0:0:
308,112,69985,1,10,0:0:0:0:
240,176,70158,1,2,0:0:0:0:
127,117,70330,6,0,P|139:183|139:269,1,123.11999849707,2|0,1:2|0:0,0:0:0:0:
126,262,70675,2,0,P|167:249|220:273,1,82.0799989980469,10|2,0:0|0:0,0:0:0:0:
266,332,71020,1,2,0:0:0:0:
333,270,71192,1,2,1:2:0:0:
399,361,71365,6,0,P|374:308|451:220,1,164.159997996094,10|0,0:0|0:0,0:0:0:0:
450,137,71882,1,0,1:2:0:0:
450,137,72054,2,0,P|403:131|360:119,1,82.0799989980469,8|0,0:0|0:0,0:0:0:0:
302,66,72399,2,0,P|280:110|302:173,1,82.0799989980469,2|2,0:0|1:2,0:0:0:0:
338,208,72744,1,10,0:0:0:0:
272,270,72916,1,2,1:2:0:0:
324,374,73089,6,0,P|266:361|180:354,1,123.11999849707,2|0,1:2|0:0,0:0:0:0:
194,364,73433,2,0,P|156:371|101:341,1,82.0799989980469,10|2,0:0|0:0,0:0:0:0:
54,279,73778,1,2,0:0:0:0:
114,215,73951,1,2,1:2:0:0:
21,139,74123,6,0,B|54:152|70:183|70:183|179:138,1,164.159997996094,10|0,0:0|0:0,0:0:0:0:
221,84,74640,1,0,1:2:0:0:
221,84,74813,2,0,P|230:40|213:3,1,82.0799989980469,8|0,0:0|0:0,0:0:0:0:
264,158,75158,2,0,P|311:169|361:185,1,82.0799989980469,2|2,0:0|1:2,0:0:0:0:
392,262,75502,1,10,0:0:0:0:
463,198,75675,1,2,1:2:0:0:
446,336,75847,6,0,P|384:354|316:309,1,123.11999849707,2|0,1:2|0:0,0:0:0:0:
321,316,76192,2,0,P|274:327|224:343,1,82.0799989980469,10|0,0:0|0:0,0:0:0:0:
171,262,76537,1,2,0:0:0:0:
101,334,76709,1,0,1:2:0:0:
26,266,76882,2,0,P|11:221|28:172,1,82.0799989980469,10|0,0:0|0:0,0:0:0:0:
122,121,77227,6,0,P|168:130|202:169,1,82.0799989980469,2|0,0:0|1:2,0:0:0:0:
260,226,77571,1,10,0:0:0:0:
260,226,77744,2,0,P|268:166|274:121,1,82.0799989980469,0|2,0:0|0:0,0:0:0:0:
345,76,78089,2,0,L|411:88,2,41.0399994990234,0|0|10,1:2|1:2|0:0,0:0:0:0:
279,13,78433,1,0,1:2:0:0:
186,74,78606,6,0,P|138:44|58:80,1,123.11999849707,4|0,1:2|0:0,0:0:0:0:
57,66,78951,2,0,P|58:116|53:162,1,82.0799989980469,10|2,0:0|0:0,0:0:0:0:
4,215,79296,1,2,0:0:0:0:
60,276,79468,1,2,1:2:0:0:
0,371,79640,6,0,B|89:343|89:343|109:378|146:385,1,164.159997996094,10|0,0:0|0:0,0:0:0:0:
229,326,80158,1,0,1:2:0:0:
229,326,80330,2,0,P|276:329|315:370,1,82.0799989980469,8|0,0:0|0:0,0:0:0:0:
400,374,80675,2,0,P|405:327|414:277,1,82.0799989980469,2|2,0:0|1:2,0:0:0:0:
362,216,81020,1,10,0:0:0:0:
426,154,81192,1,2,0:0:0:0:
351,77,81365,6,0,P|303:73|215:49,1,123.11999849707,2|0,1:2|0:0,0:0:0:0:
216,58,81709,2,0,P|197:94|216:148,1,82.0799989980469,10|2,0:0|0:0,0:0:0:0:
275,186,82054,1,2,0:0:0:0:
211,251,82227,1,2,1:2:0:0:
314,338,82399,6,0,P|245:325|176:395,1,164.159997996094,10|0,0:0|0:0,0:0:0:0:
81,359,82916,1,0,1:2:0:0:
81,359,83089,2,0,P|74:301|65:250,1,82.0799989980469,8|0,0:0|0:0,0:0:0:0:
5,210,83433,2,0,P|12:152|21:101,1,82.0799989980469,2|2,0:0|1:2,0:0:0:0:
74,55,83778,1,10,0:0:0:0:
148,117,83951,1,2,1:2:0:0:
214,20,84123,6,0,P|278:28|364:46,1,123.11999849707,2|0,1:2|0:0,0:0:0:0:
351,31,84468,2,0,P|359:77|336:115,1,82.0799989980469,10|2,0:0|0:0,0:0:0:0:
275,159,84813,1,2,0:0:0:0:
338,228,84985,1,2,1:2:0:0:
252,292,85158,6,0,B|311:309|311:309|331:351|331:351|405:369,1,164.159997996094,10|0,0:0|0:0,0:0:0:0:
474,310,85675,1,0,1:2:0:0:
474,310,85847,2,0,P|478:259|488:205,1,82.0799989980469,8|0,0:0|0:0,0:0:0:0:
434,151,86192,2,0,P|399:138|346:152,1,82.0799989980469,2|2,0:0|1:2,0:0:0:0:
282,196,86537,1,10,0:0:0:0:
341,264,86709,1,2,1:2:0:0:
227,339,86882,6,0,P|160:349|89:378,1,123.11999849707,2|0,1:2|0:0,0:0:0:0:
92,361,87227,2,0,P|68:322|89:268,1,82.0799989980469,10|0,0:0|0:0,0:0:0:0:
137,206,87571,1,2,0:0:0:0:
68,145,87744,1,0,1:2:0:0:
130,81,87916,2,0,P|177:91|214:96,1,82.0799989980469,10|0,0:0|0:0,0:0:0:0:
270,159,88261,6,0,P|279:203|249:253,1,82.0799989980469,2|0,0:0|1:2,0:0:0:0:
216,308,88606,1,10,0:0:0:0:
216,308,88778,2,0,P|256:313|296:322,1,82.0799989980469,0|2,0:0|0:0,0:0:0:0:
384,317,89123,2,0,P|378:354|376:376,2,41.0399994990234,0|0|8,1:2|1:2|0:0,0:0:0:0:
336,239,89468,1,0,1:2:0:0:
410,180,89640,1,0,1:2:0:0:
410,180,89813,1,0,0:0:0:0:
313,80,89985,6,0,P|259:96|221:106,1,74.8799995429687,14|0,0:0|0:0,0:0:0:0:
173,171,90330,1,2,0:0:0:0:
173,171,90502,2,0,P|119:155|81:145,1,74.8799995429687,2|8,1:2|0:0,0:0:0:0:
26,210,90847,1,2,0:0:0:0:
26,210,91020,6,0,P|37:255|46:305,1,74.8799995429687,2|0,0:0|1:2,0:0:0:0:
12,371,91365,1,8,0:0:0:0:
12,371,91537,2,0,P|66:355|104:345,1,74.8799995429687,2|0,0:0|0:0,0:0:0:0:
143,276,91882,1,2,1:2:0:0:
216,344,92054,1,10,0:0:0:0:
278,276,92227,1,2,0:0:0:0:
278,276,92313,1,2,0:0:0:0:
278,276,92399,1,2,1:2:0:0:
278,276,92744,6,0,P|288:223|298:176,1,74.8799995429687,10|0,0:2|0:0,0:0:0:0:
369,136,93089,1,2,0:0:0:0:
369,136,93261,2,0,P|359:83|349:36,1,74.8799995429687,2|10,1:2|0:0,0:0:0:0:
269,18,93606,1,2,0:0:0:0:
269,18,93778,6,0,P|230:29|208:64,1,74.8799995429687,2|0,0:0|1:2,0:0:0:0:
110,73,94123,1,10,0:0:0:0:
110,73,94296,2,0,P|100:112|119:148,1,74.8799995429687,2|0,0:0|0:0,0:0:0:0:
183,199,94640,1,2,1:2:0:0:
120,264,94813,1,10,0:0:0:0:
198,334,94985,1,2,1:2:0:0:
198,334,95071,1,2,0:0:0:0:
198,334,95158,1,2,1:2:0:0:
198,334,95502,6,0,P|154:342|107:354,1,74.8799995429687,10|0,0:0|0:0,0:0:0:0:
39,304,95847,1,2,0:0:0:0:
39,304,96020,2,0,P|25:261|39:220,1,74.8799995429687,2|10,1:2|0:0,0:0:0:0:
86,160,96365,1,2,0:0:0:0:
86,160,96537,6,0,P|130:168|177:180,1,74.8799995429687,2|0,0:0|1:2,0:0:0:0:
239,112,96881,1,10,0:0:0:0:
239,112,97054,2,0,P|253:69|239:28,1,74.8799995429687,2|0,0:0|0:0,0:0:0:0:
159,0,97399,1,2,1:2:0:0:
97,88,97571,1,10,0:0:0:0:
35,18,97744,1,2,1:2:0:0:
35,18,97830,1,2,0:0:0:0:
35,18,97916,1,2,1:2:0:0:
35,18,98261,6,0,P|42:67|49:122,1,74.8799995429687,10|0,0:0|0:0,0:0:0:0:
127,142,98606,1,2,0:0:0:0:
127,142,98778,2,0,P|120:191|113:246,1,74.8799995429687,2|10,1:2|0:0,0:0:0:0:
50,266,99123,1,2,0:0:0:0:
50,266,99296,6,0,P|87:295|131:296,1,74.8799995429687,2|0,0:0|1:2,0:0:0:0:
129,384,99640,1,10,0:0:0:0:
129,384,99813,2,0,P|172:366|195:328,1,74.8799995429687,2|0,0:0|0:0,0:0:0:0:
224,245,100158,1,2,1:2:0:0:
224,245,100244,1,0,1:2:0:0:
224,245,100330,1,10,0:0:0:0:
298,305,100502,1,2,1:2:0:0:
375,248,100675,6,0,P|382:198|389:155,1,74.8799995429687,0|0,1:2|0:0,0:0:0:0:
443,96,101020,2,0,P|393:89|350:82,1,74.8799995429687,10|0,0:0|0:0,0:0:0:0:
288,33,101365,1,2,0:0:0:0:
288,33,101537,2,0,P|281:83|274:126,1,74.8799995429687,2|8,1:2|0:0,0:0:0:0:
205,174,101882,1,2,0:0:0:0:
205,174,102054,6,0,P|255:181|298:188,1,74.8799995429687,2|0,0:0|1:2,0:0:0:0:
349,276,102399,1,10,0:0:0:0:
349,276,102571,2,0,P|299:269|256:262,1,74.8799995429687,2|0,0:0|0:0,0:0:0:0:
198,321,102916,1,2,1:2:0:0:
133,254,103089,1,10,0:0:0:0:
70,317,103261,1,2,0:0:0:0:
70,317,103347,1,2,0:0:0:0:
70,317,103433,1,2,1:2:0:0:
70,317,103778,6,0,P|63:269|55:212,1,74.8799995429687,10|0,0:0|0:0,0:0:0:0:
119,175,104123,1,2,0:0:0:0:
119,175,104296,2,0,P|126:127|134:70,1,74.8799995429687,2|8,1:2|0:0,0:0:0:0:
126,16,104640,1,2,0:0:0:0:
126,16,104813,6,0,P|165:24|204:61,1,74.8799995429687,2|0,0:0|1:2,0:0:0:0:
275,0,105158,1,10,0:0:0:0:
275,0,105330,2,0,P|287:37|275:90,1,74.8799995429687,2|0,0:0|0:0,0:0:0:0:
208,131,105675,1,2,1:2:0:0:
276,200,105847,1,10,0:0:0:0:
217,273,106020,1,2,1:2:0:0:
217,273,106106,1,2,0:0:0:0:
217,273,106192,1,2,1:2:0:0:
217,273,106537,6,0,P|272:287|312:303,1,74.8799995429687,10|0,0:0|0:0,0:0:0:0:
357,356,106882,1,2,0:0:0:0:
357,356,107054,2,0,P|392:344|428:335,1,74.8799995429687,2|10,1:2|0:0,0:0:0:0:
485,261,107399,1,2,0:0:0:0:
485,261,107571,6,0,P|491:215|500:157,1,74.8799995429687,2|0,0:0|1:2,0:0:0:0:
423,123,107916,1,10,0:0:0:0:
423,123,108088,2,0,P|386:131|351:143,1,74.8799995429687,2|0,0:0|0:0,0:0:0:0:
273,198,108433,1,2,1:2:0:0:
200,129,108606,1,10,0:0:0:0:
140,209,108778,1,2,1:2:0:0:
49,142,108951,6,0,P|44:94|39:56,1,74.8799995429687,2|0,1:2|0:0,0:0:0:0:
128,14,109296,1,2,0:0:0:0:
128,14,109468,2,0,P|133:62|138:100,1,74.8799995429687,0|2,1:2|0:0,0:0:0:0:
231,132,109813,1,2,0:0:0:0:
231,132,109985,2,0,P|226:84|221:46,1,74.8799995429687,0|2,1:2|0:0,0:0:0:0:
300,7,110330,6,0,L|354:21,3,37.4399997714844,2|0|0|0,1:2|1:2|1:2|1:2,0:0:0:0:
386,18,110675,2,0,L|400:71,3,37.4399997714844,2|0|2|0,1:2|1:2|1:2|1:2,0:0:0:0:
419,94,111020,2,0,L|379:133,3,37.4399997714844,0|0|2|0,1:2|1:2|1:2|1:2,0:0:0:0:
382,162,111365,2,0,L|297:141,1,74.8799995429687,2|2,1:2|1:2,0:0:0:0:
194,113,111709,5,6,0:0:0:0:
