osu file format v14

[General]
AudioFilename: audio.mp3
AudioLeadIn: 0
PreviewTime: 64727
Countdown: 0
SampleSet: Soft
StackLeniency: 0.7
Mode: 0
LetterboxInBreaks: 0
WidescreenStoryboard: 0

[Editor]
DistanceSpacing: 1.1
BeatDivisor: 8
GridSize: 32
TimelineZoom: 1.68

[Metadata]
Title:Solace (Cut Ver.)
TitleUnicode:Solace (Cut Ver.)
Artist:Feint & Laura Brehm
ArtistUnicode:Feint & Laura Brehm
Creator:Kujinn
Version:Extra
Source:
Tags:Reform A_r_M_i_N Armin DnB Drum n and Bass edm monstercat english electronic
BeatmapID:2755722
BeatmapSetID:1330028

[Difficulty]
HPDrainRate:5.5
CircleSize:4
OverallDifficulty:9
ApproachRate:9.2
SliderMultiplier:1.74
SliderTickRate:1

[Events]
//Background and Video events
0,0,"Background.png",0,0
//Break Periods
//Storyboard Layer 0 (Background)
//Storyboard Layer 1 (Fail)
//Storyboard Layer 2 (Pass)
//Storyboard Layer 3 (Foreground)
//Storyboard Layer 4 (Overlay)
//Storyboard Sound Samples

[TimingPoints]
1365,344.827586206897,4,2,1,45,1,0
23433,-185.185185185185,4,2,7,45,0,0
45502,-119.047619047619,4,2,7,65,0,0
56537,-106.382978723404,4,2,7,75,0,0
67571,-87.7192982456139,4,2,1,85,0,1
89640,-119.047619047619,4,2,1,65,0,0
89985,-96.1538461538461,4,2,1,75,0,0

[Colours]
Combo1 : 245,158,41
Combo2 : 79,65,126
Combo3 : 58,46,150
Combo4 : 54,123,226

[HitObjects]
256,192,20675,12,0,23433,0:0:0:0:
154,81,24123,5,2,0:0:0:0:
154,81,24296,2,0,L|104:67,1,46.9800011469727,2|0,0:0|0:0,0:0:0:0:
205,154,24640,2,0,L|314:129,1,93.9600022939454,2|0,0:0|0:0,0:0:0:0:
354,79,25158,1,2,0:0:0:0:
354,79,25330,2,0,P|374:120|356:182,1,93.9600022939454,2|0,0:0|0:0,0:0:0:0:
315,217,25847,1,2,0:0:0:0:
315,217,26020,6,0,P|295:258|313:320,1,93.9600022939454,2|0,0:0|0:0,0:0:0:0:
365,358,26537,2,0,L|261:339,1,93.9600022939454,2|0,0:0|0:0,0:0:0:0:
272,341,27227,1,2,0:0:0:0:
204,377,27399,2,0,P|224:336|206:274,1,93.9600022939454,2|0,0:0|0:0,0:0:0:0:
152,238,27916,2,0,P|106:241|61:287,1,93.9600022939454,2|0,0:0|0:0,0:0:0:0:
35,341,28433,1,0,0:0:0:0:
35,341,28606,2,0,L|44:396,2,46.9800011469727,2|0|0,0:0|0:0|0:0,0:0:0:0:
4,180,29296,5,0,0:0:0:0:
4,180,29640,2,0,L|59:192,1,46.9800011469727,2|0,0:0|0:0,0:0:0:0:
103,255,29985,1,2,0:0:0:0:
103,255,30158,2,0,P|129:218|124:154,1,93.9600022939454,2|0,0:0|0:0,0:0:0:0:
71,104,30675,1,2,0:0:0:0:
71,104,30847,2,0,P|90:145|147:172,1,93.9600022939454,2|0,0:0|0:0,0:0:0:0:
218,200,31365,1,2,0:0:0:0:
218,200,31537,6,0,L|323:180,1,93.9600022939454,2|0,0:0|0:0,0:0:0:0:
389,175,32054,2,0,L|284:155,1,93.9600022939454,2|0,0:0|0:0,0:0:0:0:
220,115,32571,2,0,L|208:55,1,46.9800011469727,2|2,0:0|0:0,0:0:0:0:
218,200,32916,2,0,L|195:314,1,93.9600022939454,2|2,0:0|0:0,0:0:0:0:
371,384,33606,2,0,L|352:291,1,93.9600022939454,2|2,0:0|0:0,0:0:0:0:
441,183,34296,1,2,0:0:0:0:
441,183,34468,6,0,P|411:157|338:160,1,93.9600022939454,0|0,1:2|0:0,0:0:0:0:
221,236,35158,2,0,P|174:233|138:204,1,93.9600022939454,2|2,0:0|0:0,0:0:0:0:
209,116,35675,2,0,L|199:172,1,46.9800011469727,2|0,0:0|0:0,0:0:0:0:
133,51,36020,2,0,L|124:4,1,46.9800011469727,2|0,0:0|0:0,0:0:0:0:
217,33,36365,2,0,L|262:44,1,46.9800011469727,2|0,0:0|0:0,0:0:0:0:
118,127,36709,2,0,L|72:138,1,46.9800011469727,2|0,0:0|0:0,0:0:0:0:
214,211,37054,6,0,L|317:187,1,93.9600022939454,2|0,0:0|0:0,0:0:0:0:
353,116,37571,2,0,L|444:137,1,93.9600022939454,2|0,0:0|0:0,0:0:0:0:
482,212,38089,2,0,L|492:270,1,46.9800011469727,2|2,0:0|0:0,0:0:0:0:
444,137,38433,2,0,L|466:28,1,93.9600022939454,2|0,0:0|0:0,0:0:0:0:
384,0,38951,2,0,P|349:-10|287:27,1,93.9600022939454,2|0,0:0|0:0,0:0:0:0:
220,58,39468,1,0,0:0:0:0:
220,58,39640,2,0,L|158:45,2,46.9800011469727,2|0|0,0:0|0:0|0:0,0:0:0:0:
293,165,40330,5,0,0:0:0:0:
293,165,40675,2,0,L|278:276,1,93.9600022939454,2|2,0:0|0:0,0:0:0:0:
293,351,41192,2,0,L|280:257,1,93.9600022939454,2|0,0:0|0:0,0:0:0:0:
203,223,41709,1,2,0:0:0:0:
203,223,41882,2,0,P|227:253|297:247,1,93.9600022939454,2|0,0:0|0:0,0:0:0:0:
360,231,42399,1,2,0:0:0:0:
360,231,42571,6,0,L|377:130,1,93.9600022939454,2|0,0:0|0:0,0:0:0:0:
360,45,43089,2,0,L|375:137,1,93.9600022939454,2|0,0:0|0:0,0:0:0:0:
375,137,43778,1,2,0:0:0:0:
315,192,43951,2,0,L|262:179,1,46.9800011469727,2|0,0:0|0:0,0:0:0:0:
397,253,44296,2,0,L|442:241,1,46.9800011469727,2|0,0:0|0:0,0:0:0:0:
310,303,44640,1,2,0:0:0:0:
310,303,44727,1,8,0:0:0:0:
310,303,44813,2,0,L|320:366,1,46.9800011469727,8|10,0:0|0:0,0:0:0:0:
176,253,45158,1,8,0:0:0:0:
302,181,45330,1,10,0:0:0:0:
302,181,45416,1,8,0:0:0:0:
302,181,45502,6,0,P|222:162|147:148,1,146.159995539551,4|0,1:2|0:0,0:0:0:0:
14,218,46020,1,8,0:0:0:0:
58,58,46192,2,0,P|65:104|71:144,1,73.0799977697755,2|0,0:0|0:0,0:0:0:0:
165,262,46537,2,0,P|170:225|175:189,1,73.0799977697755,8|0,0:0|0:0,0:0:0:0:
351,85,46882,5,2,0:0:0:0:
284,214,47054,1,8,0:0:0:0:
210,96,47227,2,0,P|204:59|199:23,1,73.0799977697755
369,116,47571,1,10,0:0:0:0:
206,201,47744,1,8,0:0:0:0:
356,293,47916,1,8,0:0:0:0:
182,363,48089,5,8,0:0:0:0:
182,363,48175,1,8,0:0:0:0:
182,363,48261,2,0,P|136:351|91:342,1,73.0799977697755,10|0,0:0|0:0,0:0:0:0:
1,267,48606,2,0,P|47:255|92:246,1,73.0799977697755,2|8,0:0|0:0,0:0:0:0:
193,182,48951,2,0,P|181:227|172:273,1,73.0799977697755,2|0,0:0|0:0,0:0:0:0:
79,142,49296,2,0,P|71:106|61:71,1,73.0799977697755,10|0,0:0|0:0,0:0:0:0:
71,249,49640,5,2,0:0:0:0:
165,114,49813,1,8,0:0:0:0:
246,270,49985,2,0,P|208:259|144:249,1,73.0799977697755,2|0,0:0|0:0,0:0:0:0:
288,126,50330,1,10,0:0:0:0:
373,255,50502,1,8,0:0:0:0:
461,157,50675,2,0,P|470:111|480:65,1,73.0799977697755,8|0,0:0|0:0,0:0:0:0:
319,318,51020,6,0,P|363:339|444:289,1,146.159995539551,8|0,0:0|0:0,0:0:0:0:
368,162,51537,1,8,0:0:0:0:
284,250,51709,2,0,P|235:233|187:222,1,73.0799977697755,2|0,0:0|0:0,0:0:0:0:
293,85,52054,2,0,P|342:68|390:57,1,73.0799977697755,8|0,0:0|0:0,0:0:0:0:
126,162,52399,5,2,0:0:0:0:
196,25,52571,1,8,0:0:0:0:
290,168,52744,2,0,P|279:223|271:266,1,73.0799977697755
101,66,53089,1,10,0:0:0:0:
185,260,53261,1,8,0:0:0:0:
279,76,53433,1,8,0:0:0:0:
88,193,53606,5,8,0:0:0:0:
88,193,53692,1,8,0:0:0:0:
88,193,53778,2,0,P|132:200|183:216,1,73.0799977697755,10|0,0:0|0:0,0:0:0:0:
296,304,54123,2,0,P|252:311|201:327,1,73.0799977697755,2|8,0:0|0:0,0:0:0:0:
253,160,54468,2,0,P|246:195|240:231,1,73.0799977697755,2|0,0:0|0:0,0:0:0:0:
141,376,54813,2,0,P|132:322|122:276,1,73.0799977697755,10|0,0:0|0:0,0:0:0:0:
82,139,55158,5,2,0:0:0:0:
24,275,55330,1,8,0:0:0:0:
187,153,55502,2,0,P|184:106|156:74,1,73.0799977697755
0,185,55847,1,10,0:0:0:0:
185,247,56020,1,8,0:0:0:0:
88,74,56192,1,8,0:0:0:0:
88,74,56278,1,8,0:0:0:0:
88,74,56365,1,8,0:0:0:0:
88,74,56451,1,8,0:0:0:0:
88,74,56537,6,0,P|101:127|110:173,1,81.7799987521363,8|0,0:0|1:2,0:0:0:0:
61,274,56882,1,0,1:2:0:0:
252,140,57054,2,0,P|239:193|230:239,1,81.7799987521363,8|2,0:0|1:2,0:0:0:0:
277,344,57399,1,0,1:2:0:0:
396,77,57571,6,0,P|409:130|418:176,1,81.7799987521363,8|0,0:0|1:2,0:0:0:0:
371,281,57916,1,2,1:2:0:0:
208,15,58089,2,0,P|195:68|186:114,1,81.7799987521363,8|0,0:0|1:2,0:0:0:0:
233,219,58434,1,0,1:2:0:0:
108,43,58606,5,10,0:0:0:0:
309,131,58778,1,8,0:0:0:0:
121,233,58951,1,8,0:0:0:0:
254,41,59123,1,8,0:0:0:0:
254,41,59209,1,8,0:0:0:0:
254,41,59296,6,0,P|316:54|362:66,1,81.7799987521363,10|0,0:0|1:2,0:0:0:0:
247,216,59640,1,2,1:2:0:0:
134,73,59813,2,0,P|72:86|26:98,1,81.7799987521363,8|2,0:0|1:2,0:0:0:0:
160,265,60157,1,0,1:2:0:0:
232,119,60330,6,0,P|247:66|261:12,1,81.7799987521363,10|0,0:0|1:2,0:0:0:0:
319,235,60675,1,2,1:2:0:0:
133,186,60847,2,0,P|118:133|104:79,1,81.7799987521363,8|2,0:0|1:2,0:0:0:0:
51,298,61192,1,0,1:2:0:0:
260,245,61365,5,10,0:0:0:0:
43,164,61537,1,8,0:0:0:0:
148,373,61709,2,0,P|188:377|225:362,1,81.7799987521363,8|0,0:0|1:2,0:0:0:0:
333,51,62054,5,8,1:2:0:0:
161,214,62227,1,8,1:2:0:0:
409,124,62399,1,8,1:2:0:0:
314,342,62571,1,8,1:2:0:0:
196,96,62744,1,10,1:2:0:0:
424,218,62916,1,8,1:2:0:0:
169,301,63089,1,8,1:2:0:0:
284,52,63261,1,8,1:2:0:0:
348,250,63433,5,10,1:2:0:0:
118,77,63606,1,8,1:2:0:0:
361,225,63778,1,8,1:2:0:0:
103,303,63951,1,8,1:2:0:0:
252,40,64123,1,10,1:2:0:0:
323,337,64296,1,8,1:2:0:0:
58,191,64468,1,8,1:2:0:0:
349,79,64640,1,8,1:2:0:0:
233,368,64813,5,2,1:2:0:0:
200,332,64899,1,0,1:2:0:0:
189,283,64985,1,0,1:2:0:0:
200,238,65071,1,0,1:2:0:0:
223,208,65158,1,2,1:2:0:0:
257,185,65244,1,0,1:2:0:0:
285,158,65330,1,0,1:2:0:0:
301,120,65416,1,0,1:2:0:0:
302,87,65502,5,2,1:2:0:0:
290,58,65589,1,0,1:2:0:0:
266,38,65675,1,0,1:2:0:0:
235,32,65761,1,0,1:2:0:0:
208,44,65847,1,2,1:2:0:0:
189,64,65933,1,0,1:2:0:0:
185,84,66020,1,0,1:2:0:0:
189,108,66106,1,0,1:2:0:0:
203,127,66192,5,6,1:2:0:0:
403,212,66365,1,0,1:2:0:0:
192,322,66537,1,10,0:0:0:0:
291,130,66709,1,8,0:0:0:0:
300,142,66796,2,0,L|308:204,1,40.8899993760681,8|2,0:0|0:0,0:0:0:0:
411,316,66968,1,8,0:0:0:0:
422,305,67054,2,0,L|430:243,1,40.8899993760681,8|8,0:0|0:0,0:0:0:0:
512,97,67227,5,2,1:2:0:0:
480,129,67313,1,0,1:2:0:0:
435,132,67399,1,0,1:2:0:0:
393,115,67485,1,0,1:2:0:0:
353,90,67571,6,0,P|304:71|226:130,1,148.76999818396,4|0,1:2|0:0,0:0:0:0:
202,141,67916,1,10,0:0:0:0:
403,247,68089,1,2,0:0:0:0:
211,363,68261,1,2,0:0:0:0:
304,149,68433,1,2,1:2:0:0:
509,326,68606,6,0,B|461:303|403:338|443:362|371:406|314:363,1,198.359997578613,10|0,0:0|0:0,0:0:0:0:
211,213,69123,1,0,1:2:0:0:
82,377,69296,2,0,P|73:316|62:264,1,99.1799987893067,8|0,0:0|0:0,0:0:0:0:
222,59,69640,1,2,0:0:0:0:
161,289,69813,1,2,1:2:0:0:
45,82,69985,1,10,0:0:0:0:
261,194,70158,1,2,0:0:0:0:
28,205,70330,6,0,P|80:187|139:174,1,99.1799987893067,2|0,1:2|0:0,0:0:0:0:
339,293,70675,1,10,0:0:0:0:
217,71,70847,1,2,0:0:0:0:
159,311,71020,1,2,0:0:0:0:
301,129,71192,1,2,1:2:0:0:
412,349,71365,6,0,B|438:294|503:294|503:294|439:233|425:162|488:91,1,297.53999636792,10|0,0:0|1:2,0:0:0:0:
241,131,72054,2,0,P|276:167|332:172,1,99.1799987893067,8|0,0:0|0:0,0:0:0:0:
507,7,72399,1,2,0:0:0:0:
316,88,72571,1,2,1:2:0:0:
512,188,72744,1,10,0:0:0:0:
370,0,72916,1,2,1:2:0:0:
367,234,73089,6,0,P|379:166|395:106,1,99.1799987893067,2|0,1:2|0:0,0:0:0:0:
187,286,73433,1,10,0:0:0:0:
285,49,73606,1,2,0:0:0:0:
367,324,73778,1,2,0:0:0:0:
202,114,73951,1,2,1:2:0:0:
84,292,74123,6,0,P|108:346|255:358,1,198.359997578613,10|0,0:0|0:0,0:0:0:0:
337,226,74640,1,0,1:2:0:0:
161,116,74813,2,0,P|172:164|180:213,1,99.1799987893067,8|0,0:0|0:0,0:0:0:0:
250,4,75158,1,2,0:0:0:0:
47,145,75330,1,2,1:2:0:0:
297,232,75502,1,10,0:0:0:0:
126,28,75675,1,2,1:2:0:0:
123,268,75847,6,0,P|168:292|225:277,1,99.1799987893067,2|0,1:2|0:0,0:0:0:0:
383,134,76192,1,10,0:0:0:0:
310,348,76365,1,0,0:0:0:0:
235,100,76537,1,2,0:0:0:0:
378,300,76709,1,0,1:2:0:0:
439,62,76882,2,0,P|428:127|420:199,1,99.1799987893067,10|0,0:0|0:0,0:0:0:0:
161,276,77227,6,0,P|154:226|145:178,1,99.1799987893067,2|0,0:0|1:2,0:0:0:0:
329,284,77571,1,10,0:0:0:0:
260,29,77744,2,0,P|250:77|244:126,1,99.1799987893067,0|2,0:0|0:0,0:0:0:0:
146,17,78089,1,0,1:2:0:0:
146,17,78175,1,0,1:2:0:0:
146,17,78261,1,10,0:0:0:0:
357,141,78433,1,0,1:2:0:0:
164,256,78606,6,0,P|104:239|39:327,1,148.76999818396,4|0,1:2|0:0,0:0:0:0:
22,325,78951,1,10,0:0:0:0:
64,117,79123,1,2,0:0:0:0:
234,346,79296,1,2,0:0:0:0:
170,101,79468,1,2,1:2:0:0:
316,262,79640,6,0,B|368:235|431:275|389:294|449:334|512:302,1,198.359997578613,10|0,0:0|0:0,0:0:0:0:
300,153,80158,1,0,1:2:0:0:
447,69,80330,2,0,P|435:134|427:185,1,99.1799987893067,8|0,0:0|0:0,0:0:0:0:
192,43,80675,1,2,0:0:0:0:
290,269,80847,1,2,1:2:0:0:
369,44,81020,1,10,0:0:0:0:
185,180,81192,1,2,0:0:0:0:
459,222,81365,6,0,P|405:203|346:184,1,99.1799987893067,2|0,1:2|0:0,0:0:0:0:
156,323,81709,1,10,0:0:0:0:
270,65,81882,1,2,0:0:0:0:
333,356,82054,1,2,0:0:0:0:
167,115,82227,1,2,1:2:0:0:
11,293,82399,6,0,B|32:356|100:355|100:355|134:289|219:265|276:325,1,297.53999636792,10|0,0:0|1:2,0:0:0:0:
421,186,83089,2,0,P|405:243|388:324,1,99.1799987893067,8|0,0:0|0:0,0:0:0:0:
227,108,83433,1,2,0:0:0:0:
331,351,83606,1,2,1:2:0:0:
423,95,83778,1,10,0:0:0:0:
293,281,83951,1,2,1:2:0:0:
161,65,84123,6,0,P|202:32|262:39,1,99.1799987893067,2|0,1:2|0:0,0:0:0:0:
432,213,84468,1,10,0:0:0:0:
237,116,84640,1,2,0:0:0:0:
429,16,84813,1,2,0:0:0:0:
304,224,84985,1,2,1:2:0:0:
101,9,85158,6,0,P|118:77|148:239,1,198.359997578613,10|0,0:0|0:0,0:0:0:0:
243,48,85675,1,0,1:2:0:0:
380,270,85847,2,0,P|398:221|380:157,1,99.1799987893067,8|0,0:0|0:0,0:0:0:0:
221,314,86192,1,2,0:0:0:0:
301,104,86365,1,2,1:2:0:0:
384,353,86537,1,10,0:0:0:0:
228,164,86709,1,2,1:2:0:0:
112,377,86882,6,0,P|101:310|85:256,1,99.1799987893067,2|0,1:2|0:0,0:0:0:0:
220,57,87227,1,10,0:0:0:0:
9,162,87399,1,0,0:0:0:0:
243,248,87571,1,2,0:0:0:0:
115,32,87744,1,0,1:2:0:0:
25,242,87916,2,0,P|72:267|127:255,1,99.1799987893067,10|0,0:0|0:0,0:0:0:0:
333,104,88261,6,0,P|286:79|231:91,1,99.1799987893067,2|0,0:0|1:2,0:0:0:0:
272,273,88606,1,10,0:0:0:0:
109,90,88778,2,0,P|122:153|134:208,1,99.1799987893067,0|2,0:0|0:0,0:0:0:0:
333,104,89123,1,0,1:2:0:0:
333,104,89209,1,0,1:2:0:0:
333,104,89296,1,8,0:0:0:0:
264,299,89468,1,0,1:2:0:0:
440,140,89640,6,0,P|402:133|359:127,1,73.0799977697755,0|0,1:2|0:0,0:0:0:0:
133,18,89985,6,0,P|192:10|236:49,1,90.4799994477539,14|2,0:0|0:0,0:0:0:0:
240,51,90244,1,2,0:0:0:0:
233,86,90330,1,2,0:0:0:0:
230,121,90416,1,2,0:0:0:0:
233,156,90502,1,2,1:2:0:0:
342,306,90675,1,8,0:0:0:0:
87,248,90847,5,2,0:0:0:0:
87,248,90933,1,2,0:0:0:0:
87,248,91020,2,0,L|146:237,1,45.239999723877,2|2,0:0|0:0,0:0:0:0:
232,379,91192,2,0,L|173:368,1,45.239999723877,2|0,1:2|0:0,0:0:0:0:
289,216,91365,1,8,0:0:0:0:
456,377,91537,5,2,0:0:0:0:
468,343,91623,1,2,0:0:0:0:
470,307,91709,1,2,0:0:0:0:
467,270,91796,1,2,0:0:0:0:
455,235,91882,1,2,1:2:0:0:
270,303,92054,1,10,0:0:0:0:
386,99,92227,1,2,0:0:0:0:
386,99,92313,1,2,0:0:0:0:
386,99,92399,1,2,1:2:0:0:
386,99,92744,6,0,P|341:90|297:82,1,90.4799994477539,10|2,0:2|0:0,0:0:0:0:
265,99,93002,1,2,0:0:0:0:
245,129,93089,1,2,0:0:0:0:
244,165,93175,1,2,0:0:0:0:
257,198,93261,1,2,1:2:0:0:
345,361,93433,1,8,0:0:0:0:
122,241,93606,5,2,0:0:0:0:
122,241,93692,1,2,0:0:0:0:
122,241,93778,2,0,L|62:221,1,45.239999723877,2|2,0:0|0:0,0:0:0:0:
275,288,93951,2,0,L|335:268,1,45.239999723877,2|0,1:2|0:0,0:0:0:0:
72,364,94123,1,10,0:0:0:0:
180,104,94296,5,2,0:0:0:0:
215,111,94382,1,2,0:0:0:0:
240,136,94468,1,2,0:0:0:0:
249,170,94554,1,2,0:0:0:0:
238,204,94640,1,2,1:2:0:0:
159,341,94813,1,10,0:0:0:0:
38,165,94985,1,2,1:2:0:0:
38,165,95071,1,2,0:0:0:0:
38,165,95158,1,2,1:2:0:0:
38,165,95502,6,0,P|51:226|60:282,1,90.4799994477539,10|2,0:0|0:0,0:0:0:0:
83,277,95761,1,2,0:0:0:0:
115,293,95847,1,2,0:0:0:0:
151,291,95933,1,2,0:0:0:0:
182,272,96020,1,2,1:2:0:0:
294,139,96192,1,8,0:0:0:0:
440,317,96365,5,2,0:0:0:0:
440,317,96451,1,2,0:0:0:0:
440,317,96537,2,0,L|453:253,1,45.239999723877,2|2,0:0|0:0,0:0:0:0:
272,146,96709,2,0,L|281:190,1,45.239999723877,2|0,1:2|0:0,0:0:0:0:
431,49,96882,1,10,0:0:0:0:
343,269,97054,5,2,0:0:0:0:
309,283,97140,1,2,0:0:0:0:
272,283,97226,1,2,0:0:0:0:
236,274,97313,1,2,0:0:0:0:
207,251,97399,1,2,1:2:0:0:
38,120,97571,1,10,0:0:0:0:
126,340,97744,1,2,1:2:0:0:
126,340,97830,1,2,0:0:0:0:
126,340,97916,1,2,1:2:0:0:
126,340,98261,6,0,P|136:283|156:213,1,90.4799994477539,10|2,0:0|0:0,0:0:0:0:
170,226,98520,1,2,0:0:0:0:
166,190,98606,1,2,0:0:0:0:
159,154,98692,1,2,0:0:0:0:
151,118,98778,1,2,1:2:0:0:
50,223,98951,1,8,0:0:0:0:
229,38,99123,5,2,0:0:0:0:
229,38,99209,1,2,0:0:0:0:
229,38,99296,2,0,L|167:24,1,45.239999723877,2|2,0:0|0:0,0:0:0:0:
18,127,99468,2,0,L|80:113,1,45.239999723877,2|0,1:2|0:0,0:0:0:0:
239,199,99640,1,10,0:0:0:0:
90,323,99813,5,2,0:0:0:0:
125,316,99899,1,2,0:0:0:0:
160,308,99985,1,2,0:0:0:0:
195,300,100071,1,2,0:0:0:0:
227,290,100158,5,2,1:2:0:0:
176,274,100244,1,0,1:2:0:0:
125,259,100330,1,10,0:0:0:0:
241,86,100502,1,2,1:2:0:0:
398,176,100675,6,0,P|386:237|443:282,1,135.719999171631,0|0,1:2|0:0,0:0:0:0:
474,293,101020,2,0,P|413:305|366:320,1,90.4799994477539,10|2,0:0|0:0,0:0:0:0:
363,340,101278,1,2,0:0:0:0:
327,330,101365,1,2,0:0:0:0:
291,323,101451,1,2,0:0:0:0:
255,318,101537,1,2,1:2:0:0:
118,136,101709,1,8,0:0:0:0:
35,290,101882,5,2,0:0:0:0:
35,290,101968,1,2,0:0:0:0:
35,290,102054,2,0,L|47:354,1,45.239999723877,2|2,0:0|0:0,0:0:0:0:
230,233,102227,2,0,L|238:188,1,45.239999723877,2|0,1:2|0:0,0:0:0:0:
143,36,102399,1,10,0:0:0:0:
5,174,102571,5,2,0:0:0:0:
29,201,102658,1,2,0:0:0:0:
63,210,102744,1,2,0:0:0:0:
99,208,102830,1,2,0:0:0:0:
130,189,102916,1,2,1:2:0:0:
251,21,103089,1,10,0:0:0:0:
384,173,103261,1,2,0:0:0:0:
384,173,103347,1,2,0:0:0:0:
384,173,103433,1,2,1:2:0:0:
384,173,103778,6,0,P|374:227|364:288,1,90.4799994477539,10|2,0:0|0:0,0:0:0:0:
342,287,104037,1,2,0:0:0:0:
309,269,104124,1,2,0:0:0:0:
273,263,104210,1,2,0:0:0:0:
240,278,104296,1,2,1:2:0:0:
83,358,104468,1,8,0:0:0:0:
131,198,104640,5,2,0:0:0:0:
131,198,104727,1,2,0:0:0:0:
131,198,104813,2,0,L|119:122,1,45.239999723877,2|2,0:0|0:0,0:0:0:0:
245,317,104985,2,0,L|237:361,1,45.239999723877,2|0,1:2|0:0,0:0:0:0:
368,155,105158,1,10,0:0:0:0:
507,339,105330,5,2,0:0:0:0:
471,346,105416,1,2,0:0:0:0:
436,334,105502,1,2,0:0:0:0:
409,308,105589,1,2,0:0:0:0:
396,274,105675,1,2,1:2:0:0:
462,45,105847,1,10,0:0:0:0:
289,149,106020,1,2,1:2:0:0:
289,149,106106,1,2,0:0:0:0:
289,149,106192,1,2,1:2:0:0:
289,149,106537,6,0,P|226:131|173:116,1,90.4799994477539,10|2,0:0|0:0,0:0:0:0:
164,140,106796,1,2,0:0:0:0:
144,175,106882,1,2,0:0:0:0:
148,215,106968,1,2,0:0:0:0:
171,247,107054,1,2,1:2:0:0:
312,363,107227,1,8,0:0:0:0:
425,224,107399,5,2,0:0:0:0:
425,224,107485,1,2,0:0:0:0:
425,224,107571,2,0,L|437:288,1,45.239999723877,2|2,0:0|0:0,0:0:0:0:
309,93,107744,2,0,L|317:48,1,45.239999723877,2|0,1:2|0:0,0:0:0:0:
196,264,107916,1,10,0:0:0:0:
72,32,108089,5,2,0:0:0:0:
42,60,108175,1,2,0:0:0:0:
35,100,108261,1,2,0:0:0:0:
45,139,108347,1,2,0:0:0:0:
72,169,108433,1,2,1:2:0:0:
282,21,108606,1,10,0:0:0:0:
200,238,108778,1,2,1:2:0:0:
144,74,108951,6,0,P|198:87|256:104,1,90.4799994477539,2|0,1:2|0:0,0:0:0:0:
231,96,109296,1,2,0:0:0:0:
164,226,109468,2,0,P|207:213|251:203,1,90.4799994477539,0|2,1:2|0:0,0:0:0:0:
351,238,109813,1,2,0:0:0:0:
260,348,109985,2,0,P|304:358|347:370,1,90.4799994477539,0|2,1:2|0:0,0:0:0:0:
488,223,110330,5,2,1:2:0:0:
492,172,110416,1,0,1:2:0:0:
474,126,110502,1,0,1:2:0:0:
435,93,110589,1,0,1:2:0:0:
387,79,110675,1,2,1:2:0:0:
338,87,110761,1,0,1:2:0:0:
298,116,110847,1,2,1:2:0:0:
276,160,110933,1,0,1:2:0:0:
270,209,111020,1,0,1:2:0:0:
265,258,111106,1,0,1:2:0:0:
239,300,111192,1,2,1:2:0:0:
193,318,111278,1,0,1:2:0:0:
142,317,111365,1,2,1:2:0:0:
99,291,111451,1,0,1:2:0:0:
73,248,111537,1,2,1:2:0:0:
67,198,111623,1,0,1:2:0:0:
88,153,111709,5,6,0:0:0:0:
