osu file format v14

[General]
AudioFilename: audio.mp3
AudioLeadIn: 0
PreviewTime:64727
Countdown: 0
SampleSet: Soft
StackLeniency: 0.5
Mode: 0
LetterboxInBreaks: 0
WidescreenStoryboard: 1

[Editor]
DistanceSpacing: 1.1
BeatDivisor: 4
GridSize: 4
TimelineZoom: 1.38

[Metadata]
Title:Solace (Cut Ver.)
TitleUnicode:Solace (Cut Ver.)
Artist:Feint & Laura Brehm
ArtistUnicode:Feint & Laura Brehm
Creator:Kujinn
Version:A r M i N's Expert
Source:
Tags:Reform A_r_M_i_N Armin DnB Drum n and Bass edm monstercat english electronic
BeatmapID:2757180
BeatmapSetID:1330028

[Difficulty]
HPDrainRate:5.4
CircleSize:4
OverallDifficulty:8.5
ApproachRate:9.1
SliderMultiplier:1.7
SliderTickRate:1

[Events]
//Background and Video events
0,0,"Background.png",0,0
//Break Periods
//Storyboard Layer 0 (Background)
//Storyboard Layer 1 (Fail)
//Storyboard Layer 2 (Pass)
//Storyboard Layer 3 (Foreground)
//Storyboard Layer 4 (Overlay)
//Storyboard Sound Samples

[TimingPoints]
1365,344.827586206897,4,2,1,45,1,0
23433,-125,4,2,7,45,0,0
45502,-111.111111111111,4,2,7,65,0,0
56537,-100,4,2,7,75,0,0
67571,-100,4,2,1,85,0,1
89640,-125,4,2,1,65,0,0
89985,-100,4,2,1,75,0,0
111365,-66.6666666666667,4,2,1,75,0,0

[Colours]
Combo1 : 245,158,41
Combo2 : 79,65,126
Combo3 : 58,46,150
Combo4 : 54,123,226

[HitObjects]
256,192,20675,12,0,23433,0:0:0:0:
42,70,24123,5,2,0:0:0:0:
42,70,24296,2,0,L|108:58,1,68,2|0,0:0|0:0,0:0:0:0:
172,0,24640,2,0,L|148:133,1,136,2|0,0:0|0:0,0:0:0:0:
214,192,25158,1,2,0:0:0:0:
214,192,25330,2,0,L|237:325,1,136,2|0,0:0|0:0,0:0:0:0:
306,384,25847,1,2,0:0:0:0:
306,384,26020,2,0,P|376:366|335:271,1,204,2|2,0:0|0:0,0:0:0:0:
436,38,27227,5,2,0:0:0:0:
436,38,27399,2,0,P|458:100|430:159,1,136,2|0,0:0|0:0,0:0:0:0:
357,204,27916,2,0,B|261:190|261:190|251:194|251:194|156:180,1,204,2|0,0:0|0:0,0:0:0:0:
81,224,28606,2,0,P|53:283|76:346,1,136,2|0,0:0|0:0,0:0:0:0:
368,116,29640,6,0,P|308:87|246:110,1,136,2|2,0:0|0:0,0:0:0:0:
159,125,30158,2,0,P|245:111|204:33,1,204,2|2,0:0|0:0,0:0:0:0:
121,48,30847,2,0,L|155:248,1,204,2|2,0:0|0:0,0:0:0:0:
97,311,31537,2,0,B|152:225|152:225|233:286,1,204,2|2,0:0|0:0,0:0:0:0:
472,333,32571,6,0,P|442:316|408:318,1,68,2|2,0:0|0:0,0:0:0:0:
345,376,32916,2,0,L|368:241,1,136,2|2,0:0|0:0,0:0:0:0:
294,66,33606,2,0,P|271:129|299:188,2,136,2|2|2,0:0|0:0|0:0,0:0:0:0:
423,113,34468,6,0,L|357:125,1,68,0|0,1:2|0:0,0:0:0:0:
299,188,34813,2,0,L|232:176,1,68
170,117,35158,2,0,B|201:153|201:153|169:238,1,136,2|2,0:0|0:0,0:0:0:0:
97,282,35675,6,0,L|86:216,1,68,2|0,0:0|0:0,0:0:0:0:
181,302,36020,2,0,L|170:236,1,68,2|0,0:0|0:0,0:0:0:0:
338,330,36365,2,0,L|349:263,1,68,2|0,0:0|0:0,0:0:0:0:
254,350,36710,2,0,L|265:283,1,68,2|0,0:0|0:0,0:0:0:0:
431,236,37054,6,0,L|407:102,1,136,2|0,0:0|0:0,0:0:0:0:
349,37,37571,2,0,P|320:96|343:158,1,136,2|0,0:0|0:0,0:0:0:0:
300,234,38089,2,0,P|268:222|234:223,1,68,2|2,0:0|0:0,0:0:0:0:
130,326,38433,6,0,L|154:193,1,136,2|0,0:0|0:0,0:0:0:0:
53,50,38951,2,0,L|89:251,1,204,2|0,0:0|0:0,0:0:0:0:
228,149,39640,2,0,L|95:126,1,136,2|0,0:0|0:0,0:0:0:0:
415,35,40675,6,0,P|443:94|420:156,1,136,2|2,0:0|0:0,0:0:0:0:
344,196,41192,2,0,L|210:172,1,136,2|0,0:0|0:0,0:0:0:0:
134,133,41709,1,2,0:0:0:0:
134,133,41882,2,0,L|268:110,1,136,2|0,0:0|0:0,0:0:0:0:
350,83,42399,2,0,L|338:149,1,68,2|2,0:0|0:0,0:0:0:0:
433,101,42744,6,0,L|421:34,1,68
268,110,43089,2,0,L|244:243,1,136,2|0,0:0|0:0,0:0:0:0:
311,37,43778,1,2,0:0:0:0:
311,37,43951,2,0,L|244:25,1,68,2|0,0:0|0:0,0:0:0:0:
184,87,44296,2,0,L|117:98,1,68,2|0,0:0|0:0,0:0:0:0:
43,56,44640,6,0,L|49:22,2,34,2|8|8,0:0|0:0|0:0,0:0:0:0:
131,209,44985,1,10,0:0:0:0:
19,139,45158,1,8,0:0:0:0:
107,292,45330,1,10,0:0:0:0:
107,292,45416,1,8,0:0:0:0:
107,292,45502,6,0,L|182:278,1,76.4999976654053,4|0,1:2|0:0,0:0:0:0:
164,129,45847,1,0,0:0:0:0:
131,209,46020,1,8,0:0:0:0:
113,61,46192,2,0,P|147:45|185:46,1,76.4999976654053,2|0,0:0|0:0,0:0:0:0:
80,140,46537,2,0,P|49:117|30:84,1,76.4999976654053,8|0,0:0|0:0,0:0:0:0:
164,129,46882,5,2,0:0:0:0:
131,209,47054,2,0,P|98:224|58:223,1,76.4999976654053,8|0,0:0|0:0,0:0:0:0:
80,140,47399,1,0,0:0:0:0:
216,197,47571,5,10,0:0:0:0:
113,60,47744,1,8,0:0:0:0:
58,223,47916,1,8,0:0:0:0:
164,129,48089,1,8,0:0:0:0:
181,120,48175,1,8,0:0:0:0:
199,112,48261,6,0,P|241:114|273:132,1,76.4999976654053,10|0,0:0|0:0,0:0:0:0:
248,277,48606,1,2,0:0:0:0:
216,197,48778,1,8,0:0:0:0:
194,343,48951,2,0,P|227:360|265:361,1,76.4999976654053,2|0,0:0|0:0,0:0:0:0:
403,284,49296,2,0,L|330:304,1,76.4999976654053,10|0,0:0|0:0,0:0:0:0:
327,146,49640,6,0,L|347:220,1,76.4999976654053,2|8,0:0|0:0,0:0:0:0:
263,89,49985,2,0,L|243:162,1,76.4999976654053,2|0,0:0|0:0,0:0:0:0:
344,62,50330,1,10,0:0:0:0:
206,25,50502,1,8,0:0:0:0:
327,146,50675,2,0,P|362:146|399:128,1,76.4999976654053,8|0,0:0|0:0,0:0:0:0:
263,89,51020,6,0,L|243:162,1,76.4999976654053,8|0,0:0|0:0,0:0:0:0:
97,132,51365,1,0,0:0:0:0:
179,105,51537,1,8,0:0:0:0:
80,216,51709,2,0,P|46:202|21:171,1,76.4999976654053,2|0,0:0|0:0,0:0:0:0:
161,189,52054,2,0,L|181:262,1,76.4999976654053,8|0,0:0|0:0,0:0:0:0:
243,162,52399,5,2,0:0:0:0:
179,105,52571,2,0,P|140:106|104:125,1,76.4999976654053,8|0,0:0|0:0,0:0:0:0:
161,189,52916,1,0,0:0:0:0:
260,77,53089,5,10,0:0:0:0:
224,247,53261,1,8,0:0:0:0:
98,131,53433,1,8,0:0:0:0:
243,162,53606,1,8,0:0:0:0:
261,161,53692,1,8,0:0:0:0:
281,160,53778,6,0,P|316:142|340:107,1,76.4999976654053,10|0,0:0|0:0,0:0:0:0:
196,20,54123,1,2,0:0:0:0:
179,105,54296,1,8,0:0:0:0:
42,27,54468,2,0,L|115:47,1,76.4999976654053,2|0,0:0|0:0,0:0:0:0:
148,185,54813,2,0,P|116:163|98:131,1,76.4999976654053,10|0,0:0|0:0,0:0:0:0:
233,172,55158,5,2,0:0:0:0:
202,252,55330,1,8,0:0:0:0:
307,312,55502,2,0,L|287:239,1,76.4999976654053
148,185,55847,1,10,0:0:0:0:
170,332,56020,1,8,0:0:0:0:
233,172,56192,1,8,0:0:0:0:
249,161,56278,1,8,0:0:0:0:
267,155,56364,1,8,0:0:0:0:
285,152,56450,1,8,0:0:0:0:
304,154,56536,5,8,0:0:0:0:
432,272,56709,1,0,1:2:0:0:
387,130,56882,1,0,1:2:0:0:
287,239,57054,1,8,0:0:0:0:
325,71,57227,1,2,1:2:0:0:
369,214,57399,1,0,1:2:0:0:
467,100,57571,2,0,P|444:65|407:46,1,85,8|0,0:0|1:2,0:0:0:0:
243,95,57916,5,2,1:2:0:0:
387,130,58089,1,8,0:0:0:0:
226,179,58261,2,0,P|188:161|161:117,1,85,0|0,1:2|1:2,0:0:0:0:
325,71,58606,5,10,0:0:0:0:
236,264,58778,1,8,0:0:0:0:
387,130,58951,1,8,0:0:0:0:
298,323,59123,1,8,0:0:0:0:
282,334,59209,1,8,0:0:0:0:
266,345,59296,6,0,P|223:349|176:325,1,85,10|0,0:0|1:2,0:0:0:0:
118,175,59640,1,2,1:2:0:0:
236,264,59813,1,8,0:0:0:0:
169,106,59985,1,2,1:2:0:0:
66,244,60158,1,0,1:2:0:0:
203,184,60330,2,0,P|244:178|284:193,1,85,10|0,0:0|1:2,0:0:0:0:
221,37,60675,5,2,1:2:0:0:
118,175,60848,1,8,0:0:0:0:
53,11,61020,2,0,L|137:26,1,85,2|0,1:2|1:2,0:0:0:0:
288,195,61365,1,10,0:0:0:0:
84,95,61537,1,8,0:0:0:0:
236,264,61709,1,8,0:0:0:0:
221,37,61882,1,0,1:2:0:0:
151,254,62054,5,8,1:2:0:0:
288,195,62227,1,8,1:2:0:0:
169,107,62399,1,8,1:2:0:0:
236,264,62571,1,8,1:2:0:0:
339,128,62744,5,10,1:2:0:0:
270,344,62916,1,8,1:2:0:0:
254,117,63089,1,8,1:2:0:0:
407,283,63261,1,8,1:2:0:0:
306,48,63433,5,10,1:2:0:0:
236,264,63606,1,8,1:2:0:0:
391,59,63778,1,8,1:2:0:0:
492,294,63950,1,8,1:2:0:0:
254,117,64123,5,10,1:2:0:0:
356,351,64296,1,8,1:2:0:0:
306,48,64468,1,8,1:2:0:0:
185,333,64640,1,8,1:2:0:0:
339,128,64813,5,2,1:2:0:0:
369,117,64899,1,0,1:2:0:0:
400,119,64985,1,0,1:2:0:0:
429,132,65071,1,0,1:2:0:0:
451,155,65158,6,0,L|441:196,1,42.5,2|0,1:2|1:2,0:0:0:0:
498,262,65330,2,0,L|507:303,1,42.5,0|0,1:2|1:2,0:0:0:0:
364,233,65502,2,0,L|354:274,1,42.5,2|0,1:2|1:2,0:0:0:0:
411,340,65674,2,0,L|420:381,1,42.5,0|0,1:2|1:2,0:0:0:0:
278,235,65847,6,0,L|236:225,3,42.5,2|0|0|0,1:2|1:2|1:2|1:2,0:0:0:0:
238,312,66192,5,6,1:2:0:0:
319,159,66365,1,0,1:2:0:0:
163,270,66537,1,10,0:0:0:0:
244,117,66709,5,8,0:0:0:0:
256,99,66796,1,8,0:0:0:0:
272,86,66882,1,2,0:0:0:0:
291,76,66968,1,8,0:0:0:0:
312,72,67054,1,8,0:0:0:0:
333,73,67141,1,8,0:0:0:0:
353,79,67227,5,2,1:2:0:0:
424,264,67399,1,0,1:2:0:0:
424,264,67485,1,0,1:2:0:0:
424,264,67571,6,0,L|341:242,1,85,4|0,1:2|0:0,0:0:0:0:
198,280,67916,1,10,0:0:0:0:
319,159,68089,1,2,0:0:0:0:
364,325,68261,1,2,0:0:0:0:
237,138,68433,1,2,1:2:0:0:
140,343,68606,2,0,P|176:363|219:364,1,85,10|0,0:0|0:0,0:0:0:0:
342,242,68951,5,0,0:0:0:0:
198,280,69123,1,0,1:2:0:0:
319,159,69296,2,0,P|361:157|398:177,1,85,8|0,0:0|0:0,0:0:0:0:
216,54,69640,1,2,0:0:0:0:
259,221,69813,1,2,1:2:0:0:
375,94,69985,1,10,0:0:0:0:
237,138,70158,1,2,0:0:0:0:
403,176,70330,6,0,P|437:198|459:239,1,85,2|0,1:2|0:0,0:0:0:0:
279,339,70675,1,10,0:0:0:0:
319,159,70847,1,2,0:0:0:0:
363,356,71020,1,2,0:0:0:0:
259,221,71192,1,2,1:2:0:0:
203,378,71365,2,0,L|120:356,1,85,10|0,0:0|0:0,0:0:0:0:
77,188,71709,5,0,0:0:0:0:
181,295,71881,1,0,1:2:0:0:
137,126,72054,2,0,L|48:103,1,85,8|0,0:0|0:0,0:0:0:0:
196,63,72399,1,2,0:0:0:0:
259,221,72571,1,2,1:2:0:0:
137,126,72744,1,10,0:0:0:0:
100,273,72916,1,2,1:2:0:0:
220,145,73089,6,0,P|258:136|307:150,1,85,2|0,1:2|0:0,0:0:0:0:
431,222,73433,1,10,0:0:0:0:
345,73,73606,1,2,0:0:0:0:
259,221,73778,1,2,0:0:0:0:
301,0,73951,1,2,1:2:0:0:
470,126,74123,2,0,L|388:148,1,85,10|0,0:0|0:0,0:0:0:0:
217,296,74468,5,0,0:0:0:0:
302,147,74640,1,0,1:2:0:0:
383,299,74813,2,0,P|342:308|301:295,1,85,8|0,0:0|0:0,0:0:0:0:
388,148,75158,1,2,0:0:0:0:
469,298,75330,1,2,1:2:0:0:
345,222,75502,1,10,0:0:0:0:
303,383,75675,1,2,1:2:0:0:
219,168,75847,6,0,L|302:147,1,85,2|0,1:2|0:0,0:0:0:0:
134,274,76192,2,0,L|216:295,1,85,10|0,0:0|0:0,0:0:0:0:
152,115,76537,1,2,0:0:0:0:
53,299,76709,1,0,1:2:0:0:
92,55,76882,2,0,P|123:34|169:31,1,85,10|0,0:0|0:0,0:0:0:0:
301,189,77227,6,0,L|219:168,1,85,2|0,0:0|1:2,0:0:0:0:
423,137,77571,2,0,L|444:219,1,85,10|0,0:0|0:0,0:0:0:0:
327,92,77916,1,2,0:0:0:0:
512,57,78089,1,0,1:2:0:0:
507,77,78175,1,0,1:2:0:0:
502,98,78261,1,10,0:0:0:0:
367,15,78433,1,0,1:2:0:0:
300,188,78606,6,0,L|218:167,1,85,4|0,1:2|0:0,0:0:0:0:
74,207,78951,1,10,0:0:0:0:
195,85,79123,1,2,0:0:0:0:
241,251,79296,1,2,0:0:0:0:
112,65,79468,1,2,1:2:0:0:
15,269,79640,2,0,L|97:290,1,85,10|0,0:0|0:0,0:0:0:0:
218,167,79985,5,0,0:0:0:0:
74,207,80158,1,0,1:2:0:0:
194,85,80330,2,0,P|237:83|274:103,1,85,8|0,0:0|0:0,0:0:0:0:
409,232,80675,1,2,0:0:0:0:
353,69,80847,1,2,1:2:0:0:
245,249,81020,1,10,0:0:0:0:
274,103,81192,1,2,0:0:0:0:
350,294,81365,6,0,L|432:315,1,85,2|0,1:2|0:0,0:0:0:0:
326,211,81709,1,10,0:0:0:0:
288,354,81882,1,2,0:0:0:0:
255,164,82054,1,2,0:0:0:0:
204,368,82227,1,2,1:2:0:0:
326,211,82399,2,0,L|408:190,1,85,10|0,0:0|0:0,0:0:0:0:
276,82,82744,5,0,0:0:0:0:
250,250,82916,1,0,1:2:0:0:
133,122,83089,2,0,L|215:143,1,85,8|0,0:0|0:0,0:0:0:0:
111,39,83433,1,2,0:0:0:0:
74,185,83606,1,2,1:2:0:0:
194,59,83778,1,10,0:0:0:0:
157,205,83951,1,2,1:2:0:0:
276,82,84123,6,0,P|319:80|356:100,1,85,2|0,1:2|0:0,0:0:0:0:
454,239,84468,1,10,0:0:0:0:
435,70,84640,1,2,0:0:0:0:
300,165,84813,1,2,0:0:0:0:
370,14,84985,1,2,1:2:0:0:
217,145,85158,2,0,P|218:190|238:224,1,85,10|0,0:0|0:0,0:0:0:0:
341,332,85502,5,0,0:0:0:0:
300,165,85675,1,0,1:2:0:0:
176,283,85847,2,0,L|94:262,1,85,8|0,0:0|0:0,0:0:0:0:
219,139,86192,1,2,0:0:0:0:
258,308,86365,1,2,1:2:0:0:
300,165,86537,1,10,0:0:0:0:
176,283,86709,1,2,1:2:0:0:
280,81,86882,6,0,P|323:81|359:103,1,85,2|0,1:2|0:0,0:0:0:0:
156,197,87227,2,0,P|135:160|136:118,1,85,10|0,0:0|0:0,0:0:0:0:
320,249,87571,1,2,0:0:0:0:
117,345,87744,1,0,1:2:0:0:
219,139,87916,2,0,L|238:221,1,85,10|0,0:0|0:0,0:0:0:0:
72,61,88261,6,0,L|53:143,1,85,2|0,0:0|1:2,0:0:0:0:
281,81,88606,2,0,P|250:59|204:55,1,85,10|0,0:0|0:0,0:0:0:0:
260,214,88951,1,2,0:0:0:0:
367,85,89123,1,0,1:2:0:0:
362,64,89209,1,0,1:2:0:0:
358,44,89295,1,8,0:0:0:0:
219,139,89468,1,0,1:2:0:0:
431,144,89640,6,0,P|453:112|450:70,1,68,0|0,1:2|0:0,0:0:0:0:
304,140,89985,6,0,L|322:226,1,85,14|2,0:0|0:0,0:0:0:0:
379,316,90244,1,2,0:0:0:0:
379,316,90330,2,0,L|338:308,1,42.5,2|2,0:0|0:0,0:0:0:0:
398,193,90502,2,0,L|407:235,1,42.5,2|0,1:2|0:0,0:0:0:0:
257,280,90675,2,0,L|173:297,1,85,8|2,0:0|0:0,0:0:0:0:
113,243,90933,1,2,0:0:0:0:
113,243,91020,6,0,P|150:262|173:297,1,85,2|2,0:0|1:2,0:0:0:0:
224,135,91365,1,8,0:0:0:0:
158,80,91537,1,2,0:0:0:0:
146,97,91623,1,2,0:0:0:0:
139,117,91709,1,2,0:0:0:0:
137,139,91795,1,2,0:0:0:0:
141,160,91881,1,2,1:2:0:0:
306,106,92054,2,0,P|282:71|245:51,1,85,10|2,0:0|0:0,0:0:0:0:
126,244,92399,6,0,P|167:240|203:218,1,85,2|0,1:2|0:0,0:0:0:0:
42,105,92744,2,0,L|60:189,1,85,10|2,0:2|0:0,0:0:0:0:
130,248,93002,1,2,0:0:0:0:
130,248,93089,2,0,L|138:206,1,42.5,2|2,0:0|0:0,0:0:0:0:
56,314,93261,2,0,L|48:273,1,42.5,2|0,1:2|0:0,0:0:0:0:
139,334,93433,2,0,L|223:352,1,85,8|2,0:0|0:0,0:0:0:0:
303,326,93692,1,2,0:0:0:0:
303,326,93778,6,0,L|219:308,1,85,2|2,0:0|1:2,0:0:0:0:
329,186,94123,1,10,0:0:0:0:
267,126,94296,1,2,0:0:0:0:
263,105,94382,1,2,0:0:0:0:
265,83,94468,1,2,0:0:0:0:
272,63,94554,1,2,0:0:0:0:
284,46,94640,1,2,1:2:0:0:
462,0,94813,1,10,0:0:0:0:
349,102,94985,1,2,1:2:0:0:
497,169,95158,6,0,L|479:85,1,85,2|0,1:2|0:0,0:0:0:0:
329,186,95502,2,0,P|326:227|345:264,1,85,10|2,0:0|0:0,0:0:0:0:
431,295,95761,1,2,0:0:0:0:
431,295,95847,2,0,L|472:303,1,42.5,2|2,0:0|0:0,0:0:0:0:
364,349,96020,2,0,L|323:357,1,42.5,2|0,1:2|0:0,0:0:0:0:
412,210,96192,2,0,L|394:126,1,85,8|2,0:0|0:0,0:0:0:0:
459,71,96451,1,2,0:0:0:0:
459,71,96537,6,0,P|478:109|477:151,1,85,2|2,0:0|1:2,0:0:0:0:
304,103,96882,1,10,0:0:0:0:
376,43,97054,1,2,0:0:0:0:
380,64,97140,1,2,0:0:0:0:
385,85,97226,1,2,0:0:0:0:
389,106,97312,1,2,0:0:0:0:
394,127,97398,1,2,1:2:0:0:
244,165,97571,1,10,0:0:0:0:
294,17,97744,1,2,1:2:0:0:
177,113,97916,6,0,P|159:159|168:203,1,85,2|0,1:2|0:0,0:0:0:0:
345,313,98261,2,0,L|327:229,1,85,10|2,0:0|0:0,0:0:0:0:
250,190,98520,1,2,0:0:0:0:
250,190,98606,2,0,L|240:232,1,42.5,2|2,0:0|0:0,0:0:0:0:
323,143,98778,2,0,L|313:101,1,42.5,2|0,1:2|0:0,0:0:0:0:
399,183,98951,2,0,L|483:201,1,85,8|2,0:0|0:0,0:0:0:0:
451,121,99209,1,2,0:0:0:0:
451,121,99296,6,0,P|417:145|399:183,1,85,2|2,0:0|1:2,0:0:0:0:
447,327,99640,1,10,0:0:0:0:
328,230,99813,1,2,0:0:0:0:
307,234,99899,1,2,0:0:0:0:
286,239,99985,1,2,0:0:0:0:
265,243,100071,1,2,0:0:0:0:
244,248,100158,2,0,L|202:257,1,42.5,2|0,1:2|1:2,0:0:0:0:
56,187,100330,2,0,P|98:183|137:201,1,85,10|2,0:0|1:2,0:0:0:0:
103,354,100675,6,0,L|85:270,1,85,0|2,1:2|0:0,0:0:0:0:
218,172,101020,2,0,L|236:88,1,85,10|2,0:0|0:0,0:0:0:0:
117,64,101278,1,2,0:0:0:0:
117,64,101365,2,0,L|149:93,1,42.5,2|2,0:0|0:0,0:0:0:0:
229,2,101537,2,0,L|189:16,1,42.5,2|0,1:2|0:0,0:0:0:0:
300,147,101709,2,0,L|380:120,1,85,8|2,0:0|0:0,0:0:0:0:
407,40,101968,1,2,0:0:0:0:
407,40,102054,6,0,L|380:120,1,85,2|2,0:0|1:2,0:0:0:0:
410,278,102399,1,10,0:0:0:0:
488,245,102572,1,2,0:0:0:0:
478,226,102658,1,2,0:0:0:0:
464,211,102744,1,2,0:0:0:0:
446,200,102830,1,2,0:0:0:0:
426,194,102916,1,2,1:2:0:0:
403,364,103089,2,0,P|444:356|478:331,1,85,10|2,0:0|0:0,0:0:0:0:
345,221,103433,6,0,L|261:239,1,85,2|0,1:2|0:0,0:0:0:0:
98,212,103778,2,0,P|139:207|178:225,1,85,10|2,0:0|0:0,0:0:0:0:
233,159,104037,1,2,0:0:0:0:
233,159,104123,2,0,L|224:117,1,42.5,2|2,0:0|0:0,0:0:0:0:
147,80,104296,2,0,L|138:122,1,42.5,2|0,1:2|0:0,0:0:0:0:
320,165,104468,2,0,L|302:81,1,85,8|2,0:0|0:0,0:0:0:0:
355,14,104727,1,2,0:0:0:0:
355,14,104813,6,0,P|381:48|388:89,1,85,2|2,0:0|1:2,0:0:0:0:
347,248,105158,2,0,L|263:230,1,85,10|2,0:0|0:0,0:0:0:0:
181,234,105416,1,2,0:0:0:0:
181,234,105502,2,0,L|190:276,1,42.5,2|2,0:0|0:0,0:0:0:0:
273,188,105675,2,0,L|264:230,1,42.5,2|0,1:2|0:0,0:0:0:0:
218,81,105847,1,10,0:0:0:0:
354,162,106020,1,2,1:2:0:0:
284,26,106192,6,0,P|252:2|207:-4,1,85,2|0,1:2|0:0,0:0:0:0:
55,64,106537,2,0,L|139:46,1,85,10|2,0:0|0:0,0:0:0:0:
222,85,106796,1,2,0:0:0:0:
222,85,106882,2,0,L|212:127,1,42.5,2|2,0:0|0:0,0:0:0:0:
136,167,107054,2,0,L|126:125,1,42.5,2|0,1:2|0:0,0:0:0:0:
298,124,107227,2,0,L|382:142,1,85,8|2,0:0|0:0,0:0:0:0:
439,206,107485,1,2,0:0:0:0:
439,206,107571,6,0,L|355:224,1,85,2|2,0:0|1:2,0:0:0:0:
227,326,107916,2,0,P|261:301|277:263,1,85,10|2,0:0|0:0,0:0:0:0:
201,204,108175,1,2,0:0:0:0:
202,204,108261,2,0,L|193:245,1,42.5,2|2,0:0|0:0,0:0:0:0:
274,135,108433,2,0,L|282:176,1,42.5,2|0,1:2|0:0,0:0:0:0:
414,288,108606,1,10,0:0:0:0:
381,141,108778,1,2,1:2:0:0:
277,263,108951,6,0,L|193:245,1,85,2|0,1:2|0:0,0:0:0:0:
94,135,109296,2,0,L|112:219,1,85,2|0,0:0|1:2,0:0:0:0:
176,161,109640,1,2,0:0:0:0:
31,78,109813,2,0,P|11:115|13:162,1,85,2|0,0:0|1:2,0:0:0:0:
157,77,110158,1,2,0:0:0:0:
194,245,110330,5,2,1:2:0:0:
214,238,110416,1,0,1:2:0:0:
231,226,110502,1,0,1:2:0:0:
245,210,110588,1,0,1:2:0:0:
255,191,110674,1,2,1:2:0:0:
112,218,110847,5,2,1:2:0:0:
108,249,110933,1,0,1:2:0:0:
115,280,111019,1,0,1:2:0:0:
133,306,111105,1,0,1:2:0:0:
159,324,111191,1,2,1:2:0:0:
176,161,111365,6,0,P|153:142|112:132,1,63.7500024318696,2|0,1:2|1:2,0:0:0:0:
43,168,111537,2,0,P|29:194|29:236,1,63.7500024318696,2|0,1:2|1:2,0:0:0:0:
52,82,111709,5,6,0:0:0:0:
