osu file format v14

[General]
AudioFilename: time bomb.mp3
AudioLeadIn: 0
PreviewTime: 131735
Countdown: 0
SampleSet: Normal
StackLeniency: 0.7
Mode: 0
LetterboxInBreaks: 0
WidescreenStoryboard: 1

[Editor]
DistanceSpacing: 1
BeatDivisor: 4
GridSize: 32
TimelineZoom: 1.6

[Metadata]
Title:Time Bomb (feat. Veela)
TitleUnicode:Time Bomb (feat. Veela)
Artist:Feint & Boyinaband
ArtistUnicode:Feint & Boyinaband
Creator:Naitsirk
Version:Time Freeze
Source:
Tags:dnb d&b d'n'b drum and n' bass monstercat 007 solace ft. icebolt
BeatmapID:1384287
BeatmapSetID:652909

[Difficulty]
HPDrainRate:6
CircleSize:4
OverallDifficulty:8.7
ApproachRate:9.2
SliderMultiplier:1.5
SliderTickRate:1

[Events]
//Background and Video events
0,0,"time bomb.jpg",0,0
//Break Periods
2,88135,98306
//Storyboard Layer 0 (Background)
//Storyboard Layer 1 (Fail)
//Storyboard Layer 2 (Pass)
//Storyboard Layer 3 (Foreground)
//Storyboard Sound Samples

[TimingPoints]
164,342.857142857143,4,2,1,50,1,0
38564,-100,4,2,1,55,0,0
42678,-133.333333333333,4,2,1,60,0,0
43364,-200,4,2,1,60,0,0
44049,-80,4,1,1,70,0,1
44392,-80,4,1,1,70,0,0
64621,-100,4,2,1,40,0,0
65992,-80,4,1,1,70,0,1
87935,-80,4,1,1,60,0,0
98906,-100,4,2,1,50,0,0
104392,-100,4,2,1,55,0,0
109192,-200,4,2,1,60,0,0
109878,-80,4,1,1,70,0,1
110221,-80,4,1,1,70,0,0
130449,-100,4,2,1,40,0,0
131821,-80,4,1,1,70,0,1
151021,-100,4,1,1,70,0,1
152392,-100,4,1,1,70,0,0
153764,-80,4,1,1,70,0,0
175706,-100,4,1,1,70,0,0

[Colours]
Combo1 : 248,193,0
Combo2 : 255,76,0
Combo3 : 255,138,21
SliderBorder : 255,127,0

[HitObjects]
66,153,22106,6,0,L|71:241,1,75,6|0,0:0|0:0,0:0:0:0:
78,325,22449,1,8,0:0:0:0:
156,258,22621,1,0,0:0:0:0:
185,235,22706,1,0,0:0:0:0:
221,225,22792,1,0,0:0:0:0:
258,230,22878,1,0,0:0:0:0:
290,249,22963,1,4,0:0:0:0:
393,295,23135,2,0,P|430:301|474:289,1,75,8|0,0:0|0:0,0:0:0:0:
433,116,23478,5,6,0:0:0:0:
430,208,23649,1,0,0:0:0:0:
344,89,23821,1,8,0:0:0:0:
341,181,23992,1,0,0:0:0:0:
255,61,24164,2,0,P|195:105|122:99,1,150,0|8,0:0|0:0,0:0:0:0:
38,64,24678,1,0,0:0:0:0:
97,237,24849,6,0,B|129:199|129:199|122:99,1,150,6|8,0:0|0:0,0:0:0:0:
15,180,25364,1,0,0:0:0:0:
1,214,25449,1,0,0:0:0:0:
1,252,25535,1,0,0:0:0:0:
14,287,25621,1,0,0:0:0:0:
38,315,25706,1,4,0:0:0:0:
159,310,25878,2,0,L|247:305,1,75,8|0,0:0|0:0,0:0:0:0:
347,189,26221,5,6,0:0:0:0:
332,285,26392,1,0,0:0:0:0:
443,204,26564,1,8,0:0:0:0:
428,300,26735,1,0,0:0:0:0:
347,189,26906,2,0,P|384:126|459:107,1,150,0|8,0:0|0:0,0:0:0:0:
443,204,27421,1,0,0:0:0:0:
341,49,27592,6,0,P|288:102|261:172,1,150,6|8,0:0|0:0,0:0:0:0:
332,285,28106,1,0,0:0:0:0:
299,265,28191,1,0,0:0:0:0:
262,260,28277,1,0,0:0:0:0:
226,272,28363,1,0,0:0:0:0:
198,296,28448,1,4,0:0:0:0:
106,320,28621,2,0,P|99:283|105:246,1,75,8|0,0:0|0:0,0:0:0:0:
146,76,28964,5,6,0:0:0:0:
177,167,29135,1,0,0:0:0:0:
241,65,29306,1,8,0:0:0:0:
272,156,29477,1,0,0:0:0:0:
336,76,29649,2,0,P|367:119|353:216,1,150,0|8,0:0|0:0,0:0:0:0:
265,255,30164,1,0,0:0:0:0:
429,346,30335,6,0,B|404:333|380:333|356:346|356:346|332:358|308:358|284:346,1,150,6|8,0:0|0:0,0:0:0:0:
121,255,30849,2,0,B|145:267|169:267|193:255|193:255|217:242|241:242|265:255,1,150,0|4,0:0|0:0,0:0:0:0:
109,342,31364,2,0,P|73:330|49:301,1,75,8|0,0:0|0:0,0:0:0:0:
101,113,31706,6,0,B|128:153|128:153|119:274,1,150,6|8,0:0|0:0,0:0:0:0:
19,136,32221,2,0,P|19:83|128:43,1,150,0|4,0:0|0:0,0:0:0:0:
238,61,32735,2,0,P|202:71|165:65,1,75,8|0,0:0|0:0,0:0:0:0:
317,222,33078,6,0,L|311:147,1,75,6|0,0:0|0:0,0:0:0:0:
386,56,33421,1,8,0:0:0:0:
480,115,33592,1,0,0:0:0:0:
483,152,33677,1,0,0:0:0:0:
486,190,33763,1,0,0:0:0:0:
489,227,33849,1,0,0:0:0:0:
492,265,33934,1,4,0:0:0:0:
393,319,34106,2,0,P|357:309|322:320,1,75,8|0,0:0|0:0,0:0:0:0:
207,193,34449,5,6,0:0:0:0:
317,222,34621,1,0,0:0:0:0:
211,292,34792,1,8,0:0:0:0:
322,320,34964,1,0,0:0:0:0:
424,273,35135,2,0,L|411:104,1,150,0|8,0:0|0:0,0:0:0:0:
332,44,35649,1,0,0:0:0:0:
207,193,35821,5,6,0:0:0:0:
158,91,35992,2,0,L|232:96,1,75,0|8,0:0|0:0,0:0:0:0:
296,189,36335,1,0,0:0:0:0:
291,225,36420,1,0,0:0:0:0:
272,257,36506,1,0,0:0:0:0:
240,277,36592,1,0,0:0:0:0:
203,282,36677,1,4,0:0:0:0:
132,187,36849,2,0,L|206:192,1,75,8|0,0:0|0:0,0:0:0:0:
94,323,37192,5,6,0:0:0:0:
27,232,37364,1,0,0:0:0:0:
132,187,37535,1,8,0:0:0:0:
65,96,37707,1,0,0:0:0:0:
170,51,37878,2,0,L|329:63,1,150,0|8,0:0|0:0,0:0:0:0:
432,72,38392,1,0,0:0:0:0:
391,272,38564,6,0,B|364:232|364:232|371:130,1,150,6|8,0:0|0:0,0:0:0:0:
464,236,39078,1,0,0:0:0:0:
473,273,39163,1,0,0:0:0:0:
465,309,39249,1,0,0:0:0:0:
442,338,39335,1,0,0:0:0:0:
408,353,39420,1,4,0:0:0:0:
280,343,39592,2,0,L|205:337,1,75,8|0,0:0|0:0,0:0:0:0:
7,217,39935,5,6,0:0:0:0:
84,318,40106,1,0,0:0:0:0:
161,217,40278,1,8,0:0:0:0:
84,116,40449,1,0,0:0:0:0:
161,217,40621,2,0,L|326:222,1,150,0|8,0:0|0:0,0:0:0:0:
424,281,41135,1,0,0:0:0:0:
393,52,41306,6,0,B|406:76|406:100|393:124|393:124|381:148|381:172|393:196,1,150,6|8,0:0|0:0,0:0:0:0:
194,104,41821,2,0,P|258:61|326:89,1,150,0|4,0:0|0:0,0:0:0:0:
272,219,42335,2,0,L|266:145,1,75,8|0,0:0|0:0,0:0:0:0:
223,292,42678,6,0,P|275:310|325:287,1,112.500004291535,6|8,0:0|0:0,0:0:0:0:
266,145,43192,1,0,0:0:0:0:
110,202,43364,6,0,L|185:199,1,75
297,252,44049,6,0,L|305:127,1,93.75,6|0,0:0|0:0,0:0:0:0:
389,293,44392,1,8,0:0:0:0:
202,362,44564,2,0,L|197:267,1,93.75,2|0,0:0|0:0,0:0:0:0:
188,91,44906,1,6,0:0:0:0:
91,289,45078,2,0,P|45:299|-1:291,1,93.75,8|0,0:0|0:0,0:0:0:0:
45,101,45421,6,0,P|35:147|51:205,1,93.75,6|0,0:0|0:0,0:0:0:0:
263,126,45764,2,0,P|182:88|115:146,1,187.5,10|0,0:0|0:0,0:0:0:0:
293,213,46278,1,6,0:0:0:0:
241,21,46449,2,0,P|195:11|137:27,1,93.75,8|0,0:0|0:0,0:0:0:0:
354,138,46792,6,0,L|361:45,1,93.75,6|0,0:0|0:0,0:0:0:0:
277,312,47135,2,0,L|262:125,1,187.5,10|0,0:0|0:0,0:0:0:0:
178,287,47649,1,6,0:0:0:0:
369,348,47821,2,0,L|362:255,1,93.75,10|0,0:0|0:0,0:0:0:0:
159,172,48164,5,2,0:0:0:0:
212,367,48335,1,4,0:0:0:0:
243,142,48506,2,0,P|175:84|88:120,1,187.5,10|0,0:0|0:0,0:0:0:0:
87,226,49021,1,6,0:0:0:0:
44,27,49192,1,10,0:0:0:0:
243,142,49364,1,0,0:0:0:0:
131,315,49535,6,0,P|85:324|39:314,1,93.75,6|0,0:0|0:0,0:0:0:0:
159,172,49878,1,10,0:0:0:0:
259,326,50049,2,0,P|247:279|255:233,1,93.75
331,147,50392,1,6,0:0:0:0:
463,329,50564,2,0,P|417:338|371:328,1,93.75,10|0,0:0|0:0,0:0:0:0:
418,96,50906,6,0,P|429:141|421:187,1,93.75,6|0,0:0|0:0,0:0:0:0:
188,94,51249,2,0,P|275:77|331:147,1,187.5,10|0,0:0|0:0,0:0:0:0:
331,147,51678,1,2,0:0:0:0:
331,147,51764,1,6,0:0:0:0:
107,154,51935,1,10,0:0:0:0:
219,240,52106,1,0,0:0:0:0:
94,348,52278,6,0,L|101:255,1,93.75,6|0,0:0|0:0,0:0:0:0:
363,293,52621,2,0,P|275:309|219:240,1,187.5,10|0,0:0|0:0,0:0:0:0:
338,155,53135,1,2,0:0:0:0:
437,340,53306,2,0,P|447:294|437:249,1,93.75,10|0,0:0|0:0,0:0:0:0:
219,240,53649,5,2,0:0:0:0:
229,95,53821,1,4,0:0:0:0:
219,240,53992,2,0,L|212:333,1,93.75,10|0,0:0|0:0,0:0:0:0:
92,205,54335,5,2,0:0:0:0:
69,27,54506,1,6,0:0:0:0:
219,240,54678,1,10,0:0:0:0:
25,318,54849,1,2,0:0:0:0:
138,93,55021,6,0,P|183:84|229:95,1,93.75,6|0,0:0|0:0,0:0:0:0:
331,222,55364,2,0,P|243:238|187:168,1,187.5,10|0,0:0|0:0,0:0:0:0:
342,104,55878,1,6,0:0:0:0:
399,318,56049,1,8,0:0:0:0:
66,61,56392,6,0,L|59:154,1,93.75,6|0,0:0|0:0,0:0:0:0:
172,314,56735,2,0,L|184:126,1,187.5,10|0,0:0|0:0,0:0:0:0:
286,276,57249,1,6,0:0:0:0:
58,353,57421,1,8,0:0:0:0:
184,126,57764,6,0,P|229:135|275:124,1,93.75,6|0,0:0|0:0,0:0:0:0:
392,291,58106,2,0,P|356:207|390:122,1,187.5,10|0,0:0|0:0,0:0:0:0:
481,206,58621,1,6,0:0:0:0:
324,47,58792,2,0,P|278:38|233:48,1,93.75,10|0,0:0|0:0,0:0:0:0:
256,207,59135,5,2,0:0:0:0:
390,122,59306,1,4,0:0:0:0:
183,126,59478,2,0,P|146:209|184:293,1,187.5,10|0,0:0|0:0,0:0:0:0:
348,211,59992,1,6,0:0:0:0:
183,126,60164,2,0,L|89:132,1,93.75,10|0,0:0|0:0,0:0:0:0:
348,211,60506,6,0,L|342:305,1,93.75,6|0,0:0|0:0,0:0:0:0:
472,23,60849,2,0,L|484:210,1,187.5,10|0,0:0|0:0,0:0:0:0:
500,370,61364,1,6,0:0:0:0:
348,211,61535,2,0,L|354:117,1,93.75,10|0,0:0|0:0,0:0:0:0:
138,251,61878,6,0,P|184:260|230:251,1,93.75,6|0,0:0|0:0,0:0:0:0:
15,125,62221,2,0,P|99:88|183:125,1,187.5,10|0,0:0|0:0,0:0:0:0:
182,123,62649,1,2,0:0:0:0:
182,123,62735,1,6,0:0:0:0:
41,14,62906,1,10,0:0:0:0:
100,176,63078,1,0,0:0:0:0:
269,178,63249,6,0,P|277:132|267:87,1,93.75,6|0,0:0|0:0,0:0:0:0:
182,252,63592,2,0,P|266:288|350:252,1,187.5,10|0,0:0|0:0,0:0:0:0:
370,85,64106,1,6,0:0:0:0:
185,34,64278,2,0,P|174:79|183:124,1,93.75,10|0,0:0|0:0,0:0:0:0:
269,178,64621,6,0,L|363:172,1,75,10|0,2:0|0:0,0:0:0:0:
424,247,64964,2,0,L|349:251,1,75,10|0,2:0|0:0,0:0:0:0:
269,178,65306,1,0,0:0:0:0:
282,334,65478,1,10,0:0:0:0:
202,261,65649,1,0,0:0:0:0:
349,251,65821,1,0,0:0:0:0:
185,34,65992,6,0,P|173:79|179:125,1,93.75,4|0,0:0|0:0,0:0:0:0:
365,18,66335,1,8,0:0:0:0:
349,251,66506,1,0,0:0:0:0:
264,91,66678,1,0,0:0:0:0:
458,182,66849,1,4,0:0:0:0:
227,273,67021,1,8,0:0:0:0:
411,101,67192,6,0,P|456:92|502:102,1,93.75,0|4,0:0|0:0,0:0:0:0:
308,168,67535,2,0,P|262:177|216:169,1,93.75,0|8,0:0|0:0,0:0:0:0:
49,40,67878,1,0,0:0:0:0:
111,233,68049,1,0,0:0:0:0:
184,21,68221,1,4,0:0:0:0:
2,193,68392,1,8,0:0:0:0:
227,273,68564,1,0,0:0:0:0:
76,136,68735,5,4,0:0:0:0:
146,336,68906,1,0,0:0:0:0:
264,91,69078,1,8,0:0:0:0:
111,233,69249,1,0,0:0:0:0:
386,189,69421,1,0,0:0:0:0:
172,115,69592,1,4,0:0:0:0:
343,320,69764,1,8,0:0:0:0:
428,110,69935,6,0,P|382:102|337:111,1,93.75
411,259,70278,1,4,0:0:0:0:
511,58,70449,1,8,0:0:0:0:
337,111,70621,2,0,P|329:156|442:263,1,187.5,0|4,0:0|0:0,0:0:0:0:
383,25,71135,2,0,P|337:16|291:25,1,93.75,8|0,0:0|0:0,0:0:0:0:
86,187,71478,6,0,P|169:223|253:187,1,187.5,4|8,0:0|0:0,0:0:0:0:
171,110,71992,1,0,0:0:0:0:
228,326,72164,1,0,0:0:0:0:
350,186,72335,1,4,0:0:0:0:
86,187,72506,2,0,L|78:286,1,93.75,8|0,0:0|0:0,0:0:0:0:
358,280,72849,6,0,L|350:186,1,93.75,4|0,0:0|0:0,0:0:0:0:
227,45,73192,2,0,L|209:259,1,187.5,8|0,0:0|0:0,0:0:0:0:
0,269,73706,1,4,0:0:0:0:
67,66,73878,1,8,0:0:0:0:
158,313,74049,1,0,0:0:0:0:
330,229,74221,6,0,P|338:184|329:138,1,93.75,4|0,0:0|0:0,0:0:0:0:
173,74,74564,2,0,P|163:119|171:165,1,93.75,8|0,0:0|0:0,0:0:0:0:
372,60,74906,2,0,P|327:52|281:61,1,93.75,0|4,0:0|0:0,0:0:0:0:
423,199,75249,1,8,0:0:0:0:
177,258,75421,6,0,L|171:164,1,93.75
330,229,75764,2,0,L|324:323,1,93.75,4|8,0:0|0:0,0:0:0:0:
146,263,76106,6,0,L|138:132,1,93.75
360,223,76449,2,0,L|352:354,2,93.75,4|8|0,0:0|0:0|0:0,0:0:0:0:
372,60,76964,6,0,P|323:49|262:69,1,93.75,4|0,0:0|0:0,0:0:0:0:
36,91,77306,1,8,0:0:0:0:
253,247,77478,1,0,0:0:0:0:
198,0,77649,1,0,0:0:0:0:
140,170,77821,1,4,0:0:0:0:
360,223,77992,1,8,0:0:0:0:
131,346,78164,6,0,P|121:300|129:254,1,93.75,0|4,0:0|0:0,0:0:0:0:
360,223,78506,2,0,P|367:268|358:314,1,93.75,0|8,0:0|0:0,0:0:0:0:
247,140,78849,1,0,0:0:0:0:
466,168,79021,1,0,0:0:0:0:
253,247,79192,1,4,0:0:0:0:
372,28,79364,1,8,0:0:0:0:
447,274,79535,1,0,0:0:0:0:
247,140,79706,5,4,0:0:0:0:
474,72,79878,1,0,0:0:0:0:
273,6,80049,1,8,0:0:0:0:
360,223,80221,1,0,0:0:0:0:
143,86,80392,1,0,0:0:0:0:
372,28,80564,1,4,0:0:0:0:
168,235,80735,1,8,0:0:0:0:
97,7,80906,6,0,P|141:-2|188:9,1,93.75
77,226,81249,1,4,0:0:0:0:
6,36,81421,1,8,0:0:0:0:
168,235,81592,2,0,P|107:310|11:298,1,187.5,0|4,0:0|0:0,0:0:0:0:
246,190,82106,2,0,P|253:235|244:281,1,93.75,8|0,0:0|0:0,0:0:0:0:
69,90,82449,6,0,L|162:93,1,93.75,4|0,0:0|0:0,0:0:0:0:
458,108,82792,1,8,0:0:0:0:
329,250,82964,1,0,0:0:0:0:
300,35,83135,1,0,0:0:0:0:
456,246,83306,1,4,0:0:0:0:
227,324,83478,2,0,L|134:320,1,93.75,8|0,0:0|0:0,0:0:0:0:
312,135,83821,6,0,L|405:131,1,93.75,4|0,0:0|0:0,0:0:0:0:
329,250,84164,2,0,P|241:223|202:139,1,187.5,8|0,0:0|0:0,0:0:0:0:
300,35,84678,1,4,0:0:0:0:
134,55,84849,2,0,P|101:87|91:133,1,93.75,8|0,0:0|0:0,0:0:0:0:
329,250,85192,5,4,0:0:0:0:
329,250,85535,5,8,0:0:0:0:
215,22,85706,1,4,0:0:0:0:
215,22,86049,5,8,0:0:0:0:
176,302,86221,1,4,0:0:0:0:
356,65,86392,1,8,0:0:0:0:
317,345,86564,1,4,0:0:0:0:
317,345,86906,5,8,0:0:0:0:
176,128,87078,1,4,0:0:0:0:
176,128,87421,5,8,0:0:0:0:
467,172,87593,1,4,0:0:0:0:
142,213,87764,1,8,0:0:0:0:
321,150,87935,5,6,0:0:0:0:
468,274,98906,6,0,L|366:280,1,75,6|0,0:0|0:0,0:0:0:0:
295,287,99249,1,8,0:0:0:0:
229,206,99421,1,0,0:0:0:0:
200,182,99506,1,0,0:0:0:0:
164,174,99592,1,0,0:0:0:0:
128,183,99678,1,0,0:0:0:0:
101,209,99763,1,4,0:0:0:0:
173,331,99935,2,0,L|168:256,1,75,8|0,0:0|0:0,0:0:0:0:
152,48,100278,5,6,0:0:0:0:
259,139,100449,1,0,0:0:0:0:
159,147,100621,1,8,0:0:0:0:
251,40,100792,1,0,0:0:0:0:
345,114,100964,2,0,B|354:138|353:163|341:187|341:187|328:211|327:235|337:260,1,150,0|8,0:0|0:0,0:0:0:0:
425,228,101478,1,0,0:0:0:0:
251,294,101649,5,6,0:0:0:0:
252,198,101821,2,0,L|253:123,1,75,0|8,0:0|0:0,0:0:0:0:
160,113,102164,1,0,0:0:0:0:
124,124,102249,1,0,0:0:0:0:
97,150,102335,1,0,0:0:0:0:
84,185,102421,1,0,0:0:0:0:
87,222,102506,1,4,0:0:0:0:
176,298,102678,2,0,L|251:293,1,75,8|0,0:0|0:0,0:0:0:0:
427,280,103021,5,6,0:0:0:0:
342,193,103192,1,0,0:0:0:0:
339,287,103364,1,8,0:0:0:0:
430,186,103535,1,0,0:0:0:0:
344,101,103706,2,0,B|320:91|295:93|272:105|272:105|248:117|223:118|198:109,1,150,0|8,0:0|0:0,0:0:0:0:
230,25,104221,1,0,0:0:0:0:
170,192,104392,6,0,L|20:182,1,150,6|8,0:0|0:0,0:0:0:0:
101,283,104906,1,0,0:0:0:0:
138,285,104991,1,0,0:0:0:0:
176,288,105077,1,0,0:0:0:0:
213,290,105163,1,0,0:0:0:0:
250,293,105248,1,4,0:0:0:0:
327,270,105421,2,0,P|313:235|283:213,1,75,8|0,0:0|0:0,0:0:0:0:
199,109,105764,5,6,0:0:0:0:
170,192,105935,1,0,0:0:0:0:
87,163,106106,1,8,0:0:0:0:
116,80,106278,1,0,0:0:0:0:
199,109,106449,2,0,B|223:118|248:117|272:105|272:105|296:92|320:91|344:100,1,150,0|8,0:0|0:0,0:0:0:0:
432,122,106964,1,0,0:0:0:0:
314,180,107135,6,0,L|304:329,1,150,6|8,0:0|0:0,0:0:0:0:
222,289,107649,2,0,P|149:275|84:309,1,150,0|4,0:0|0:0,0:0:0:0:
14,356,108164,2,0,P|0:321|5:285,1,75,8|0,0:0|0:0,0:0:0:0:
94,160,108506,6,0,L|84:309,1,150,6|8,0:0|0:0,0:0:0:0:
0,204,109021,1,0,0:0:0:0:
68,85,109192,6,0,P|104:79|139:94,1,75
222,289,109878,6,0,L|228:188,1,93.75,4|0,0:0|0:0,0:0:0:0:
234,82,110221,1,8,0:0:0:0:
318,300,110392,2,0,L|325:199,1,93.75
334,30,110735,1,6,0:0:0:0:
411,225,110906,2,0,L|405:319,1,93.75,8|0,0:0|0:0,0:0:0:0:
222,289,111249,6,0,P|178:274|134:288,1,93.75,6|0,0:0|0:0,0:0:0:0:
36,129,111592,2,0,L|22:331,1,187.5,10|0,0:0|0:0,0:0:0:0:
130,195,112106,1,6,0:0:0:0:
86,61,112278,2,0,P|45:39|0:47,1,93.75,8|0,0:0|0:0,0:0:0:0:
210,127,112621,6,0,P|253:142|297:128,1,93.75,6|0,0:0|0:0,0:0:0:0:
449,31,112964,2,0,B|408:76|408:76|421:206,1,187.5,10|0,0:0|0:0,0:0:0:0:
438,347,113478,1,6,0:0:0:0:
298,282,113649,2,0,P|254:267|210:281,1,93.75,10|0,0:0|0:0,0:0:0:0:
26,254,113992,5,2,0:0:0:0:
203,142,114164,1,4,0:0:0:0:
119,342,114335,2,0,L|107:154,1,187.5,10|0,0:0|0:0,0:0:0:0:
317,73,114849,1,6,0:0:0:0:
210,280,115021,1,10,0:0:0:0:
136,39,115192,1,0,0:0:0:0:
261,180,115364,6,0,P|303:197|352:187,1,93.75,6|0,0:0|0:0,0:0:0:0:
475,56,115706,1,10,0:0:0:0:
367,276,115878,2,0,P|407:258|435:216,1,93.75
381,29,116221,1,6,0:0:0:0:
261,180,116392,2,0,P|302:196|351:186,1,93.75,10|0,0:0|0:0,0:0:0:0:
229,44,116735,6,0,L|103:36,1,93.75,6|0,0:0|0:0,0:0:0:0:
261,180,117078,2,0,L|73:191,1,187.5,10|0,0:0|0:0,0:0:0:0:
73,191,117506,1,2,0:0:0:0:
73,191,117592,1,6,0:0:0:0:
302,259,117764,1,10,0:0:0:0:
147,340,117935,1,0,0:0:0:0:
105,111,118106,6,0,L|230:103,1,93.75,6|0,0:0|0:0,0:0:0:0:
381,221,118449,2,0,P|308:169|227:205,1,187.5,10|0,0:0|0:0,0:0:0:0:
374,323,118964,1,6,0:0:0:0:
395,109,119135,2,0,P|353:87|307:84,1,93.75,10|0,0:0|0:0,0:0:0:0:
214,325,119478,5,2,0:0:0:0:
382,220,119649,1,4,0:0:0:0:
214,325,119821,2,0,P|168:334|122:325,1,93.75,10|0,0:0|0:0,0:0:0:0:
56,141,120164,5,2,0:0:0:0:
227,205,120335,1,6,0:0:0:0:
0,245,120506,1,10,0:0:0:0:
112,37,120678,1,2,0:0:0:0:
120,232,120849,6,0,L|122:325,1,93.75,6|0,0:0|0:0,0:0:0:0:
267,122,121192,2,0,L|255:309,1,187.5,10|0,0:0|0:0,0:0:0:0:
154,123,121706,1,6,0:0:0:0:
379,123,121878,1,8,0:0:0:0:
167,308,122221,6,0,P|210:323|254:309,1,93.75,6|0,0:0|0:0,0:0:0:0:
173,88,122564,2,0,P|146:134|214:237,1,187.5,10|0,0:0|0:0,0:0:0:0:
286,75,123078,1,6,0:0:0:0:
60,96,123249,1,8,0:0:0:0:
291,168,123592,6,0,L|286:75,1,93.75,6|0,0:0|0:0,0:0:0:0:
387,279,123935,2,0,L|399:92,1,187.5,10|0,0:0|0:0,0:0:0:0:
486,197,124449,1,6,0:0:0:0:
286,262,124621,2,0,L|291:168,1,93.75,10|0,0:0|0:0,0:0:0:0:
72,269,124964,5,2,0:0:0:0:
169,66,125135,1,4,0:0:0:0:
71,269,125306,2,0,P|118:345|211:343,1,187.5,10|0,0:0|0:0,0:0:0:0:
291,127,125821,1,6,0:0:0:0:
154,175,125992,2,0,L|161:268,1,93.75,10|0,0:0|0:0,0:0:0:0:
168,65,126335,6,0,P|122:66|84:92,1,93.75,6|0,0:0|0:0,0:0:0:0:
267,219,126678,2,0,L|255:32,1,187.5,10|0,0:0|0:0,0:0:0:0:
370,143,127192,1,6,0:0:0:0:
154,175,127364,2,0,L|161:268,1,93.75,10|0,0:0|0:0,0:0:0:0:
351,245,127706,6,0,P|312:219|266:218,1,93.75,6|0,0:0|0:0,0:0:0:0:
450,347,128049,2,0,L|462:160,1,187.5,10|0,0:0|0:0,0:0:0:0:
462,159,128478,1,2,0:0:0:0:
462,159,128564,1,6,0:0:0:0:
259,123,128735,1,10,0:0:0:0:
469,53,128906,1,0,0:0:0:0:
324,188,129078,6,0,P|285:213|239:214,1,93.75,6|0,0:0|0:0,0:0:0:0:
72,111,129421,2,0,L|259:123,1,187.5,10|0,0:0|0:0,0:0:0:0:
158,17,129935,1,6,0:0:0:0:
145,208,130106,2,0,L|268:215,1,93.75,10|0,0:0|0:0,0:0:0:0:
453,129,130449,6,0,L|460:222,1,75,10|0,0:0|0:0,0:0:0:0:
376,168,130792,2,0,L|370:93,1,75,10|0,0:0|0:0,0:0:0:0:
445,40,131135,1,0,0:0:0:0:
453,129,131306,1,10,0:0:0:0:
376,168,131478,1,0,0:0:0:0:
384,257,131649,1,0,0:0:0:0:
208,227,131821,6,0,L|301:220,1,93.75,4|0,0:0|0:0,0:0:0:0:
181,120,132164,1,8,0:0:0:0:
165,329,132335,1,0,0:0:0:0:
306,109,132506,1,0,0:0:0:0:
114,219,132678,1,4,0:0:0:0:
325,326,132849,1,8,0:0:0:0:
181,120,133021,6,0,P|141:99|94:102,1,93.75,0|4,0:0|0:0,0:0:0:0:
213,237,133364,2,0,P|260:240|301:219,1,93.75,0|8,0:0|0:0,0:0:0:0:
214,16,133706,1,0,0:0:0:0:
114,219,133878,1,0,0:0:0:0:
303,94,134049,1,4,0:0:0:0:
325,326,134221,1,8,0:0:0:0:
190,132,134392,1,0,0:0:0:0:
420,134,134564,5,4,0:0:0:0:
214,16,134735,1,0,0:0:0:0:
263,225,134906,1,8,0:0:0:0:
387,27,135078,1,0,0:0:0:0:
460,238,135249,1,0,0:0:0:0:
303,94,135421,1,4,0:0:0:0:
325,326,135592,1,8,0:0:0:0:
131,143,135764,6,0,P|177:139|218:160,1,93.75
152,279,136106,1,4,0:0:0:0:
41,107,136278,1,8,0:0:0:0:
233,80,136449,2,0,L|245:267,1,187.5,0|4,0:0|0:0,0:0:0:0:
334,20,136964,2,0,L|328:113,1,93.75,8|0,0:0|0:0,0:0:0:0:
333,250,137306,6,0,P|291:271|245:267,1,93.75,4|0,0:0|0:0,0:0:0:0:
423,115,137649,1,8,0:0:0:0:
454,349,137821,1,0,0:0:0:0:
268,131,137992,1,0,0:0:0:0:
237,365,138164,1,4,0:0:0:0:
430,208,138335,2,0,L|423:115,1,93.75,8|0,0:0|0:0,0:0:0:0:
245,267,138678,6,0,P|291:270|333:250,1,93.75,4|0,0:0|0:0,0:0:0:0:
176,125,139021,2,0,B|193:155|193:187|175:218|175:218|156:250|156:282|175:314,1,187.5,8|0,0:0|0:0,0:0:0:0:
261,79,139534,1,4,0:0:0:0:
87,146,139706,1,8,0:0:0:0:
277,185,139878,1,0,0:0:0:0:
105,61,140049,6,0,P|58:61|19:86,1,93.75,4|0,0:0|0:0,0:0:0:0:
155,211,140392,2,0,P|177:170|175:124,1,93.75,8|0,0:0|0:0,0:0:0:0:
0,179,140735,2,0,P|23:218|64:240,1,93.75,0|4,0:0|0:0,0:0:0:0:
105,61,141078,1,8,0:0:0:0:
131,301,141249,6,0,L|224:308,1,93.75
384,206,141592,2,0,L|291:213,1,93.75,4|8,0:0|0:0,0:0:0:0:
117,311,141935,6,0,L|210:318,1,93.75
398,195,142278,2,0,L|305:202,2,93.75,4|8|0,0:0|0:0|0:0,0:0:0:0:
145,121,142792,6,0,L|238:128,1,93.75,4|0,0:0|0:0,0:0:0:0:
487,149,143135,1,8,0:0:0:0:
368,329,143306,1,0,0:0:0:0:
331,71,143478,1,0,0:0:0:0:
478,289,143649,1,4,0:0:0:0:
441,31,143820,1,8,0:0:0:0:
294,195,143992,6,0,P|254:219|208:215,1,93.75,0|4,0:0|0:0,0:0:0:0:
401,128,144335,2,0,P|447:124|487:149,1,93.75,0|8,0:0|0:0,0:0:0:0:
368,329,144678,1,0,0:0:0:0:
331,71,144849,1,0,0:0:0:0:
478,289,145021,1,4,0:0:0:0:
238,126,145193,1,8,0:0:0:0:
258,369,145364,1,0,0:0:0:0:
139,71,145535,5,4,0:0:0:0:
219,254,145706,1,0,0:0:0:0:
257,0,145878,1,8,0:0:0:0:
121,200,146049,1,0,0:0:0:0:
355,52,146221,1,0,0:0:0:0:
321,310,146392,1,4,0:0:0:0:
238,126,146564,1,8,0:0:0:0:
436,236,146735,6,0,L|430:335,1,93.75
280,218,147078,1,4,0:0:0:0:
443,130,147249,1,8,0:0:0:0:
321,309,147421,2,0,P|231:305|181:228,1,187.5,0|4,0:0|0:0,0:0:0:0:
323,141,147935,2,0,P|314:187|280:218,1,93.75,8|0,0:0|0:0,0:0:0:0:
140,133,148278,6,0,P|185:123|230:135,1,93.75,4|0,0:0|0:0,0:0:0:0:
395,228,148621,1,8,0:0:0:0:
278,52,148792,1,0,0:0:0:0:
321,309,148964,1,0,0:0:0:0:
388,108,149135,1,4,0:0:0:0:
181,229,149306,2,0,L|87:223,1,93.75,8|0,0:0|0:0,0:0:0:0:
224,41,149649,6,0,L|230:135,1,93.75,4|0,0:0|0:0,0:0:0:0:
321,309,149992,2,0,L|335:87,1,187.5,8|0,0:0|0:0,0:0:0:0:
421,287,150506,1,4,0:0:0:0:
220,339,150678,2,0,L|226:245,1,93.75,8|0,0:0|0:0,0:0:0:0:
288,55,151021,6,0,P|323:41|367:51,1,75,4|0,0:0|0:0,0:0:0:0:
408,230,151364,2,0,P|394:157|327:121,1,150,8|0,0:0|0:0,0:0:0:0:
291,274,151878,1,4,0:0:0:0:
291,274,152049,2,0,P|314:245|327:202,1,75,8|0,0:0|0:0,0:0:0:0:
288,55,152392,5,4,0:0:0:0:
288,55,153764,6,0,L|294:157,1,93.75,4|0,0:0|0:0,0:0:0:0:
142,213,154107,1,8,0:0:0:0:
122,44,154278,1,0,0:0:0:0:
220,184,154450,1,0,0:0:0:0:
0,154,154621,1,4,0:0:0:0:
294,149,154793,1,8,0:0:0:0:
136,271,154964,6,0,P|106:236|101:191,1,93.75,2|4,0:0|0:0,0:0:0:0:
253,319,155307,1,2,0:0:0:0:
220,336,155392,1,2,0:0:0:0:
184,349,155478,2,0,P|140:359|89:350,1,93.75,10|0,0:0|0:0,0:0:0:0:
101,189,155821,1,2,0:0:0:0:
118,146,155907,1,2,0:0:0:0:
153,115,155993,1,6,0:0:0:0:
199,105,156078,1,2,0:0:0:0:
244,117,156163,1,10,0:0:0:0:
271,144,156250,1,2,0:0:0:0:
308,172,156335,1,2,0:0:0:0:
353,180,156421,1,2,0:0:0:0:
398,167,156507,5,6,0:0:0:0:
283,314,156678,1,0,0:0:0:0:
345,77,156850,1,8,0:0:0:0:
437,315,157021,1,0,0:0:0:0:
437,315,157107,1,0,0:0:0:0:
437,315,157192,1,0,0:0:0:0:
234,227,157364,1,4,0:0:0:0:
432,142,157535,1,8,0:0:0:0:
283,314,157707,6,0,P|237:323|191:315,1,93.75
263,112,158050,1,4,0:0:0:0:
390,291,158221,6,0,L|386:347,1,46.875,10|0,0:0|0:0,0:0:0:0:
171,173,158393,2,0,L|174:229,1,46.875,2|0,0:0|0:0,0:0:0:0:
392,204,158564,2,0,L|388:260,1,46.875,2|0,0:0|0:0,0:0:0:0:
167,85,158735,2,0,L|171:132,1,46.875,6|0,0:0|0:0,0:0:0:0:
397,110,158907,1,10,0:0:0:0:
164,4,159078,1,0,0:0:0:0:
392,204,159250,6,0,P|466:167|475:56,1,187.5,4|8,0:0|0:0,0:0:0:0:
295,192,159764,1,0,0:0:0:0:
505,261,159935,1,0,0:0:0:0:
397,110,160107,2,0,L|391:204,1,93.75,4|8,0:0|0:0,0:0:0:0:
315,348,160450,1,0,0:0:0:0:
204,241,160621,6,0,L|198:147,1,93.75,4|0,0:0|0:0,0:0:0:0:
104,250,160964,1,8,0:0:0:0:
299,232,161135,1,0,0:0:0:0:
116,61,161307,2,0,L|110:155,1,93.75,0|4,0:0|0:0,0:0:0:0:
96,346,161650,1,8,0:0:0:0:
204,241,161821,1,0,0:0:0:0:
27,200,161993,6,0,B|18:246|18:246|26:292,1,93.75,4|0,0:0|0:0,0:0:0:0:
194,111,162335,2,0,B|203:65|203:65|195:19,1,93.75,8|0,0:0|0:0,0:0:0:0:
15,207,162678,6,0,B|6:253|6:253|14:299,1,93.75,0|4,0:0|0:0,0:0:0:0:
208,104,163021,1,8,0:0:0:0:
110,246,163193,6,0,L|204:240,1,93.75
391,185,163535,2,0,L|297:179,1,93.75,4|8,0:0|0:0,0:0:0:0:
111,259,163878,6,0,L|205:253,1,93.75
392,172,164221,2,0,L|298:166,1,93.75,4|8,0:0|0:0,0:0:0:0:
332,342,164564,6,0,L|338:248,1,93.75,0|4,0:0|0:0,0:0:0:0:
135,70,164907,2,0,L|141:164,1,93.75,0|8,0:0|0:0,0:0:0:0:
347,352,165250,6,0,L|353:258,1,93.75
222,75,165593,2,0,L|228:157,1,46.875,6|2,0:0|0:0,0:0:0:0:
304,85,165764,2,0,L|307:131,1,46.875,10|2,0:0|0:0,0:0:0:0:
259,212,165935,6,0,P|172:238|104:180,1,187.5
81,65,166450,1,8,0:0:0:0:
35,288,166621,5,0,0:0:0:0:
193,148,166793,1,0,0:0:0:0:
135,344,166964,1,4,0:0:0:0:
27,132,167135,1,8,0:0:0:0:
259,212,167307,2,0,P|304:221|349:209,1,93.75,0|4,0:0|0:0,0:0:0:0:
343,0,167650,1,0,0:0:0:0:
193,148,167821,1,10,0:0:0:0:
193,148,167907,1,2,0:0:0:0:
193,148,167993,1,2,0:0:0:0:
430,113,168164,5,0,0:0:0:0:
245,25,168335,1,4,0:0:0:0:
259,213,168507,1,8,0:0:0:0:
499,52,168678,6,0,P|412:27|343:85,1,187.5,0|4,0:0|0:0,0:0:0:0:
367,303,169193,1,8,0:0:0:0:
430,113,169364,1,0,0:0:0:0:
259,213,169535,1,0,0:0:0:0:
500,249,169707,1,6,0:0:0:0:
500,249,169793,1,2,0:0:0:0:
500,249,169878,1,10,0:0:0:0:
343,84,170050,1,0,0:0:0:0:
326,279,170221,6,0,P|239:304|170:246,1,187.5,4|8,0:0|0:0,0:0:0:0:
235,27,170735,2,0,P|246:72|243:118,1,93.75
86,172,171078,2,0,P|77:126|84:79,1,93.75,4|8,0:0|0:0,0:0:0:0:
259,213,171421,1,0,0:0:0:0:
46,268,171593,6,0,L|140:262,1,93.75,4|0,0:0|0:0,0:0:0:0:
387,239,171935,1,8,0:0:0:0:
242,118,172107,1,0,0:0:0:0:
265,335,172278,1,0,0:0:0:0:
359,127,172450,1,4,0:0:0:0:
175,192,172621,1,8,0:0:0:0:
387,239,172793,1,0,0:0:0:0:
151,97,172964,5,4,0:0:0:0:
151,97,173307,5,8,0:0:0:0:
477,140,173478,1,4,0:0:0:0:
477,140,173821,5,8,0:0:0:0:
202,288,173993,1,4,0:0:0:0:
382,74,174164,1,8,0:0:0:0:
477,338,174335,1,4,0:0:0:0:
477,338,174678,5,8,0:0:0:0:
177,193,174850,1,4,0:0:0:0:
177,193,175193,5,8,0:0:0:0:
477,140,175364,1,4,0:0:0:0:
151,97,175535,1,8,0:0:0:0:
332,166,175707,5,2,0:0:0:0:
