osu file format v14

[General]
AudioFilename: time bomb.mp3
AudioLeadIn: 0
PreviewTime: 131735
Countdown: 0
SampleSet: Normal
StackLeniency: 0.7
Mode: 0
LetterboxInBreaks: 0
WidescreenStoryboard: 1

[Editor]
DistanceSpacing: 1.1
BeatDivisor: 4
GridSize: 32
TimelineZoom: 1.1

[Metadata]
Title:Time Bomb (feat. Veela)
TitleUnicode:Time Bomb (feat. Veela)
Artist:Feint & Boyinaband
ArtistUnicode:Feint & Boyinaband
Creator:Naitsirk
Version:Normal
Source:
Tags:dnb d&b d'n'b drum and n' bass monstercat 007 solace ft. icebolt
BeatmapID:1548439
BeatmapSetID:652909

[Difficulty]
HPDrainRate:4
CircleSize:3.2
OverallDifficulty:4
ApproachRate:5
SliderMultiplier:1.1
SliderTickRate:1

[Events]
//Background and Video events
0,0,"time bomb.jpg",0,0
//Break Periods
2,88135,97706
//Storyboard Layer 0 (Background)
//Storyboard Layer 1 (Fail)
//Storyboard Layer 2 (Pass)
//Storyboard Layer 3 (Foreground)
//Storyboard Sound Samples

[TimingPoints]
164,342.857142857143,4,2,1,50,1,0
38564,-100,4,2,1,55,0,0
42678,-100,4,2,1,60,0,0
43364,-100,4,2,1,60,0,0
44049,-90.9090909090909,4,1,1,70,0,1
44392,-90.9090909090909,4,1,1,70,0,0
64621,-100,4,2,1,40,0,0
65992,-90.9090909090909,4,1,1,70,0,1
87935,-90.9090909090909,4,1,1,60,0,0
88621,-100,4,1,1,60,0,0
98906,-100,4,2,1,50,0,0
104392,-100,4,2,1,55,0,0
108506,-100,4,2,1,60,0,0
109192,-100,4,2,1,60,0,0
109878,-90.9090909090909,4,1,1,70,0,1
110221,-90.9090909090909,4,1,1,70,0,0
130449,-100,4,2,1,40,0,0
131821,-90.9090909090909,4,1,1,70,0,1
152392,-90.9090909090909,4,1,1,70,0,0
153764,-100,4,1,1,70,0,0
175706,-100,4,1,1,70,0,0

[Colours]
Combo1 : 248,193,0
Combo2 : 255,76,0
Combo3 : 255,138,21
SliderBorder : 255,127,0

[HitObjects]
141,68,22106,6,0,L|259:74,1,110,6|8,0:0|0:0,0:0:0:0:
323,141,22792,1,0,0:0:0:0:
259,216,23135,1,8,0:0:0:0:
196,292,23478,2,0,P|245:314|303:304,1,110,6|8,0:0|0:0,0:0:0:0:
379,247,24164,2,0,P|414:217|499:215,1,110,0|8,0:0|0:0,0:0:0:0:
477,158,24678,1,0,0:0:0:0:
477,108,24849,6,0,B|458:97|430:97|402:112|402:112|374:127|346:127|318:112,2,165,6|0|8,0:0|0:0|0:0,0:0:0:0:
468,9,26221,2,0,P|414:4|357:27,1,110,6|8,0:0|0:0,0:0:0:0:
319,112,26906,2,0,P|265:120|215:98,1,110,0|8,0:0|0:0,0:0:0:0:
187,56,27421,1,0,0:0:0:0:
156,94,27592,6,0,L|164:267,2,165,6|0|8,0:0|0:0|0:0,0:0:0:0:
80,33,28964,2,0,P|57:82|66:136,1,110,6|8,0:0|0:0,0:0:0:0:
27,227,29649,2,0,P|49:276|40:330,1,110,0|8,0:0|0:0,0:0:0:0:
89,326,30164,1,0,0:0:0:0:
138,324,30335,6,0,B|195:322|195:322|243:344|243:344|310:341,1,165,6|0,0:0|0:0,0:0:0:0:
397,340,31192,1,4,0:0:0:0:
397,340,31364,1,8,0:0:0:0:
341,258,31706,6,0,P|288:193|310:110,1,165,6|0,0:0|0:0,0:0:0:0:
382,178,32564,1,4,0:0:0:0:
382,178,32735,1,8,0:0:0:0:
379,74,33078,6,0,P|335:33|278:33,1,110,6|8,0:0|0:0,0:0:0:0:
207,96,33764,2,0,P|169:134|115:140,1,110,0|8,0:0|0:0,0:0:0:0:
28,92,34449,2,0,L|33:201,1,110,6|8,0:0|0:0,0:0:0:0:
77,225,34964,1,0,0:0:0:0:
121,250,35135,2,0,L|115:140,1,110,0|8,0:0|0:0,0:0:0:0:
207,96,35821,6,0,L|205:42,2,55,6|0|8,0:0|0:0|0:0,0:0:0:0:
251,108,36335,2,0,P|235:157|298:253,1,165,0|8,0:0|0:0,0:0:0:0:
372,301,37192,2,0,P|329:342|272:343,1,110,6|8,0:0|0:0,0:0:0:0:
196,293,37878,2,0,P|153:252|96:251,1,110,0|8,0:0|0:0,0:0:0:0:
62,274,38392,1,0,0:0:0:0:
19,299,38564,6,0,L|10:123,2,165,6|0|8,0:0|0:0|0:0,0:0:0:0:
117,304,39935,2,0,L|235:310,1,110,6|8,0:0|0:0,0:0:0:0:
314,262,40621,2,0,L|432:268,1,110,0|8,0:0|0:0,0:0:0:0:
456,230,41135,1,0,0:0:0:0:
444,182,41306,6,0,P|421:103|440:24,2,165,6|0|8,0:0|0:0|0:0,0:0:0:0:
345,196,42678,2,0,P|367:274|348:353,2,165,6|0|0,0:0|0:0|0:0,0:0:0:0:
270,96,44049,6,0,P|217:139|149:142,1,121.000003692627,6|8,0:0|0:0,0:0:0:0:
111,107,44564,2,0,P|140:143|114:217,1,121.000003692627,2|6,0:0|0:0,0:0:0:0:
86,266,45078,1,8,0:0:0:0:
200,337,45421,6,0,P|226:290|307:273,1,121.000003692627,6|10,0:0|0:0,0:0:0:0:
488,259,46278,2,0,L|484:190,1,60.5000018463135,6|8,0:0|0:0,0:0:0:0:
478,66,46792,6,0,P|412:53|354:88,1,121.000003692627,6|10,0:0|0:0,0:0:0:0:
397,269,47649,1,6,0:0:0:0:
397,269,47821,1,10,0:0:0:0:
284,198,48164,6,0,L|134:205,1,121.000003692627,2|10,0:0|0:0,0:0:0:0:
48,54,49020,1,6,0:0:0:0:
48,54,49192,2,0,L|44:114,1,60.5000018463135,10|0,0:0|0:0,0:0:0:0:
42,181,49535,6,0,L|35:318,1,121.000003692627,6|10,0:0|0:0,0:0:0:0:
89,341,50049,2,0,P|138:308|196:317,1,121.000003692627,0|6,0:0|0:0,0:0:0:0:
251,279,50564,1,10,0:0:0:0:
332,185,50906,6,0,L|324:41,1,121.000003692627,6|10,0:0|0:0,0:0:0:0:
458,213,51764,2,0,L|454:281,1,60.5000018463135,6|10,0:0|0:0,0:0:0:0:
450,339,52106,1,0,0:0:0:0:
384,325,52278,6,0,B|370:316|349:316|329:327|329:327|309:338|289:338|269:327,1,121.000003692627,6|10,0:0|0:0,0:0:0:0:
169,166,53135,2,0,L|172:97,1,60.5000018463135,2|10,0:0|0:0,0:0:0:0:
86,186,53649,6,0,P|114:232|188:247,1,121.000003692627,2|10,0:0|0:0,0:0:0:0:
268,139,54335,2,0,P|300:126|333:131,1,60.5000018463135,2|6,0:0|0:0,0:0:0:0:
375,172,54678,2,0,P|406:184|440:179,1,60.5000018463135,10|2,0:0|0:0,0:0:0:0:
486,141,55021,6,0,L|492:278,1,121.000003692627,6|10,0:0|0:0,0:0:0:0:
293,291,55878,2,0,L|224:287,1,60.5000018463135,6|8,0:0|0:0,0:0:0:0:
97,245,56392,6,0,L|90:107,1,121.000003692627,6|10,0:0|0:0,0:0:0:0:
284,76,57249,2,0,L|280:144,1,60.5000018463135,6|8,0:0|0:0,0:0:0:0:
377,222,57764,6,0,L|383:101,1,121.000003692627,6|10,0:0|0:0,0:0:0:0:
482,274,58621,1,6,0:0:0:0:
482,274,58792,1,10,0:0:0:0:
355,318,59135,6,0,P|303:291|278:237,1,121.000003692627,2|10,0:0|0:0,0:0:0:0:
392,73,59992,1,6,0:0:0:0:
392,73,60163,1,10,0:0:0:0:
267,120,60506,6,0,P|203:139|145:105,1,121.000003692627,6|10,0:0|0:0,0:0:0:0:
118,61,61021,2,0,L|125:199,1,121.000003692627,0|6,0:0|0:0,0:0:0:0:
127,248,61535,1,10,0:0:0:0:
260,257,61878,6,0,L|267:119,1,121.000003692627,6|10,0:0|0:0,0:0:0:0:
465,122,62735,2,0,L|461:190,1,60.5000018463135,6|10,0:0|0:0,0:0:0:0:
458,249,63078,1,0,0:0:0:0:
451,313,63249,6,0,B|436:304|415:304|394:315|394:315|374:326|354:326|333:315,1,121.000003692627,6|10,0:0|0:0,0:0:0:0:
186,183,64106,2,0,L|182:251,1,60.5000018463135,6|10,0:0|0:0,0:0:0:0:
70,290,64621,5,10,2:0:0:0:
181,283,65992,6,0,L|318:271,1,121.000003692627,4|8,0:0|0:0,0:0:0:0:
368,267,66506,1,0,0:0:0:0:
434,263,66678,2,0,L|438:331,2,60.5000018463135,0|4|8,0:0|0:0|0:0,0:0:0:0:
480,214,67192,2,0,P|499:163|471:97,1,121.000003692627,0|0,0:0|0:0,0:0:0:0:
357,157,67878,2,0,L|425:161,2,60.5000018463135,0|0|4,0:0|0:0|0:0,0:0:0:0:
290,153,68392,1,8,0:0:0:0:
166,144,68735,6,0,L|172:271,1,121.000003692627,4|8,0:0|0:0,0:0:0:0:
294,308,69421,2,0,P|326:314|362:304,1,60.5000018463135,0|4,0:0|0:0,0:0:0:0:
409,273,69764,1,8,0:0:0:0:
378,220,69935,2,0,P|355:156|382:95,1,121.000003692627,0|4,0:0|0:0,0:0:0:0:
406,51,70449,1,8,0:0:0:0:
406,51,70621,1,0,0:0:0:0:
272,56,70964,1,4,0:0:0:0:
272,56,71135,1,8,0:0:0:0:
138,57,71478,6,0,B|162:92|162:92|159:170,1,121.000003692627,4|8,0:0|0:0,0:0:0:0:
128,229,71992,2,0,P|186:198|246:226,1,121.000003692627,0|4,0:0|0:0,0:0:0:0:
263,275,72506,1,8,0:0:0:0:
372,198,72849,2,0,L|365:77,1,121.000003692627,4|8,0:0|0:0,0:0:0:0:
172,130,73706,2,0,P|142:136|112:132,2,60.5000018463135,4|8|0,0:0|0:0|0:0,0:0:0:0:
222,86,74221,6,0,L|214:223,2,121.000003692627,4|8|0,0:0|0:0|0:0,0:0:0:0:
337,164,75249,1,8,0:0:0:0:
337,164,75421,2,0,P|388:184|465:146,1,121.000003692627,0|4,0:0|0:0,0:0:0:0:
472,32,76106,2,0,P|415:42|394:96,1,121.000003692627,0|4,0:0|0:0,0:0:0:0:
374,279,76964,6,0,L|237:291,1,121.000003692627,4|8,0:0|0:0,0:0:0:0:
186,295,77478,1,0,0:0:0:0:
128,261,77649,2,0,L|59:267,2,60.5000018463135,0|4|8,0:0|0:0|0:0,0:0:0:0:
152,197,78164,2,0,P|174:142|156:86,1,121.000003692627,0|0,0:0|0:0,0:0:0:0:
32,135,78849,2,0,P|64:144|98:138,2,60.5000018463135,0|0|4,0:0|0:0|0:0,0:0:0:0:
0,75,79364,1,8,0:0:0:0:
128,41,79706,6,0,L|248:45,1,121.000003692627,4|8,0:0|0:0,0:0:0:0:
363,117,80392,2,0,L|431:120,2,60.5000018463135,0|4|8,0:0|0:0|0:0,0:0:0:0:
324,166,80906,2,0,P|299:226|338:280,1,121.000003692627,0|4,0:0|0:0,0:0:0:0:
383,304,81421,1,8,0:0:0:0:
383,304,81592,1,0,0:0:0:0:
256,346,81935,1,4,0:0:0:0:
256,346,82106,1,8,0:0:0:0:
130,301,82449,6,0,L|142:164,1,121.000003692627,4|8,0:0|0:0,0:0:0:0:
148,113,82964,2,0,P|209:139|274:119,1,121.000003692627,0|4,0:0|0:0,0:0:0:0:
298,72,83478,1,8,0:0:0:0:
423,115,83821,2,0,L|435:252,1,121.000003692627,4|8,0:0|0:0,0:0:0:0:
235,208,84678,2,0,L|241:140,1,60.5000018463135,4|8,0:0|0:0,0:0:0:0:
253,18,85192,5,4,0:0:0:0:
138,85,85535,1,8,0:0:0:0:
138,85,85706,1,4,0:0:0:0:
5,73,86049,6,0,L|-1:142,1,60.5000018463135,8|4,0:0|0:0,0:0:0:0:
36,188,86392,2,0,L|41:127,1,60.5000018463135,8|4,0:0|0:0,0:0:0:0:
129,28,86906,5,8,0:0:0:0:
129,28,87077,1,4,0:0:0:0:
185,153,87421,6,0,L|179:222,1,60.5000018463135,8|4,0:0|0:0,0:0:0:0:
173,279,87764,1,8,0:0:0:0:
235,282,87935,5,6,0:0:0:0:
39,115,98906,6,0,L|45:224,1,110,6|8,0:0|0:0,0:0:0:0:
135,265,99592,2,0,L|141:156,1,110,0|8,0:0|0:0,0:0:0:0:
145,56,100278,2,0,P|198:45|248:66,1,110,6|8,0:0|0:0,0:0:0:0:
277,106,100792,1,0,0:0:0:0:
304,147,100964,2,0,L|298:256,1,110,0|8,0:0|0:0,0:0:0:0:
387,300,101649,6,0,L|385:354,2,55,6|0|8,0:0|0:0|0:0,0:0:0:0:
411,256,102164,2,0,L|420:91,1,165,0|8,0:0|0:0,0:0:0:0:
332,45,103021,2,0,P|280:63|228:48,1,110,6|8,0:0|0:0,0:0:0:0:
141,95,103706,2,0,P|89:78|37:95,1,110,0|8,0:0|0:0,0:0:0:0:
31,144,104221,1,0,0:0:0:0:
28,193,104392,6,0,L|18:357,2,165,6|0|8,0:0|0:0|0:0,0:0:0:0:
37,95,105764,2,0,P|89:78|141:95,1,110,6|8,0:0|0:0,0:0:0:0:
165,190,106449,2,0,P|216:206|268:190,1,110,0|8,0:0|0:0,0:0:0:0:
303,154,106964,1,0,0:0:0:0:
335,116,107135,6,0,L|499:125,2,165,6|0|8,0:0|0:0|0:0,0:0:0:0:
259,51,108506,2,0,L|94:41,2,165,6|0|0,0:0|0:0|0:0,0:0:0:0:
335,116,109878,6,0,L|339:260,1,121.000003692627,4|8,0:0|0:0,0:0:0:0:
294,287,110392,2,0,P|251:248|191:247,1,121.000003692627,0|6,0:0|0:0,0:0:0:0:
130,274,110906,1,8,0:0:0:0:
131,140,111249,6,0,L|134:19,1,121.000003692627,6|10,0:0|0:0,0:0:0:0:
336,55,112106,2,0,L|334:127,1,60.5000018463135,6|8,0:0|0:0,0:0:0:0:
328,247,112621,6,0,P|271:233|217:258,1,121.000003692627,6|10,0:0|0:0,0:0:0:0:
409,314,113478,1,6,0:0:0:0:
409,314,113649,1,10,0:0:0:0:
441,184,113992,6,0,L|444:63,1,121.000003692627,2|10,0:0|0:0,0:0:0:0:
245,83,114849,1,6,0:0:0:0:
245,83,115021,2,0,L|243:155,1,60.5000018463135,10|0,0:0|0:0,0:0:0:0:
238,210,115364,6,0,P|181:222|129:194,1,121.000003692627,6|10,0:0|0:0,0:0:0:0:
100,134,115878,2,0,L|96:254,1,121.000003692627,0|6,0:0|0:0,0:0:0:0:
94,321,116392,1,10,0:0:0:0:
226,332,116735,6,0,L|370:340,1,121.000003692627,6|10,0:0|0:0,0:0:0:0:
476,186,117592,2,0,L|415:184,1,60.5000018463135,6|10,0:0|0:0,0:0:0:0:
348,182,117935,1,0,0:0:0:0:
301,135,118106,6,0,B|287:126|266:126|246:137|246:137|226:148|206:148|186:137,1,121.000003692627,6|10,0:0|0:0,0:0:0:0:
359,37,118964,2,0,L|419:38,1,60.5000018463135,6|10,0:0|0:0,0:0:0:0:
415,171,119478,6,0,L|408:291,1,121.000003692627,2|10,0:0|0:0,0:0:0:0:
296,218,120164,2,0,P|266:212|236:216,1,60.5000018463135,2|6,0:0|0:0,0:0:0:0:
177,247,120506,2,0,P|147:252|117:248,1,60.5000018463135,10|2,0:0|0:0,0:0:0:0:
59,215,120849,6,0,L|52:94,1,121.000003692627,6|10,0:0|0:0,0:0:0:0:
248,23,121706,2,0,L|244:91,1,60.5000018463135,6|8,0:0|0:0,0:0:0:0:
236,216,122221,6,0,L|356:209,1,121.000003692627,6|10,0:0|0:0,0:0:0:0:
499,68,123078,2,0,L|438:71,1,60.5000018463135,6|8,0:0|0:0,0:0:0:0:
305,82,123592,6,0,L|185:89,1,121.000003692627,6|10,0:0|0:0,0:0:0:0:
171,291,124449,1,6,0:0:0:0:
171,291,124621,1,10,0:0:0:0:
303,297,124964,6,0,L|423:304,1,121.000003692627,2|10,0:0|0:0,0:0:0:0:
437,104,125821,1,6,0:0:0:0:
437,104,125992,1,10,0:0:0:0:
322,172,126335,6,0,P|267:194|210:175,1,121.000003692627,6|10,0:0|0:0,0:0:0:0:
167,124,126849,2,0,L|160:244,1,121.000003692627,0|6,0:0|0:0,0:0:0:0:
156,311,127364,1,10,0:0:0:0:
66,212,127706,6,0,L|59:92,1,121.000003692627,6|10,0:0|0:0,0:0:0:0:
258,111,128564,2,0,L|254:171,1,60.5000018463135,6|10,0:0|0:0,0:0:0:0:
251,239,128907,1,0,0:0:0:0:
249,305,129078,6,0,L|369:298,1,121.000003692627,6|10,0:0|0:0,0:0:0:0:
378,98,129935,2,0,L|381:37,1,60.5000018463135,6|10,0:0|0:0,0:0:0:0:
476,129,130449,5,10,0:0:0:0:
194,10,131821,6,0,L|206:147,1,121.000003692627,4|8,0:0|0:0,0:0:0:0:
210,197,132335,1,0,0:0:0:0:
219,264,132507,2,0,L|151:268,2,60.5000018463135,0|4|8,0:0|0:0|0:0,0:0:0:0:
279,293,133021,2,0,P|330:312|396:284,1,121.000003692627,0|0,0:0|0:0,0:0:0:0:
381,157,133706,2,0,L|377:96,2,60.5000018463135,0|0|4,0:0|0:0|0:0,0:0:0:0:
333,204,134221,1,8,0:0:0:0:
276,83,134564,6,0,L|155:88,1,121.000003692627,4|8,0:0|0:0,0:0:0:0:
88,92,135078,1,0,0:0:0:0:
60,152,135249,2,0,L|-1:156,2,60.5000018463135,0|4|8,0:0|0:0|0:0,0:0:0:0:
96,208,135764,2,0,P|115:263|101:328,2,121.000003692627,0|4|0,0:0|0:0|0:0,0:0:0:0:
229,204,136792,1,4,0:0:0:0:
229,204,136964,1,8,0:0:0:0:
361,199,137306,6,0,P|418:183|449:133,1,121.000003692627,4|8,0:0|0:0,0:0:0:0:
445,66,137821,2,0,L|324:71,1,121.000003692627,0|4,0:0|0:0,0:0:0:0:
257,74,138335,1,8,0:0:0:0:
148,150,138678,2,0,P|131:207|149:264,1,121.000003692627,4|8,0:0|0:0,0:0:0:0:
349,255,139535,2,0,L|353:316,2,60.5000018463135,4|8|0,0:0|0:0|0:0,0:0:0:0:
346,188,140049,6,0,L|466:195,2,121.000003692627,4|8|0,0:0|0:0|0:0,0:0:0:0:
212,188,141078,1,8,0:0:0:0:
212,188,141249,2,0,B|167:185|167:185|139:205|139:205|89:201,1,121.000003692627,0|4,0:0|0:0,0:0:0:0:
59,74,141935,2,0,B|100:77|100:77|128:57|128:57|173:59,1,121.000003692627,0|4,0:0|0:0,0:0:0:0:
373,65,142792,6,0,L|380:185,1,121.000003692627,4|8,0:0|0:0,0:0:0:0:
385,252,143306,1,0,0:0:0:0:
391,318,143478,2,0,L|452:322,2,60.5000018463135,0|4|8,0:0|0:0|0:0,0:0:0:0:
327,338,143992,2,0,L|206:330,1,121.000003692627,0|0,0:0|0:0,0:0:0:0:
72,322,144678,2,0,L|11:318,2,60.5000018463135,0|0|4,0:0|0:0|0:0,0:0:0:0:
115,271,145192,1,8,0:0:0:0:
220,190,145535,6,0,P|249:184|284:191,1,60.5000018463135,4|0,0:0|0:0,0:0:0:0:
333,228,145878,2,0,P|362:233|397:226,1,60.5000018463135,8|0,0:0|0:0,0:0:0:0:
451,196,146221,2,0,P|480:190|515:197,2,60.5000018463135,0|4|8,0:0|0:0|0:0,0:0:0:0:
411,142,146735,2,0,L|403:21,2,121.000003692627,0|4|0,0:0|0:0|0:0,0:0:0:0:
421,275,147764,1,4,0:0:0:0:
421,275,147935,1,8,0:0:0:0:
288,264,148278,6,0,L|167:256,1,121.000003692627,4|8,0:0|0:0,0:0:0:0:
99,250,148792,2,0,P|64:204|73:146,1,121.000003692627,0|4,0:0|0:0,0:0:0:0:
125,104,149306,1,8,0:0:0:0:
258,110,149649,2,0,L|378:117,1,121.000003692627,4|8,0:0|0:0,0:0:0:0:
487,284,150506,2,0,L|426:278,1,60.5000018463135,4|8,0:0|0:0,0:0:0:0:
293,265,151021,5,4,0:0:0:0:
160,255,151364,2,0,B|149:184|149:184|196:117|196:117|182:29,1,242.000007385254,8|8,0:0|0:0,0:0:0:0:
62,88,152392,5,4,0:0:0:0:
246,284,153764,6,0,L|362:293,1,110,4|8,0:0|0:0,0:0:0:0:
388,200,154450,2,0,L|392:145,2,55,0|4|8,0:0|0:0|0:0,0:0:0:0:
435,215,154964,2,0,P|458:249|435:369,1,165,2|10,0:0|0:0,0:0:0:0:
344,352,155821,6,0,B|305:343|285:303|285:303|293:160,1,220,2|4,0:0|0:0,0:0:0:0:
383,218,156850,5,8,0:0:0:0:
388,119,157193,2,0,L|391:52,2,55,0|4|8,0:0|0:0|0:0,0:0:0:0:
346,133,157707,2,0,P|293:146|242:128,1,110,0|4,0:0|0:0,0:0:0:0:
204,97,158221,6,0,L|208:151,1,55,10|2,0:0|0:0,0:0:0:0:
164,173,158564,2,0,L|168:227,1,55,2|6,0:0|0:0,0:0:0:0:
124,249,158907,1,10,0:0:0:0:
197,315,159250,6,0,P|248:274|257:207,1,110,4|8,0:0|0:0,0:0:0:0:
250,184,159764,1,0,0:0:0:0:
299,98,160107,2,0,P|321:114|336:136,1,55,4|8,0:0|0:0,0:0:0:0:
349,181,160450,2,0,P|404:258|470:245,1,165,0|8,0:0|0:0,0:0:0:0:
469,201,161135,1,0,0:0:0:0:
473,151,161307,2,0,L|482:18,1,110,0|8,0:0|0:0,0:0:0:0:
381,38,161993,6,0,P|335:67|282:58,1,110,4|8,0:0|0:0,0:0:0:0:
201,115,162678,2,0,P|248:139|268:189,1,110,0|8,0:0|0:0,0:0:0:0:
225,215,163193,6,0,L|92:205,1,110,0|4,0:0|0:0,0:0:0:0:
145,301,163878,2,0,L|254:309,1,110,0|4,0:0|0:0,0:0:0:0:
353,319,164564,5,2,0:0:0:0:
313,228,164907,1,2,0:0:0:0:
371,147,165250,1,2,0:0:0:0:
470,156,165593,1,6,0:0:0:0:
511,245,165935,6,0,P|456:255|406:230,1,110
371,147,166621,2,0,L|375:93,1,55
325,90,166964,2,0,L|321:36,1,55,4|8,0:0|0:0,0:0:0:0:
281,5,167307,2,0,P|227:-6|176:18,1,110
164,63,167821,1,10,0:0:0:0:
169,161,168164,6,0,L|173:215,2,55,0|4|8,0:0|0:0|0:0,0:0:0:0:
213,139,168678,2,0,L|322:147,1,110,0|4,0:0|0:0,0:0:0:0:
362,116,169193,2,0,P|342:155|406:252,1,165,8|6,0:0|0:0,0:0:0:0:
445,261,169878,1,10,0:0:0:0:
346,321,170221,6,0,L|237:313,1,110,4|8,0:0|0:0,0:0:0:0:
186,307,170735,1,0,0:0:0:0:
92,275,171078,2,0,L|96:221,1,55,4|8,0:0|0:0,0:0:0:0:
74,123,171593,6,0,P|126:134|173:109,1,110,4|8,0:0|0:0,0:0:0:0:
189,61,172107,2,0,L|199:190,1,110,0|4,0:0|0:0,0:0:0:0:
203,219,172621,1,8,0:0:0:0:
301,231,172964,5,4,0:0:0:0:
336,141,173307,1,8,0:0:0:0:
336,141,173478,1,4,0:0:0:0:
419,193,173821,6,0,L|415:247,1,55,8|4,0:0|0:0,0:0:0:0:
464,250,174164,2,0,L|460:304,1,55,8|4,0:0|0:0,0:0:0:0:
366,337,174678,5,8,0:0:0:0:
366,337,174849,1,4,0:0:0:0:
266,330,175193,6,0,L|211:328,1,55,8|4,0:0|0:0,0:0:0:0:
214,279,175535,2,0,L|159:277,1,55,8|2,0:0|0:0,0:0:0:0:
