osu file format v14

[General]
AudioFilename: time bomb.mp3
AudioLeadIn: 0
PreviewTime: 131735
Countdown: 0
SampleSet: Normal
StackLeniency: 0.7
Mode: 0
LetterboxInBreaks: 0
WidescreenStoryboard: 1

[Editor]
DistanceSpacing: 1.2
BeatDivisor: 4
GridSize: 4
TimelineZoom: 1.4

[Metadata]
Title:Time Bomb (feat. Veela)
TitleUnicode:Time Bomb (feat. Veela)
Artist:Feint & Boyinaband
ArtistUnicode:Feint & Boyinaband
Creator:Naitsirk
Version:Insane
Source:
Tags:dnb d&b d'n'b drum and n' bass monstercat 007 solace ft. icebolt
BeatmapID:1543888
BeatmapSetID:652909

[Difficulty]
HPDrainRate:6
CircleSize:4
OverallDifficulty:7.5
ApproachRate:9
SliderMultiplier:1.5
SliderTickRate:1

[Events]
//Background and Video events
0,0,"time bomb.jpg",0,0
//Break Periods
2,88135,98306
//Storyboard Layer 0 (Background)
//Storyboard Layer 1 (Fail)
//Storyboard Layer 2 (Pass)
//Storyboard Layer 3 (Foreground)
//Storyboard Sound Samples

[TimingPoints]
164,342.857142857143,4,2,1,50,1,0
38564,-100,4,2,1,55,0,0
42678,-133.333333333333,4,2,1,60,0,0
43364,-200,4,2,1,60,0,0
44049,-80,4,1,1,70,0,1
44392,-80,4,1,1,70,0,0
64621,-100,4,2,1,40,0,0
65992,-80,4,1,1,70,0,1
87935,-80,4,1,1,60,0,0
98906,-100,4,2,1,50,0,0
104392,-100,4,2,1,55,0,0
108506,-133.333333333333,4,2,1,60,0,0
109192,-200,4,2,1,60,0,0
109878,-80,4,1,1,70,0,1
110221,-80,4,1,1,70,0,0
130449,-100,4,2,1,40,0,0
131821,-80,4,1,1,70,0,1
151021,-100,4,1,1,70,0,1
152392,-100,4,1,1,70,0,0
153764,-80,4,1,1,70,0,0
175706,-100,4,1,1,70,0,0

[Colours]
Combo1 : 248,193,0
Combo2 : 255,76,0
Combo3 : 255,138,21
SliderBorder : 255,127,0

[HitObjects]
71,284,22106,6,0,L|152:287,1,75,6|0,0:0|0:0,0:0:0:0:
236,291,22449,1,8,0:0:0:0:
194,210,22621,1,0,0:0:0:0:
184,181,22706,1,0,0:0:0:0:
186,152,22792,1,0,0:0:0:0:
200,125,22878,1,0,0:0:0:0:
223,107,22963,1,4,0:0:0:0:
345,177,23135,2,0,L|270:174,1,75,8|0,0:0|0:0,0:0:0:0:
97,169,23478,5,6,0:0:0:0:
126,66,23649,1,0,0:0:0:0:
194,210,23821,1,8,0:0:0:0:
223,107,23992,1,0,0:0:0:0:
97,168,24164,2,0,P|86:241|135:306,1,150,0|8,0:0|0:0,0:0:0:0:
194,210,24678,1,0,0:0:0:0:
271,343,24849,6,0,B|327:356|327:356|415:322,1,150,6|8,0:0|0:0,0:0:0:0:
497,295,25364,1,0,0:0:0:0:
484,267,25449,1,0,0:0:0:0:
463,246,25535,1,0,0:0:0:0:
435,235,25621,1,0,0:0:0:0:
405,235,25706,1,4,0:0:0:0:
436,151,25878,2,0,L|510:153,1,75,8|0,0:0|0:0,0:0:0:0:
318,84,26221,5,6,0:0:0:0:
345,176,26392,1,0,0:0:0:0:
463,59,26564,1,8,0:0:0:0:
436,151,26735,1,0,0:0:0:0:
318,84,26906,2,0,P|269:116|259:213,1,150,0|8,0:0|0:0,0:0:0:0:
323,260,27421,1,0,0:0:0:0:
178,242,27592,6,0,P|161:169|181:95,1,150,6|8,0:0|0:0,0:0:0:0:
95,65,28106,1,0,0:0:0:0:
94,95,28191,1,0,0:0:0:0:
84,123,28277,1,0,0:0:0:0:
64,146,28363,1,0,0:0:0:0:
38,160,28448,1,4,0:0:0:0:
8,249,28621,2,0,L|82:247,1,75,8|0,0:0|0:0,0:0:0:0:
274,238,28964,5,6,0:0:0:0:
174,146,29135,1,0,0:0:0:0:
178,242,29306,1,8,0:0:0:0:
270,142,29478,1,0,0:0:0:0:
369,233,29649,2,0,P|348:303|282:334,1,150,0|8,0:0|0:0,0:0:0:0:
274,238,30164,1,0,0:0:0:0:
263,46,30335,6,0,P|333:71|363:143,1,150,6|8,0:0|0:0,0:0:0:0:
195,144,30849,2,0,P|230:147|269:138,1,75,0|0,0:0|0:0,0:0:0:0:
442,65,31192,1,4,0:0:0:0:
448,201,31364,1,8,0:0:0:0:
178,239,31706,6,0,P|116:201|99:128,1,150,6|8,0:0|0:0,0:0:0:0:
268,138,32221,2,0,P|232:146|195:144,1,75,0|0,0:0|0:0,0:0:0:0:
1,145,32564,1,4,0:0:0:0:
95,39,32735,1,8,0:0:0:0:
178,239,33078,6,0,L|176:313,1,75,6|0,0:0|0:0,0:0:0:0:
271,236,33421,1,8,0:0:0:0:
87,194,33592,1,0,0:0:0:0:
86,223,33677,1,0,0:0:0:0:
85,253,33763,1,0,0:0:0:0:
84,283,33849,1,0,0:0:0:0:
83,313,33934,1,4,0:0:0:0:
178,239,34106,2,0,L|180:165,1,75,8|0,0:0|0:0,0:0:0:0:
297,326,34449,5,6,0:0:0:0:
387,300,34621,1,0,0:0:0:0:
271,236,34792,1,8,0:0:0:0:
361,210,34964,1,0,0:0:0:0:
244,145,35135,2,0,P|311:117|332:41,1,150,0|8,0:0|0:0,0:0:0:0:
230,40,35649,1,0,0:0:0:0:
434,52,35821,5,6,0:0:0:0:
434,52,35992,2,0,L|432:126,1,75,0|8,0:0|0:0,0:0:0:0:
360,210,36335,1,0,0:0:0:0:
390,207,36420,1,0,0:0:0:0:
419,215,36506,1,0,0:0:0:0:
444,232,36592,1,0,0:0:0:0:
461,256,36677,1,4,0:0:0:0:
384,374,36849,2,0,L|386:300,1,75,8|0,0:0|0:0,0:0:0:0:
334,120,37192,5,6,0:0:0:0:
419,215,37364,1,0,0:0:0:0:
244,145,37535,1,8,0:0:0:0:
424,95,37706,1,0,0:0:0:0:
244,145,37878,2,0,L|242:219,1,75,0|0,0:0|0:0,0:0:0:0:
244,336,38221,1,8,0:0:0:0:
159,269,38392,1,0,0:0:0:0:
329,269,38564,6,0,L|333:89,1,150,6|8,0:0|0:0,0:0:0:0:
245,41,39078,1,0,0:0:0:0:
219,57,39163,1,0,0:0:0:0:
191,66,39249,1,0,0:0:0:0:
161,67,39335,1,0,0:0:0:0:
132,61,39420,1,4,0:0:0:0:
58,114,39592,2,0,L|56:188,1,75,8|0,0:0|0:0,0:0:0:0:
56,350,39935,5,6,0:0:0:0:
159,269,40106,1,0,0:0:0:0:
56,188,40278,1,8,0:0:0:0:
159,269,40449,1,0,0:0:0:0:
262,188,40621,2,0,P|289:251|269:338,1,150,0|8,0:0|0:0,0:0:0:0:
159,269,41135,1,0,0:0:0:0:
191,120,41306,6,0,P|257:90|324:119,1,150,6|8,0:0|0:0,0:0:0:0:
330,302,41821,2,0,P|270:259|261:187,1,150,0|4,0:0|0:0,0:0:0:0:
403,174,42335,2,0,P|379:202|341:215,1,75,8|0,0:0|0:0,0:0:0:0:
475,236,42678,6,0,P|497:186|485:132,1,112.500004291535,6|8,0:0|0:0,0:0:0:0:
409,84,43192,1,0,0:0:0:0:
329,165,43364,6,0,L|403:174,1,75,0|0,0:0|0:0,0:0:0:0:
223,304,44049,6,0,L|220:210,1,93.75,6|0,0:0|0:0,0:0:0:0:
216,45,44392,1,8,0:0:0:0:
39,79,44564,2,0,P|71:124|194:127,1,187.5,2|6,0:0|0:0,0:0:0:0:
310,48,45078,2,0,L|216:45,1,93.75,8|0,0:0|0:0,0:0:0:0:
336,170,45421,6,0,L|429:167,1,93.75,6|0,0:0|0:0,0:0:0:0:
410,308,45764,2,0,L|206:303,1,187.5,10|0,0:0|0:0,0:0:0:0:
35,297,46278,1,6,0:0:0:0:
119,116,46449,2,0,L|116:209,1,93.75,8|0,0:0|0:0,0:0:0:0:
222,303,46792,6,0,L|219:210,1,93.75,6|0,0:0|0:0,0:0:0:0:
340,24,47135,2,0,L|335:228,1,187.5,10|0,0:0|0:0,0:0:0:0:
221,68,47649,1,6,0:0:0:0:
449,89,47821,2,0,L|444:190,1,93.75,10|0,0:0|0:0,0:0:0:0:
330,333,48164,5,2,0:0:0:0:
336,117,48335,1,4,0:0:0:0:
329,333,48506,2,0,P|230:329|172:249,1,187.5,10|0,0:0|0:0,0:0:0:0:
221,68,49021,1,6,0:0:0:0:
282,231,49192,1,10,0:0:0:0:
128,116,49364,1,0,0:0:0:0:
336,117,49535,6,0,P|372:148|386:192,1,93.75,6|0,0:0|0:0,0:0:0:0:
329,333,49878,1,10,0:0:0:0:
462,246,50049,2,0,P|466:156|417:69,1,187.5,0|6,0:0|0:0,0:0:0:0:
296,197,50564,2,0,P|342:206|385:190,1,93.75,10|0,0:0|0:0,0:0:0:0:
341,23,50906,6,0,L|336:116,1,93.75,6|0,0:0|0:0,0:0:0:0:
130,178,51249,2,0,P|216:150|295:196,1,187.5,10|0,0:0|0:0,0:0:0:0:
295,196,51678,1,2,0:0:0:0:
295,196,51764,1,6,0:0:0:0:
214,57,51935,1,10,0:0:0:0:
206,263,52106,1,0,0:0:0:0:
53,131,52278,6,0,L|58:38,1,93.75,6|0,0:0|0:0,0:0:0:0:
130,177,52621,2,0,P|93:262|138:352,1,187.5,10|0,0:0|0:0,0:0:0:0:
206,263,53135,1,2,0:0:0:0:
131,87,53306,2,0,P|85:98|53:131,1,93.75,10|0,0:0|0:0,0:0:0:0:
219,150,53649,6,0,L|214:57,1,93.75,2|4,0:0|0:0,0:0:0:0:
58,38,53992,2,0,L|53:131,1,93.75,10|0,0:0|0:0,0:0:0:0:
51,288,54335,1,2,0:0:0:0:
136,140,54506,1,6,0:0:0:0:
51,288,54678,1,10,0:0:0:0:
219,150,54849,1,2,0:0:0:0:
51,288,55021,6,0,L|144:293,1,93.75,6|0,0:0|0:0,0:0:0:0:
255,228,55364,2,0,P|228:308|305:348,1,187.5,10|0,0:0|0:0,0:0:0:0:
367,200,55878,1,6,0:0:0:0:
219,150,56049,1,8,0:0:0:0:
219,150,56392,6,0,P|243:109|243:64,1,93.75,6|0,0:0|0:0,0:0:0:0:
126,136,56735,2,0,P|165:217|254:227,1,187.5,10|0,0:0|0:0,0:0:0:0:
242,63,57249,1,6,0:0:0:0:
126,136,57421,1,8,0:0:0:0:
126,136,57764,6,0,L|218:149,1,93.75,6|0,0:0|0:0,0:0:0:0:
356,83,58106,2,0,P|300:146|366:199,1,187.5,10|0,0:0|0:0,0:0:0:0:
464,101,58621,1,6,0:0:0:0:
242,63,58792,2,0,L|150:50,1,93.75,10|0,0:0|0:0,0:0:0:0:
36,156,59135,5,2,0:0:0:0:
218,149,59306,1,4,0:0:0:0:
36,156,59478,2,0,L|46:343,1,187.5,10|0,0:0|0:0,0:0:0:0:
223,242,59992,1,6,0:0:0:0:
124,58,60164,2,0,L|130:173,1,93.75,10|0,0:0|0:0,0:0:0:0:
163,314,60506,6,0,P|205:335|251:329,1,93.75,6|0,0:0|0:0,0:0:0:0:
337,204,60849,1,10,0:0:0:0:
293,91,61021,2,0,P|224:151|223:242,1,187.5,0|6,0:0|0:0,0:0:0:0:
341,297,61535,2,0,L|336:203,1,93.75,10|0,0:0|0:0,0:0:0:0:
470,112,61878,6,0,P|428:132|382:127,1,93.75,6|0,0:0|0:0,0:0:0:0:
240,34,62221,2,0,P|324:-1|407:44,1,187.5,10|0,0:0|0:0,0:0:0:0:
405,41,62649,1,2,0:0:0:0:
405,41,62735,1,6,0:0:0:0:
336,203,62906,1,10,0:0:0:0:
320,87,63078,1,0,0:0:0:0:
395,270,63249,6,0,P|353:290|307:285,1,93.75,6|0,0:0|0:0,0:0:0:0:
175,213,63592,2,0,P|212:178|348:222,1,187.5,10|0,0:0|0:0,0:0:0:0:
180,312,64106,1,6,0:0:0:0:
170,119,64278,2,0,L|174:212,1,93.75,10|0,0:0|0:0,0:0:0:0:
91,269,64621,6,0,L|84:116,1,150,10|10,2:0|2:0,0:0:0:0:
125,42,65135,1,0,0:0:0:0:
170,119,65306,2,0,P|205:132|241:123,1,75,0|10,0:0|0:0,0:0:0:0:
280,44,65649,2,0,P|245:31|209:40,1,75,0|0,0:0|0:0,0:0:0:0:
238,216,65992,6,0,B|283:227|283:227|331:215,1,93.75,4|0,0:0|0:0,0:0:0:0:
512,116,66335,1,8,0:0:0:0:
447,225,66506,1,0,0:0:0:0:
413,43,66678,1,0,0:0:0:0:
447,225,66849,1,4,0:0:0:0:
413,43,67021,1,8,0:0:0:0:
332,216,67192,2,0,L|237:217,1,93.75,0|4,0:0|0:0,0:0:0:0:
215,34,67535,2,0,L|308:38,1,93.75,0|8,0:0|0:0,0:0:0:0:
447,225,67878,5,0,0:0:0:0:
343,306,68049,1,0,0:0:0:0:
409,137,68221,1,4,0:0:0:0:
305,222,68392,2,0,P|259:236|208:223,1,93.75,8|0,0:0|0:0,0:0:0:0:
237,37,68735,5,4,0:0:0:0:
257,147,68906,1,0,0:0:0:0:
134,53,69078,1,8,0:0:0:0:
134,186,69249,1,0,0:0:0:0:
31,69,69421,1,0,0:0:0:0:
11,225,69592,1,4,0:0:0:0:
31,69,69764,1,8,0:0:0:0:
134,186,69935,6,0,P|138:254|53:348,1,187.5,0|4,0:0|0:0,0:0:0:0:
11,225,70449,1,8,0:0:0:0:
111,100,70621,2,0,B|171:104|171:104|218:140|218:140|304:144,1,187.5,0|4,0:0|0:0,0:0:0:0:
463,155,71135,1,8,0:0:0:0:
379,39,71306,1,0,0:0:0:0:
371,217,71478,6,0,L|367:310,1,93.75,4|0,0:0|0:0,0:0:0:0:
264,226,71821,1,8,0:0:0:0:
472,244,71992,1,0,0:0:0:0:
264,226,72164,1,0,0:0:0:0:
371,217,72335,1,4,0:0:0:0:
157,235,72506,2,0,L|64:239,1,93.75,8|0,0:0|0:0,0:0:0:0:
200,71,72849,6,0,P|212:118|198:168,1,93.75,4|0,0:0|0:0,0:0:0:0:
80,39,73192,2,0,L|284:30,1,187.5,8|0,0:0|0:0,0:0:0:0:
471,74,73706,1,4,0:0:0:0:
301,122,73878,1,8,0:0:0:0:
437,166,74049,1,0,0:0:0:0:
336,304,74221,6,0,P|324:257|338:207,1,93.75,4|0,0:0|0:0,0:0:0:0:
471,74,74564,2,0,P|424:69|381:86,1,93.75,8|0,0:0|0:0,0:0:0:0:
244,201,74906,2,0,P|287:218|334:213,1,93.75,0|4,0:0|0:0,0:0:0:0:
267,30,75249,1,8,0:0:0:0:
80,39,75421,6,0,P|69:84|80:130,1,93.75,0|0,0:0|0:0,0:0:0:0:
153,295,75764,2,0,P|163:250|154:205,1,93.75,4|8,0:0|0:0,0:0:0:0:
66,41,76106,6,0,P|56:86|68:131,1,93.75,0|0,0:0|0:0,0:0:0:0:
164,293,76449,2,0,P|176:249|166:204,2,93.75,4|8|0,0:0|0:0|0:0,0:0:0:0:
366,212,76964,6,0,L|272:207,1,93.75,4|0,0:0|0:0,0:0:0:0:
61,197,77306,1,8,0:0:0:0:
160,116,77478,1,0,0:0:0:0:
169,287,77649,1,0,0:0:0:0:
160,116,77821,1,4,0:0:0:0:
169,287,77992,1,8,0:0:0:0:
348,126,78164,2,0,L|255:122,1,93.75,0|4,0:0|0:0,0:0:0:0:
263,292,78506,2,0,L|356:296,1,93.75,0|8,0:0|0:0,0:0:0:0:
466,130,78849,5,0,0:0:0:0:
352,211,79021,1,0,0:0:0:0:
411,48,79192,1,4,0:0:0:0:
493,215,79364,2,0,L|489:308,1,93.75,8|0,0:0|0:0,0:0:0:0:
333,300,79706,5,4,0:0:0:0:
358,173,79878,1,0,0:0:0:0:
231,302,80049,1,8,0:0:0:0:
230,149,80221,1,0,0:0:0:0:
133,305,80392,1,0,0:0:0:0:
102,124,80564,1,4,0:0:0:0:
133,305,80735,1,8,0:0:0:0:
162,55,80906,6,0,P|252:37|326:91,1,187.5,0|4,0:0|0:0,0:0:0:0:
157,190,81421,1,8,0:0:0:0:
312,202,81592,2,0,P|402:166|432:75,1,187.5,0|4,0:0|0:0,0:0:0:0:
493,215,82106,2,0,L|489:308,1,93.75,8|0,0:0|0:0,0:0:0:0:
308,295,82449,6,0,L|312:202,1,93.75,4|0,0:0|0:0,0:0:0:0:
165,47,82792,1,8,0:0:0:0:
312,106,82964,1,0,0:0:0:0:
165,47,83135,1,0,0:0:0:0:
205,142,83307,1,4,0:0:0:0:
59,84,83478,2,0,L|63:177,1,93.75,8|0,0:0|0:0,0:0:0:0:
201,235,83821,6,0,L|205:142,1,93.75,4|0,0:0|0:0,0:0:0:0:
117,252,84164,2,0,P|176:318|266:291,1,187.5,8|0,0:0|0:0,0:0:0:0:
356,201,84678,1,4,0:0:0:0:
205,141,84849,2,0,L|201:234,1,93.75,8|0,0:0|0:0,0:0:0:0:
371,291,85192,5,4,0:0:0:0:
371,291,85535,5,8,0:0:0:0:
341,111,85706,1,4,0:0:0:0:
341,111,86049,5,8,0:0:0:0:
490,218,86221,1,4,0:0:0:0:
326,201,86392,1,8,0:0:0:0:
505,128,86564,1,4,0:0:0:0:
505,128,86906,5,8,0:0:0:0:
326,201,87078,1,4,0:0:0:0:
326,201,87421,5,8,0:0:0:0:
429,47,87592,1,4,0:0:0:0:
490,218,87764,1,8,0:0:0:0:
419,137,87935,5,6,0:0:0:0:
94,64,98906,6,0,L|97:145,1,75,6|0,0:0|0:0,0:0:0:0:
101,229,99249,1,8,0:0:0:0:
106,319,99421,1,0,0:0:0:0:
135,312,99506,1,0,0:0:0:0:
160,297,99592,1,0,0:0:0:0:
179,273,99678,1,0,0:0:0:0:
188,245,99763,1,4,0:0:0:0:
187,155,99935,2,0,L|184:80,1,75,8|0,0:0|0:0,0:0:0:0:
266,200,100278,5,6,0:0:0:0:
356,189,100449,1,0,0:0:0:0:
394,271,100621,1,8,0:0:0:0:
327,332,100792,1,0,0:0:0:0:
248,287,100964,2,0,B|225:274|201:274|177:287|177:287|153:301|129:301|105:287,1,150,0|8,0:0|0:0,0:0:0:0:
37,228,101478,1,0,0:0:0:0:
143,136,101649,5,6,0:0:0:0:
143,136,101820,2,0,L|141:210,1,75,0|8,0:0|0:0,0:0:0:0:
222,170,102164,1,0,0:0:0:0:
250,160,102249,1,0,0:0:0:0:
280,160,102335,1,0,0:0:0:0:
308,170,102421,1,0,0:0:0:0:
331,190,102506,1,4,0:0:0:0:
344,278,102678,2,0,P|378:265|402:238,1,75,8|0,0:0|0:0,0:0:0:0:
348,86,103021,5,6,0:0:0:0:
331,190,103192,1,0,0:0:0:0:
244,69,103364,1,8,0:0:0:0:
227,173,103535,1,0,0:0:0:0:
348,86,103706,2,0,B|372:72|396:72|420:86|420:86|444:99|468:99|491:86,1,150,0|8,0:0|0:0,0:0:0:0:
459,1,104221,1,0,0:0:0:0:
382,159,104392,6,0,L|377:322,1,150,6|8,0:0|0:0,0:0:0:0:
291,333,104906,1,0,0:0:0:0:
290,303,104991,1,0,0:0:0:0:
289,273,105077,1,0,0:0:0:0:
288,243,105163,1,0,0:0:0:0:
287,213,105248,1,4,0:0:0:0:
285,122,105421,2,0,P|260:93|226:80,1,75,8|0,0:0|0:0,0:0:0:0:
126,152,105764,5,6,0:0:0:0:
226,244,105935,1,0,0:0:0:0:
91,229,106106,1,8,0:0:0:0:
210,162,106278,1,0,0:0:0:0:
152,285,106449,2,0,P|212:326|281:303,1,150,0|8,0:0|0:0,0:0:0:0:
300,214,106964,1,0,0:0:0:0:
512,273,107135,6,0,B|489:260|465:260|441:273|441:273|417:287|393:287|369:273,1,150,6|8,0:0|0:0,0:0:0:0:
257,196,107649,2,0,B|281:210|305:210|329:196|329:196|353:183|377:183|400:196,1,150,0|4,0:0|0:0,0:0:0:0:
295,48,108164,2,0,L|293:122,1,75,8|0,0:0|0:0,0:0:0:0:
502,91,108506,6,0,B|484:83|466:83|447:91|447:91|429:99|411:99|393:91,1,112.500004291535,6|8,0:0|0:0,0:0:0:0:
418,18,109021,1,0,0:0:0:0:
480,164,109192,6,0,P|486:199|478:238,1,75,0|0,0:0|0:0,0:0:0:0:
290,216,109878,6,0,L|292:122,1,93.75,4|0,0:0|0:0,0:0:0:0:
194,40,110221,1,8,0:0:0:0:
195,228,110392,2,0,P|248:302|337:297,1,187.5,0|6,0:0|0:0,0:0:0:0:
338,144,110906,2,0,P|297:178|291:227,1,93.75,8|0,0:0|0:0,0:0:0:0:
416,108,111249,6,0,P|388:70|344:59,1,93.75,6|0,0:0|0:0,0:0:0:0:
159,141,111592,2,0,B|189:123|220:123|251:141|251:141|281:157|312:157|341:141,1,187.5,10|0,0:0|0:0,0:0:0:0:
208,38,112106,1,6,0:0:0:0:
204,214,112278,2,0,L|201:307,1,93.75,8|0,0:0|0:0,0:0:0:0:
245,138,112621,6,0,P|201:124|159:141,1,93.75,6|0,0:0|0:0,0:0:0:0:
293,266,112964,2,0,L|299:61,1,187.5,10|0,0:0|0:0,0:0:0:0:
437,31,113478,1,6,0:0:0:0:
434,204,113649,2,0,L|431:297,1,93.75,10|0,0:0|0:0,0:0:0:0:
296,171,113992,5,2,0:0:0:0:
481,114,114164,1,4,0:0:0:0:
296,171,114335,2,0,B|266:153|235:153|204:171|204:171|174:187|143:187|114:171,1,187.5,10|0,0:0|0:0,0:0:0:0:
256,65,114849,1,6,0:0:0:0:
253,268,115021,1,10,0:0:0:0:
159,89,115192,1,0,0:0:0:0:
296,171,115364,6,0,P|341:177|383:158,1,93.75,6|0,0:0|0:0,0:0:0:0:
437,31,115706,1,10,0:0:0:0:
450,207,115878,2,0,P|373:258|279:255,1,187.5,0|6,0:0|0:0,0:0:0:0:
117,172,116392,2,0,P|162:165|204:184,1,93.75,10|0,0:0|0:0,0:0:0:0:
159,341,116735,6,0,L|156:248,1,93.75,6|0,0:0|0:0,0:0:0:0:
286,69,117078,2,0,L|280:256,1,187.5,10|0,0:0|0:0,0:0:0:0:
280,256,117506,1,2,0:0:0:0:
280,256,117592,1,6,0:0:0:0:
384,104,117764,1,10,0:0:0:0:
189,86,117935,1,0,0:0:0:0:
374,192,118106,6,0,P|419:185|454:154,1,93.75,6|0,0:0|0:0,0:0:0:0:
286,69,118449,2,0,L|280:256,1,187.5,10|0,0:0|0:0,0:0:0:0:
189,86,118964,1,6,0:0:0:0:
387,10,119135,2,0,L|384:103,1,93.75,10|0,0:0|0:0,0:0:0:0:
381,282,119478,6,0,P|359:323|320:346,1,93.75,2|4,0:0|0:0,0:0:0:0:
354,194,119821,2,0,P|400:191|440:214,1,93.75,10|0,0:0|0:0,0:0:0:0:
280,256,120164,1,2,0:0:0:0:
337,106,120335,1,6,0:0:0:0:
381,282,120506,1,10,0:0:0:0:
337,106,120678,1,2,0:0:0:0:
210,214,120849,6,0,P|197:259|210:303,1,93.75,6|0,0:0|0:0,0:0:0:0:
255,141,121192,2,0,B|225:123|194:123|163:141|163:141|133:157|102:157|73:141,1,187.5,10|0,0:0|0:0,0:0:0:0:
116,241,121706,1,6,0:0:0:0:
121,61,121878,1,8,0:0:0:0:
121,61,122221,6,0,P|161:37|207:40,1,93.75,6|0,0:0|0:0,0:0:0:0:
334,152,122564,2,0,P|248:179|179:121,1,187.5,10|0,0:0|0:0,0:0:0:0:
341,46,123078,1,6,0:0:0:0:
327,258,123249,1,8,0:0:0:0:
327,258,123592,6,0,P|372:248|404:216,1,93.75,6|0,0:0|0:0,0:0:0:0:
461,102,123935,2,0,L|455:289,1,187.5,10|0,0:0|0:0,0:0:0:0:
327,258,124449,1,6,0:0:0:0:
330,111,124621,2,0,L|333:18,1,93.75,10|0,0:0|0:0,0:0:0:0:
430,184,124964,5,2,0:0:0:0:
233,181,125135,1,4,0:0:0:0:
430,184,125306,2,0,L|424:371,1,187.5,10|0,0:0|0:0,0:0:0:0:
327,258,125821,1,6,0:0:0:0:
330,110,125992,2,0,L|333:17,1,93.75,10|0,0:0|0:0,0:0:0:0:
212,94,126335,6,0,P|209:140|233:181,1,93.75,6|0,0:0|0:0,0:0:0:0:
366,253,126678,2,0,B|340:238|309:238|279:254|279:254|248:272|217:272|187:254,1,187.5,10|0,0:0|0:0,0:0:0:0:
102,125,127192,1,6,0:0:0:0:
253,94,127364,2,0,P|255:140|232:180,1,93.75,10|0,0:0|0:0,0:0:0:0:
128,316,127706,6,0,P|104:275|107:229,1,93.75,6|0,0:0|0:0,0:0:0:0:
172,54,128049,2,0,L|359:60,1,187.5,10|0,0:0|0:0,0:0:0:0:
359,60,128478,1,2,0:0:0:0:
359,60,128564,1,6,0:0:0:0:
366,253,128735,1,10,0:0:0:0:
232,180,128906,1,0,0:0:0:0:
366,162,129078,6,0,P|411:171|443:203,1,93.75,6|0,0:0|0:0,0:0:0:0:
401,330,129421,2,0,B|375:344|344:344|314:328|314:328|283:310|252:310|222:328,1,187.5,10|0,0:0|0:0,0:0:0:0:
107,229,129935,1,6,0:0:0:0:
230,81,130106,2,0,L|227:174,1,93.75,10|0,0:0|0:0,0:0:0:0:
222,328,130449,6,0,L|51:333,1,150,10|10,0:0|0:0,0:0:0:0:
22,264,130964,1,0,0:0:0:0:
107,228,131135,2,0,P|127:197|131:161,1,75,0|10,0:0|0:0,0:0:0:0:
26,101,131478,2,0,P|30:137|50:168,1,75
203,82,131821,6,0,L|110:79,1,93.75,4|0,0:0|0:0,0:0:0:0:
219,176,132164,1,8,0:0:0:0:
274,22,132335,1,0,0:0:0:0:
383,151,132506,1,0,0:0:0:0:
265,12,132678,1,4,0:0:0:0:
392,161,132849,1,8,0:0:0:0:
358,58,133021,6,0,P|326:91|281:102,1,93.75,0|4,0:0|0:0,0:0:0:0:
218,175,133364,2,0,P|258:198|305:196,1,93.75,0|8,0:0|0:0,0:0:0:0:
181,17,133706,1,0,0:0:0:0:
119,185,133878,1,0,0:0:0:0:
281,102,134049,1,4,0:0:0:0:
219,270,134221,2,0,P|262:286|307:276,1,93.75,8|0,0:0|0:0,0:0:0:0:
382,123,134564,5,4,0:0:0:0:
395,280,134735,1,0,0:0:0:0:
468,172,134906,1,8,0:0:0:0:
296,187,135077,1,0,0:0:0:0:
482,170,135249,1,0,0:0:0:0:
281,188,135420,1,4,0:0:0:0:
396,295,135592,1,8,0:0:0:0:
381,108,135764,6,0,B|291:73|291:73|178:102,1,187.5,0|4,0:0|0:0,0:0:0:0:
64,147,136278,1,8,0:0:0:0:
160,266,136449,2,0,P|208:188|203:96,1,187.5,0|4,0:0|0:0,0:0:0:0:
65,51,136964,1,8,0:0:0:0:
61,242,137135,1,0,0:0:0:0:
202,95,137306,6,0,P|245:78|290:89,1,93.75,4|0,0:0|0:0,0:0:0:0:
348,200,137649,1,8,0:0:0:0:
423,32,137821,1,0,0:0:0:0:
363,201,137992,1,0,0:0:0:0:
455,131,138164,1,4,0:0:0:0:
249,166,138335,2,0,P|245:214|266:263,1,93.75,8|0,0:0|0:0,0:0:0:0:
441,295,138678,6,0,L|348:292,1,93.75,4|0,0:0|0:0,0:0:0:0:
249,166,139021,2,0,L|453:157,1,187.5,8|0,0:0|0:0,0:0:0:0:
242,74,139535,1,4,0:0:0:0:
260,255,139706,1,8,0:0:0:0:
166,127,139878,1,0,0:0:0:0:
184,308,140049,6,0,P|150:339|104:349,1,93.75,4|0,0:0|0:0,0:0:0:0:
28,216,140392,2,0,P|61:247|107:257,1,93.75,8|0,0:0|0:0,0:0:0:0:
184,128,140735,2,0,P|150:159|104:169,1,93.75,0|4,0:0|0:0,0:0:0:0:
87,43,141078,1,8,0:0:0:0:
264,89,141249,6,0,P|273:134|261:179,1,93.75,0|0,0:0|0:0,0:0:0:0:
107,259,141592,2,0,P|94:209|106:165,1,93.75,4|8,0:0|0:0,0:0:0:0:
281,102,141935,6,0,P|290:147|278:192,1,93.75,0|0,0:0|0:0,0:0:0:0:
89,271,142278,2,0,P|77:226|87:181,2,93.75,4|8|0,0:0|0:0|0:0,0:0:0:0:
275,302,142792,6,0,L|368:305,1,93.75,4|0,0:0|0:0,0:0:0:0:
427,142,143135,1,8,0:0:0:0:
277,192,143306,1,0,0:0:0:0:
449,238,143478,1,0,0:0:0:0:
264,188,143649,1,4,0:0:0:0:
461,241,143821,1,8,0:0:0:0:
312,114,143992,6,0,P|268:97|224:110,1,93.75,0|4,0:0|0:0,0:0:0:0:
223,265,144335,2,0,P|267:278|311:262,1,93.75,0|8,0:0|0:0,0:0:0:0:
385,56,144678,1,0,0:0:0:0:
264,188,144849,1,0,0:0:0:0:
427,142,145021,1,4,0:0:0:0:
224,110,145192,2,0,L|125:96,1,93.75,8|0,0:0|0:0,0:0:0:0:
105,219,145535,5,4,0:0:0:0:
264,188,145706,1,0,0:0:0:0:
93,221,145878,1,8,0:0:0:0:
275,185,146049,1,0,0:0:0:0:
179,308,146221,1,0,0:0:0:0:
141,121,146392,1,4,0:0:0:0:
182,317,146564,1,8,0:0:0:0:
231,90,146735,6,0,B|261:72|292:72|323:90|323:90|353:106|384:106|410:92,1,187.5,0|4,0:0|0:0,0:0:0:0:
275,185,147249,1,8,0:0:0:0:
401,279,147421,2,0,L|409:91,1,187.5,0|4,0:0|0:0,0:0:0:0:
275,185,147935,2,0,L|270:278,1,93.75,8|0,0:0|0:0,0:0:0:0:
231,90,148278,6,0,P|275:77|320:90,1,93.75,4|0,0:0|0:0,0:0:0:0:
162,193,148621,1,8,0:0:0:0:
149,13,148792,1,0,0:0:0:0:
68,107,148964,1,0,0:0:0:0:
231,90,149135,1,4,0:0:0:0:
52,110,149306,2,0,L|47:203,1,93.75,8|0,0:0|0:0,0:0:0:0:
167,286,149649,6,0,L|162:193,1,93.75,4|0,0:0|0:0,0:0:0:0:
94,334,149992,2,0,P|174:371|244:317,1,187.5,8|0,0:0|0:0,0:0:0:0:
231,90,150506,1,4,0:0:0:0:
161,192,150678,2,0,P|201:213|248:210,1,93.75,8|0,0:0|0:0,0:0:0:0:
324,57,151021,6,0,L|319:150,1,75,4|0,0:0|0:0,0:0:0:0:
401,220,151364,2,0,L|409:70,1,150,8|0,0:0|0:0,0:0:0:0:
490,170,151878,1,4,0:0:0:0:
490,170,152049,2,0,L|494:95,1,75,8|0,0:0|0:0,0:0:0:0:
401,220,152392,5,4,0:0:0:0:
341,111,153764,6,0,L|248:107,1,93.75,4|0,0:0|0:0,0:0:0:0:
134,105,154107,1,8,0:0:0:0:
183,178,154278,1,0,0:0:0:0:
134,252,154449,1,0,0:0:0:0:
48,235,154621,1,4,0:0:0:0:
30,148,154792,1,8,0:0:0:0:
183,178,154964,6,0,L|274:194,1,93.75,2|4,0:0|0:0,0:0:0:0:
385,217,155307,1,2,0:0:0:0:
385,217,155393,1,2,0:0:0:0:
385,217,155478,2,0,P|369:261|374:307,1,93.75,10|0,0:0|0:0,0:0:0:0:
470,208,155821,5,2,0:0:0:0:
465,185,155906,1,2,0:0:0:0:
455,163,155992,1,6,0:0:0:0:
441,145,156078,1,2,0:0:0:0:
422,131,156163,1,10,0:0:0:0:
400,123,156249,1,2,0:0:0:0:
377,120,156335,1,2,0:0:0:0:
354,123,156421,1,2,0:0:0:0:
332,131,156507,6,0,P|289:165|168:135,1,187.5,6|8,0:0|0:0,0:0:0:0:
251,59,157021,1,0,0:0:0:0:
251,59,157107,1,0,0:0:0:0:
251,59,157193,1,0,0:0:0:0:
79,67,157364,1,4,0:0:0:0:
169,136,157535,1,8,0:0:0:0:
71,254,157707,6,0,L|79:67,1,187.5,0|4,0:0|0:0,0:0:0:0:
169,136,158221,2,0,L|165:210,1,46.875,10|0,0:0|0:0,0:0:0:0:
253,241,158393,2,0,L|250:194,1,46.875,2|0,0:0|0:0,0:0:0:0:
332,129,158564,2,0,L|330:176,1,46.875,2|0,0:0|0:0,0:0:0:0:
416,234,158735,2,0,L|413:187,1,46.875,6|0,0:0|0:0,0:0:0:0:
412,80,158907,2,0,P|378:48|332:41,1,93.75,10|0,0:0|0:0,0:0:0:0:
256,174,159250,6,0,P|300:163|332:129,1,93.75,4|0,0:0|0:0,0:0:0:0:
246,80,159593,1,8,0:0:0:0:
169,136,159764,1,0,0:0:0:0:
179,230,159935,1,0,0:0:0:0:
265,268,160107,1,4,0:0:0:0:
349,178,160278,2,0,L|256:174,1,93.75,8|0,0:0|0:0,0:0:0:0:
85,234,160621,6,0,L|178:230,1,93.75,4|0,0:0|0:0,0:0:0:0:
338,329,160964,2,0,L|147:320,1,187.5,8|0,0:0|0:0,0:0:0:0:
3,313,161478,1,4,0:0:0:0:
72,144,161650,2,0,P|89:195|78:251,1,93.75,8|0,0:0|0:0,0:0:0:0:
13,80,161993,6,0,P|59:59|120:74,1,93.75,4|0,0:0|0:0,0:0:0:0:
244,141,162335,2,0,P|197:145|156:124,1,93.75,8|0,0:0|0:0,0:0:0:0:
10,69,162678,6,0,P|56:48|117:63,1,93.75,0|4,0:0|0:0,0:0:0:0:
245,154,163021,1,8,0:0:0:0:
76,237,163193,6,0,L|72:144,1,93.75,0|0,0:0|0:0,0:0:0:0:
243,226,163535,2,0,L|239:319,1,93.75,4|8,0:0|0:0,0:0:0:0:
63,245,163878,6,0,L|59:152,1,93.75,0|0,0:0|0:0,0:0:0:0:
254,233,164221,2,0,L|250:326,1,93.75,4|8,0:0|0:0,0:0:0:0:
324,179,164564,6,0,P|289:148|243:140,1,93.75,2|4,0:0|0:0,0:0:0:0:
76,146,164907,2,0,P|121:138|156:107,1,93.75,2|8,0:0|0:0,0:0:0:0:
326,199,165250,6,0,P|291:168|245:160,1,93.75,2|0,0:0|0:0,0:0:0:0:
70,130,165593,1,6,0:0:0:0:
93,129,165678,1,2,0:0:0:0:
115,121,165764,1,10,0:0:0:0:
135,109,165850,1,2,0:0:0:0:
150,91,165935,6,0,P|196:44|321:78,1,187.5,0|0,0:0|0:0,0:0:0:0:
246,238,166450,1,8,0:0:0:0:
240,132,166621,5,0,0:0:0:0:
325,157,166792,1,0,0:0:0:0:
393,98,166963,1,4,0:0:0:0:
308,74,167135,1,8,0:0:0:0:
411,182,167307,2,0,L|402:379,1,187.5,0|0,0:0|0:0,0:0:0:0:
246,238,167821,1,10,0:0:0:0:
246,238,167907,1,2,0:0:0:0:
246,238,167993,1,2,0:0:0:0:
240,132,168164,5,0,0:0:0:0:
156,296,168335,1,4,0:0:0:0:
151,190,168507,1,8,0:0:0:0:
250,344,168678,2,0,P|309:323|340:207,1,187.5,0|4,0:0|0:0,0:0:0:0:
151,190,169193,1,8,0:0:0:0:
237,50,169364,2,0,L|246:247,1,187.5,0|6,0:0|0:0,0:0:0:0:
245,237,169793,1,2,0:0:0:0:
245,237,169878,1,10,0:0:0:0:
150,84,170050,1,0,0:0:0:0:
307,101,170221,6,0,P|222:135|149:82,1,187.5,4|8,0:0|0:0,0:0:0:0:
0,155,170735,2,0,P|46:137|107:157,1,93.75,0|0,0:0|0:0,0:0:0:0:
142,225,171078,1,4,0:0:0:0:
59,308,171250,2,0,L|54:214,1,93.75,8|0,0:0|0:0,0:0:0:0:
229,214,171593,6,0,L|225:308,1,93.75,4|0,0:0|0:0,0:0:0:0:
316,225,171935,1,8,0:0:0:0:
282,144,172107,1,0,0:0:0:0:
194,133,172278,1,0,0:0:0:0:
140,202,172450,1,4,0:0:0:0:
171,282,172621,2,0,P|213:304|265:296,1,93.75,8|0,0:0|0:0,0:0:0:0:
194,133,172964,5,4,0:0:0:0:
194,133,173307,5,8,0:0:0:0:
370,155,173478,1,4,0:0:0:0:
370,155,173821,5,8,0:0:0:0:
262,15,173992,1,4,0:0:0:0:
278,197,174164,1,8,0:0:0:0:
354,57,174335,1,4,0:0:0:0:
354,57,174678,5,8,0:0:0:0:
386,253,174850,1,4,0:0:0:0:
386,253,175193,5,8,0:0:0:0:
354,57,175365,1,4,0:0:0:0:
278,197,175535,1,8,0:0:0:0:
370,155,175707,5,2,0:0:0:0:
