osu file format v14

[General]
AudioFilename: time bomb.mp3
AudioLeadIn: 0
PreviewTime: 131735
Countdown: 0
SampleSet: Normal
StackLeniency: 0.7
Mode: 0
LetterboxInBreaks: 0
WidescreenStoryboard: 1

[Editor]
DistanceSpacing: 1.4
BeatDivisor: 4
GridSize: 32
TimelineZoom: 1.8

[Metadata]
Title:Time Bomb (feat. Veela)
TitleUnicode:Time Bomb (feat. Veela)
Artist:Feint & Boyinaband
ArtistUnicode:Feint & Boyinaband
Creator:Naitsirk
Version:Hyper
Source:
Tags:dnb d&b d'n'b drum and n' bass monstercat 007 solace ft. icebolt
BeatmapID:1548114
BeatmapSetID:652909

[Difficulty]
HPDrainRate:6
CircleSize:4
OverallDifficulty:6
ApproachRate:8
SliderMultiplier:1.4
SliderTickRate:1

[Events]
//Background and Video events
0,0,"time bomb.jpg",0,0
//Break Periods
2,88135,98156
//Storyboard Layer 0 (Background)
//Storyboard Layer 1 (Fail)
//Storyboard Layer 2 (Pass)
//Storyboard Layer 3 (Foreground)
//Storyboard Sound Samples

[TimingPoints]
164,342.857142857143,4,2,1,50,1,0
38564,-100,4,2,1,55,0,0
42678,-133.333333333333,4,2,1,60,0,0
43364,-200,4,2,1,60,0,0
44049,-80,4,1,1,70,0,1
44392,-80,4,1,1,70,0,0
64621,-100,4,2,1,40,0,0
65992,-80,4,1,1,70,0,1
87935,-80,4,1,1,60,0,0
98906,-100,4,2,1,50,0,0
104392,-100,4,2,1,55,0,0
109192,-200,4,2,1,60,0,0
109878,-80,4,1,1,70,0,1
110221,-80,4,1,1,70,0,0
130449,-100,4,2,1,40,0,0
131821,-80,4,1,1,70,0,1
151021,-100,4,1,1,70,0,1
152392,-100,4,1,1,70,0,0
153764,-80,4,1,1,70,0,0
175706,-100,4,1,1,70,0,0

[Colours]
Combo1 : 248,193,0
Combo2 : 255,76,0
Combo3 : 255,138,21
SliderBorder : 255,127,0

[HitObjects]
106,260,22106,6,0,L|260:266,1,140,6|8,0:0|0:0,0:0:0:0:
321,303,22621,1,0,0:0:0:0:
321,303,22706,1,0,0:0:0:0:
321,303,22792,2,0,L|367:304,2,35,0|0|4,0:0|0:0|0:0,0:0:0:0:
310,222,23135,2,0,P|318:188|312:154,1,70,8|0,0:0|0:0,0:0:0:0:
280,72,23478,6,0,P|314:78|347:70,1,70,6|0,0:0|0:0,0:0:0:0:
408,119,23821,2,0,P|442:112|475:120,1,70,8|0,0:0|0:0,0:0:0:0:
443,190,24164,2,0,B|420:199|397:199|375:190|375:190|352:180|330:180|307:190,1,140,0|8,0:0|0:0,0:0:0:0:
254,243,24678,1,0,0:0:0:0:
194,160,24849,6,0,L|199:299,1,140,6|8,0:0|0:0,0:0:0:0:
123,316,25364,1,0,0:0:0:0:
123,316,25449,1,0,0:0:0:0:
123,316,25535,2,0,L|121:269,2,35,0|0|4,0:0|0:0|0:0,0:0:0:0:
48,337,25878,2,0,L|44:239,1,70,8|0,0:0|0:0,0:0:0:0:
12,197,26221,6,0,P|45:189|79:195,1,70,6|0,0:0|0:0,0:0:0:0:
126,134,26564,2,0,P|160:140|193:132,1,70,8|0,0:0|0:0,0:0:0:0:
231,65,26906,2,0,P|295:39|366:67,1,140,0|8,0:0|0:0,0:0:0:0:
410,119,27421,1,0,0:0:0:0:
298,128,27592,6,0,L|306:292,1,140,6|8,0:0|0:0,0:0:0:0:
385,293,28106,1,0,0:0:0:0:
385,293,28192,1,0,0:0:0:0:
385,293,28278,2,0,L|386:246,2,35,0|0|4,0:0|0:0|0:0,0:0:0:0:
322,346,28621,2,0,L|224:342,1,70,8|0,0:0|0:0,0:0:0:0:
175,337,28964,6,0,P|168:302|176:269,1,70,6|0,0:0|0:0,0:0:0:0:
252,247,29306,2,0,P|258:212|250:179,1,70,8|0,0:0|0:0,0:0:0:0:
181,145,29649,2,0,P|231:104|306:125,1,140,0|8,0:0|0:0,0:0:0:0:
335,189,30164,1,0,0:0:0:0:
252,247,30335,6,0,L|392:241,1,140,6|8,0:0|0:0,0:0:0:0:
468,237,30849,2,0,P|475:270|469:304,1,70,0|0,0:0|0:0,0:0:0:0:
397,333,31192,1,4,0:0:0:0:
319,337,31364,2,0,L|221:340,1,70,8|0,0:0|0:0,0:0:0:0:
252,247,31706,6,0,L|112:240,1,140,6|8,0:0|0:0,0:0:0:0:
59,181,32221,2,0,P|99:130|78:55,1,140,0|4,0:0|0:0,0:0:0:0:
24,111,32735,1,8,0:0:0:0:
252,247,33078,6,0,P|258:212|177:134,1,140,6|8,0:0|0:0,0:0:0:0:
176,218,33592,1,0,0:0:0:0:
176,218,33678,1,0,0:0:0:0:
176,218,33764,2,0,L|141:219,2,35,0|0|4,0:0|0:0|0:0,0:0:0:0:
182,301,34106,2,0,P|206:323|245:335,1,70,8|0,0:0|0:0,0:0:0:0:
294,278,34449,6,0,L|291:208,2,70,6|0|8,0:0|0:0|0:0,0:0:0:0:
357,322,34964,1,0,0:0:0:0:
419,277,35135,2,0,L|423:125,1,140,0|8,0:0|0:0,0:0:0:0:
424,59,35649,1,0,0:0:0:0:
319,56,35821,5,6,0:0:0:0:
319,56,35992,2,0,L|316:126,1,70,0|8,0:0|0:0,0:0:0:0:
269,186,36335,1,0,0:0:0:0:
269,186,36421,1,0,0:0:0:0:
269,186,36506,2,0,L|267:221,2,35,0|0|4,0:0|0:0|0:0,0:0:0:0:
220,116,36849,2,0,L|150:113,1,70,8|0,0:0|0:0,0:0:0:0:
76,205,37192,6,0,L|146:202,1,70,6|0,0:0|0:0,0:0:0:0:
193,271,37535,1,8,0:0:0:0:
149,342,37706,1,0,0:0:0:0:
193,271,37878,2,0,L|266:276,1,70,0|0,0:0|0:0,0:0:0:0:
344,283,38221,1,8,0:0:0:0:
344,283,38392,1,0,0:0:0:0:
414,180,38564,6,0,P|358:215|345:285,1,140,6|8,0:0|0:0,0:0:0:0:
431,269,39078,1,0,0:0:0:0:
431,269,39164,1,0,0:0:0:0:
431,269,39249,2,0,P|448:271|462:280,2,35,0|0|4,0:0|0:0|0:0,0:0:0:0:
414,180,39592,2,0,L|417:110,1,70,8|0,0:0|0:0,0:0:0:0:
458,28,39935,5,6,0:0:0:0:
367,16,40106,1,0,0:0:0:0:
276,33,40278,1,8,0:0:0:0:
205,85,40449,1,0,0:0:0:0:
175,165,40621,2,0,P|218:208|212:292,1,140,0|8,0:0|0:0,0:0:0:0:
141,246,41135,1,0,0:0:0:0:
180,360,41306,6,0,P|234:364|298:283,1,140,6|8,0:0|0:0,0:0:0:0:
281,217,41821,2,0,P|304:265|406:280,1,140,0|4,0:0|0:0,0:0:0:0:
434,206,42335,2,0,L|364:209,1,70,8|0,0:0|0:0,0:0:0:0:
255,116,42678,6,0,P|305:131|351:109,1,105.000004005432,6|8,0:0|0:0,0:0:0:0:
299,55,43192,1,0,0:0:0:0:
194,59,43364,6,0,P|174:88|173:123,1,70,0|0,0:0|0:0,0:0:0:0:
281,217,44049,6,0,P|238:209|192:217,1,87.5,6|0,0:0|0:0,0:0:0:0:
237,312,44392,1,8,0:0:0:0:
342,273,44564,2,0,P|361:192|296:135,1,175,2|6,0:0|0:0,0:0:0:0:
262,46,45078,2,0,P|305:52|347:44,1,87.5,8|0,0:0|0:0,0:0:0:0:
484,40,45421,6,0,L|480:127,1,87.5,6|0,0:0|0:0,0:0:0:0:
416,214,45764,2,0,P|339:177|265:216,1,175,10|0,0:0|0:0,0:0:0:0:
342,273,46278,1,6,0:0:0:0:
419,329,46449,2,0,L|506:332,1,87.5,8|0,0:0|0:0,0:0:0:0:
503,210,46792,6,0,L|415:213,1,87.5,6|0,0:0|0:0,0:0:0:0:
333,146,47135,2,0,L|148:139,1,175,10|0,0:0|0:0,0:0:0:0:
35,136,47649,1,6,0:0:0:0:
103,243,47821,2,0,L|191:240,1,87.5,10|0,0:0|0:0,0:0:0:0:
313,239,48164,5,2,0:0:0:0:
313,239,48335,1,4,0:0:0:0:
238,335,48506,2,0,L|46:341,1,175,10|0,0:0|0:0,0:0:0:0:
15,255,49021,1,6,0:0:0:0:
52,166,49192,1,10,0:0:0:0:
103,243,49364,1,0,0:0:0:0:
162,135,49535,6,0,P|205:128|247:136,1,87.5,6|0,0:0|0:0,0:0:0:0:
293,230,49878,1,10,0:0:0:0:
383,175,50049,2,0,L|389:0,1,175,0|6,0:0|0:0,0:0:0:0:
469,87,50564,2,0,L|472:174,1,87.5,10|0,0:0|0:0,0:0:0:0:
425,279,50906,6,0,P|382:287|339:281,1,87.5,6|0,0:0|0:0,0:0:0:0:
210,173,51249,2,0,P|300:160|390:177,1,175,10|0,0:0|0:0,0:0:0:0:
366,69,51764,1,6,0:0:0:0:
274,33,51935,2,0,P|231:41|188:35,1,87.5,10|0,0:0|0:0,0:0:0:0:
64,108,52278,6,0,L|152:111,1,87.5,6|0,0:0|0:0,0:0:0:0:
196,205,52621,2,0,L|21:198,1,175,10|0,0:0|0:0,0:0:0:0:
74,293,53135,1,2,0:0:0:0:
178,294,53306,2,0,L|266:291,1,87.5,10|0,0:0|0:0,0:0:0:0:
370,289,53649,5,2,0:0:0:0:
370,289,53821,1,4,0:0:0:0:
313,200,53992,2,0,P|305:157|312:114,1,87.5,10|0,0:0|0:0,0:0:0:0:
397,159,54335,1,2,0:0:0:0:
478,107,54506,1,6,0:0:0:0:
392,62,54678,1,10,0:0:0:0:
473,10,54849,1,2,0:0:0:0:
308,26,55021,6,0,L|311:114,1,87.5,6|0,0:0|0:0,0:0:0:0:
221,161,55364,2,0,P|139:184|69:135,1,175,10|0,0:0|0:0,0:0:0:0:
161,83,55878,1,6,0:0:0:0:
161,83,56049,1,8,0:0:0:0:
281,326,56392,6,0,L|284:238,1,87.5,6|0,0:0|0:0,0:0:0:0:
328,142,56735,2,0,P|411:157|480:104,1,175,10|0,0:0|0:0,0:0:0:0:
392,62,57249,1,6,0:0:0:0:
392,62,57421,1,8,0:0:0:0:
163,75,57764,6,0,L|75:78,1,87.5,6|0,0:0|0:0,0:0:0:0:
36,175,58106,2,0,P|95:181|154:277,1,175,10|0,0:0|0:0,0:0:0:0:
52,277,58621,1,6,0:0:0:0:
122,354,58792,2,0,P|164:360|206:341,1,87.5,10|0,0:0|0:0,0:0:0:0:
247,246,59135,5,2,0:0:0:0:
247,246,59306,1,4,0:0:0:0:
335,302,59478,2,0,L|510:295,1,175,10|0,0:0|0:0,0:0:0:0:
496,190,59992,1,6,0:0:0:0:
408,131,60164,2,0,L|405:219,1,87.5,10|0,0:0|0:0,0:0:0:0:
286,170,60506,6,0,L|283:82,1,87.5,6|0,0:0|0:0,0:0:0:0:
186,41,60849,1,10,0:0:0:0:
95,95,61021,2,0,L|102:270,1,175,0|6,0:0|0:0,0:0:0:0:
197,315,61535,2,0,P|205:272|198:229,1,87.5,10|0,0:0|0:0,0:0:0:0:
286,170,61878,6,0,P|328:176|371:168,1,87.5,6|0,0:0|0:0,0:0:0:0:
448,95,62221,2,0,P|405:168|433:249,1,175,10|0,0:0|0:0,0:0:0:0:
357,334,62735,1,6,0:0:0:0:
283,257,62906,2,0,L|286:169,1,87.5,10|0,0:0|0:0,0:0:0:0:
289,43,63249,6,0,P|246:35|203:41,1,87.5,6|0,0:0|0:0,0:0:0:0:
110,92,63592,2,0,L|117:267,1,175,10|0,0:0|0:0,0:0:0:0:
204,339,64106,1,6,0:0:0:0:
283,257,64278,2,0,L|286:169,1,87.5,10|0,0:0|0:0,0:0:0:0:
345,110,64621,6,0,P|404:99|453:24,1,140,10|10,2:0|2:0,0:0:0:0:
468,205,65306,2,0,P|473:243|460:292,1,70,0|10,0:0|0:0,0:0:0:0:
383,306,65649,2,0,P|377:271|382:237,1,70,0|0,0:0|0:0,0:0:0:0:
248,291,65992,6,0,L|160:288,1,87.5,4|0,0:0|0:0,0:0:0:0:
50,251,66335,1,8,0:0:0:0:
42,146,66506,1,0,0:0:0:0:
147,99,66678,2,0,P|155:141|149:184,2,87.5,0|4|8,0:0|0:0|0:0,0:0:0:0:
246,196,67192,6,0,L|334:199,1,87.5,0|4,0:0|0:0,0:0:0:0:
430,107,67535,2,0,L|342:110,1,87.5,0|8,0:0|0:0,0:0:0:0:
437,207,67878,1,0,0:0:0:0:
438,305,68049,1,0,0:0:0:0:
437,207,68221,1,4,0:0:0:0:
343,262,68392,2,0,P|335:304|344:347,1,87.5,8|0,0:0|0:0,0:0:0:0:
247,291,68735,5,4,0:0:0:0:
237,185,68906,1,0,0:0:0:0:
323,123,69078,1,8,0:0:0:0:
419,166,69249,1,0,0:0:0:0:
428,269,69421,2,0,P|385:278|343:271,2,87.5,0|4|8,0:0|0:0|0:0,0:0:0:0:
503,190,69935,6,0,P|484:107|402:78,1,175,0|4,0:0|0:0,0:0:0:0:
326,147,70449,1,8,0:0:0:0:
238,87,70621,2,0,P|152:104|66:90,1,175,0|4,0:0|0:0,0:0:0:0:
18,183,71135,2,0,P|12:226|20:268,1,87.5,8|0,0:0|0:0,0:0:0:0:
183,228,71478,6,0,L|95:225,1,87.5,4|0,0:0|0:0,0:0:0:0:
137,321,71821,1,8,0:0:0:0:
241,315,71992,1,0,0:0:0:0:
287,221,72164,1,0,0:0:0:0:
228,134,72335,2,0,L|140:131,1,87.5,4|8,0:0|0:0,0:0:0:0:
42,92,72678,1,0,0:0:0:0:
128,33,72849,6,0,P|171:27|213:35,1,87.5,4|0,0:0|0:0,0:0:0:0:
310,77,73192,2,0,P|396:63|482:77,1,175,8|0,0:0|0:0,0:0:0:0:
482,182,73706,1,4,0:0:0:0:
472,286,73878,1,8,0:0:0:0:
482,182,74049,1,0,0:0:0:0:
386,225,74221,6,0,P|343:216|300:224,1,87.5,4|0,0:0|0:0,0:0:0:0:
200,329,74564,2,0,P|243:337|286:329,1,87.5,8|0,0:0|0:0,0:0:0:0:
184,226,74906,2,0,P|141:217|98:225,1,87.5,0|4,0:0|0:0,0:0:0:0:
28,147,75249,1,8,0:0:0:0:
112,83,75421,6,0,P|154:74|197:81,1,87.5,0|0,0:0|0:0,0:0:0:0:
281,163,75764,2,0,P|239:171|196:165,1,87.5,4|8,0:0|0:0,0:0:0:0:
112,277,76106,6,0,L|116:189,1,87.5,0|0,0:0|0:0,0:0:0:0:
19,255,76449,2,0,L|24:343,1,87.5,4|8,0:0|0:0,0:0:0:0:
358,314,76964,6,0,L|362:226,1,87.5,4|0,0:0|0:0,0:0:0:0:
366,130,77306,1,8,0:0:0:0:
433,49,77478,1,0,0:0:0:0:
482,141,77649,2,0,L|477:250,2,87.5,0|4|8,0:0|0:0|0:0,0:0:0:0:
366,130,78164,6,0,P|323:139|280:131,1,87.5,0|4,0:0|0:0,0:0:0:0:
198,45,78506,2,0,P|240:35|283:43,1,87.5,0|8,0:0|0:0,0:0:0:0:
195,139,78849,1,0,0:0:0:0:
221,240,79020,1,0,0:0:0:0:
143,310,79191,1,4,0:0:0:0:
52,253,79364,2,0,L|56:165,1,87.5,8|0,0:0|0:0,0:0:0:0:
67,66,79706,5,4,0:0:0:0:
155,124,79878,1,0,0:0:0:0:
243,66,80049,1,8,0:0:0:0:
331,124,80221,1,0,0:0:0:0:
419,66,80392,2,0,L|528:61,2,87.5,0|4|8,0:0|0:0|0:0,0:0:0:0:
423,168,80906,6,0,P|364:230|280:221,1,175,0|4,0:0|0:0,0:0:0:0:
196,161,81421,1,8,0:0:0:0:
111,249,81592,2,0,B|148:232|194:251|194:251|219:298|263:308,1,175,0|4,0:0|0:0,0:0:0:0:
368,218,82106,2,0,L|280:221,1,87.5,8|0,0:0|0:0,0:0:0:0:
401,303,82449,6,0,P|456:239|436:158,1,175,4|8,0:0|0:0,0:0:0:0:
330,133,82964,1,0,0:0:0:0:
407,62,83135,1,0,0:0:0:0:
407,62,83306,1,4,0:0:0:0:
304,38,83478,2,0,L|216:41,1,87.5,8|0,0:0|0:0,0:0:0:0:
134,129,83821,6,0,L|222:132,1,87.5,4|0,0:0|0:0,0:0:0:0:
272,223,84164,2,0,L|97:228,1,175,8|0,0:0|0:0,0:0:0:0:
71,330,84678,1,4,0:0:0:0:
175,329,84849,2,0,L|263:326,1,87.5,8|0,0:0|0:0,0:0:0:0:
367,325,85192,5,4,0:0:0:0:
286,93,85535,5,8,0:0:0:0:
272,223,85706,1,4,0:0:0:0:
485,144,86049,5,8,0:0:0:0:
478,21,86220,1,4,0:0:0:0:
387,127,86392,1,8,0:0:0:0:
380,4,86564,1,4,0:0:0:0:
272,223,86906,5,8,0:0:0:0:
284,101,87077,1,4,0:0:0:0:
76,190,87421,5,8,0:0:0:0:
94,310,87591,1,4,0:0:0:0:
174,207,87764,1,8,0:0:0:0:
192,327,87935,5,6,0:0:0:0:
338,58,98906,6,0,L|343:197,1,140,6|8,0:0|0:0,0:0:0:0:
353,282,99421,1,0,0:0:0:0:
353,282,99506,1,0,0:0:0:0:
353,282,99592,2,0,L|354:323,2,35,0|0|4,0:0|0:0|0:0,0:0:0:0:
270,236,99935,2,0,P|236:227|202:236,1,70,8|0,0:0|0:0,0:0:0:0:
134,280,100278,6,0,L|130:377,2,70,6|0|8,0:0|0:0|0:0,0:0:0:0:
137,202,100792,1,0,0:0:0:0:
140,124,100964,2,0,P|186:80|261:89,1,140,0|8,0:0|0:0,0:0:0:0:
315,139,101478,1,0,0:0:0:0:
388,85,101649,5,6,0:0:0:0:
388,85,101820,2,0,P|402:118|403:153,1,70,0|8,0:0|0:0,0:0:0:0:
371,230,102164,1,0,0:0:0:0:
371,230,102249,1,0,0:0:0:0:
371,230,102335,2,0,L|336:228,2,35,0|0|4,0:0|0:0|0:0,0:0:0:0:
381,313,102678,2,0,L|283:316,1,70,8|0,0:0|0:0,0:0:0:0:
176,250,103021,6,0,P|206:269|223:299,1,70,6|0,0:0|0:0,0:0:0:0:
145,330,103364,1,8,0:0:0:0:
95,262,103535,1,0,0:0:0:0:
125,183,103706,2,0,P|141:151|141:117,1,70,0|0,0:0|0:0,0:0:0:0:
61,123,104049,1,8,0:0:0:0:
61,123,104221,1,0,0:0:0:0:
95,262,104392,6,0,P|162:256|203:202,1,140,6|8,0:0|0:0,0:0:0:0:
205,116,104906,1,0,0:0:0:0:
205,116,104992,1,0,0:0:0:0:
205,116,105078,2,0,L|203:81,2,35,0|0|4,0:0|0:0|0:0,0:0:0:0:
278,157,105421,2,0,P|311:165|345:156,1,70,8|0,0:0|0:0,0:0:0:0:
433,117,105764,5,6,0:0:0:0:
430,200,105935,1,0,0:0:0:0:
365,253,106106,1,8,0:0:0:0:
362,336,106277,1,0,0:0:0:0:
290,291,106449,2,0,B|267:278|245:278|222:291|222:291|200:303|178:303|155:291,1,140,0|8,0:0|0:0,0:0:0:0:
83,248,106964,1,0,0:0:0:0:
189,215,107135,6,0,P|213:183|190:89,1,140,6|8,0:0|0:0,0:0:0:0:
122,45,107649,2,0,L|261:49,1,140,0|4,0:0|0:0,0:0:0:0:
346,50,108164,2,0,P|340:84|318:111,1,70,8|0,0:0|0:0,0:0:0:0:
250,166,108506,6,0,B|273:153|295:153|318:166|318:166|340:178|362:178|385:166,1,140,6|8,0:0|0:0,0:0:0:0:
432,106,109021,1,0,0:0:0:0:
473,170,109192,6,0,L|469:259,1,70,0|0,0:0|0:0,0:0:0:0:
278,268,109878,6,0,P|236:258|193:267,1,87.5,4|0,0:0|0:0,0:0:0:0:
117,325,110221,1,8,0:0:0:0:
113,229,110392,2,0,L|107:44,1,175,0|6,0:0|0:0,0:0:0:0:
193,12,110906,2,0,L|189:101,1,87.5,8|0,0:0|0:0,0:0:0:0:
266,170,111249,6,0,P|308:179|350:168,1,87.5,6|0,0:0|0:0,0:0:0:0:
424,92,111592,2,0,P|378:163|399:246,1,175,10|0,0:0|0:0,0:0:0:0:
480,313,112106,1,6,0:0:0:0:
380,347,112278,2,0,L|292:343,1,87.5,8|0,0:0|0:0,0:0:0:0:
168,338,112621,6,0,P|156:296|165:253,1,87.5,6|0,0:0|0:0,0:0:0:0:
233,172,112964,2,0,P|162:218|75:193,1,175,10|0,0:0|0:0,0:0:0:0:
47,86,113478,1,6,0:0:0:0:
151,29,113649,2,0,L|147:117,1,87.5,10|0,0:0|0:0,0:0:0:0:
244,76,113992,5,2,0:0:0:0:
244,76,114164,1,4,0:0:0:0:
233,172,114335,2,0,P|315:193|386:147,1,175,10|0,0:0|0:0,0:0:0:0:
426,69,114849,1,6,0:0:0:0:
477,139,115021,1,10,0:0:0:0:
440,218,115192,1,0,0:0:0:0:
402,297,115364,6,0,P|360:308|317:299,1,87.5,6|0,0:0|0:0,0:0:0:0:
221,258,115706,1,10,0:0:0:0:
172,164,115878,2,0,L|178:349,1,175,0|6,0:0|0:0,0:0:0:0:
89,280,116392,2,0,L|86:192,1,87.5,10|0,0:0|0:0,0:0:0:0:
127,95,116735,6,0,P|166:81|212:92,1,87.5,6|0,0:0|0:0,0:0:0:0:
258,184,117078,2,0,P|329:230|411:209,1,175,10|0,0:0|0:0,0:0:0:0:
459,115,117592,1,6,0:0:0:0:
503,210,117764,2,0,P|495:250|463:285,1,87.5,10|0,0:0|0:0,0:0:0:0:
362,309,118106,6,0,L|274:306,1,87.5,6|0,0:0|0:0,0:0:0:0:
236,214,118449,2,0,L|421:208,1,175,10|0,0:0|0:0,0:0:0:0:
459,115,118964,1,6,0:0:0:0:
354,119,119135,2,0,L|266:122,1,87.5,10|0,0:0|0:0,0:0:0:0:
161,124,119478,6,0,P|131:92|122:49,1,87.5,2|4,0:0|0:0,0:0:0:0:
54,130,119821,2,0,P|44:172|15:204,1,87.5,10|0,0:0|0:0,0:0:0:0:
45,295,120164,1,2,0:0:0:0:
108,223,120335,1,6,0:0:0:0:
139,314,120506,1,10,0:0:0:0:
202,242,120678,1,2,0:0:0:0:
105,135,120849,6,0,L|108:223,1,87.5,6|0,0:0|0:0,0:0:0:0:
139,314,121192,2,0,P|221:333|288:273,1,175,10|0,0:0|0:0,0:0:0:0:
296,183,121706,1,6,0:0:0:0:
296,183,121878,1,8,0:0:0:0:
458,0,122221,6,0,L|461:88,1,87.5,6|0,0:0|0:0,0:0:0:0:
463,182,122564,2,0,B|434:165|407:165|378:182|378:182|350:197|323:197|296:183,1,175,10|0,0:0|0:0,0:0:0:0:
337,87,123078,1,6,0:0:0:0:
337,87,123249,1,8,0:0:0:0:
258,281,123592,6,0,P|221:304|178:305,1,87.5,6|0,0:0|0:0,0:0:0:0:
116,231,123935,2,0,B|101:203|101:176|116:148|116:148|133:119|133:92|116:63,1,175,10|0,0:0|0:0,0:0:0:0:
28,102,124449,1,6,0:0:0:0:
22,207,124621,2,0,L|19:295,1,87.5,10|0,0:0|0:0,0:0:0:0:
96,366,124964,5,2,0:0:0:0:
96,366,125135,1,4,0:0:0:0:
177,305,125306,2,0,P|261:290|322:347,1,175,10|0,0:0|0:0,0:0:0:0:
425,324,125821,1,6,0:0:0:0:
429,219,125992,2,0,L|432:131,1,87.5,10|0,0:0|0:0,0:0:0:0:
341,76,126335,6,0,L|344:164,1,87.5,6|0,0:0|0:0,0:0:0:0:
349,268,126678,1,10,0:0:0:0:
256,218,126849,2,0,P|194:161|111:176,1,175,0|6,0:0|0:0,0:0:0:0:
83,277,127364,2,0,P|126:280|164:261,1,87.5,10|0,0:0|0:0,0:0:0:0:
256,218,127706,6,0,L|259:306,1,87.5,6|0,0:0|0:0,0:0:0:0:
353,258,128049,2,0,L|347:83,1,175,10|0,0:0|0:0,0:0:0:0:
251,37,128564,1,6,0:0:0:0:
181,115,128735,2,0,P|142:134|99:131,1,87.5,10|0,0:0|0:0,0:0:0:0:
0,95,129078,6,0,L|3:183,1,87.5,6|0,0:0|0:0,0:0:0:0:
90,239,129421,2,0,B|118:224|145:224|173:239|173:239|202:256|229:256|257:240,1,175,10|0,0:0|0:0,0:0:0:0:
303,145,129935,1,6,0:0:0:0:
361,231,130106,2,0,P|358:274|334:310,1,87.5,10|0,0:0|0:0,0:0:0:0:
257,240,130449,6,0,P|200:203|134:218,1,140,10|10,0:0|0:0,0:0:0:0:
196,93,131135,2,0,P|230:84|264:92,1,70,0|10,0:0|0:0,0:0:0:0:
346,106,131478,2,0,P|380:114|414:106,1,70,0|0,0:0|0:0,0:0:0:0:
488,221,131821,6,0,L|400:224,1,87.5,4|0,0:0|0:0,0:0:0:0:
295,225,132164,1,8,0:0:0:0:
236,311,132335,1,0,0:0:0:0:
131,315,132506,2,0,L|43:318,2,87.5,0|4|8,0:0|0:0|0:0,0:0:0:0:
179,210,133021,6,0,P|190:167|173:116,1,87.5,0|4,0:0|0:0,0:0:0:0:
95,75,133364,2,0,P|52:86|16:127,1,87.5,0|8,0:0|0:0,0:0:0:0:
11,219,133706,1,0,0:0:0:0:
103,169,133878,1,0,0:0:0:0:
11,219,134049,1,4,0:0:0:0:
43,317,134221,2,0,L|131:314,1,87.5,8|0,0:0|0:0,0:0:0:0:
235,311,134564,5,4,0:0:0:0:
339,293,134735,1,0,0:0:0:0:
355,188,134906,1,8,0:0:0:0:
259,140,135078,1,0,0:0:0:0:
182,214,135249,2,0,L|94:217,2,87.5,0|4|8,0:0|0:0|0:0,0:0:0:0:
235,311,135764,6,0,B|263:296|290:296|318:311|318:311|347:328|374:328|403:311,1,175,0|4,0:0|0:0,0:0:0:0:
461,225,136278,1,8,0:0:0:0:
401,138,136449,2,0,B|374:122|347:122|318:139|318:139|290:154|263:154|235:139,1,175,0|4,0:0|0:0,0:0:0:0:
164,59,136964,1,8,0:0:0:0:
99,141,137135,1,0,0:0:0:0:
170,221,137306,6,0,P|180:262|169:304,1,87.5,4|0,0:0|0:0,0:0:0:0:
254,365,137649,1,8,0:0:0:0:
323,285,137821,1,0,0:0:0:0:
409,346,137992,1,0,0:0:0:0:
477,266,138164,2,0,L|480:178,1,87.5,4|8,0:0|0:0,0:0:0:0:
483,73,138506,1,0,0:0:0:0:
390,123,138678,6,0,P|349:134|307:124,1,87.5,4|0,0:0|0:0,0:0:0:0:
223,51,139021,2,0,P|260:129|226:208,1,175,8|0,0:0|0:0,0:0:0:0:
153,133,139535,1,4,0:0:0:0:
81,209,139706,1,8,0:0:0:0:
156,282,139878,1,0,0:0:0:0:
227,206,140049,6,0,P|269:195|310:207,1,87.5,4|0,0:0|0:0,0:0:0:0:
447,247,140392,2,0,P|417:215|406:173,1,87.5,8|0,0:0|0:0,0:0:0:0:
378,35,140735,2,0,P|365:76|334:106,1,87.5,0|4,0:0|0:0,0:0:0:0:
228,61,141078,1,8,0:0:0:0:
173,165,141249,6,0,L|85:168,1,87.5,0|0,0:0|0:0,0:0:0:0:
59,269,141592,2,0,L|147:272,1,87.5,4|8,0:0|0:0,0:0:0:0:
251,276,141935,6,0,L|339:279,1,87.5,0|0,0:0|0:0,0:0:0:0:
365,380,142278,2,0,L|277:383,1,87.5,4|8,0:0|0:0,0:0:0:0:
85,167,142792,6,0,B|113:182|140:182|168:167|168:167|197:150|224:150|251:166,1,175,4|8,0:0|0:0,0:0:0:0:
326,92,143306,1,0,0:0:0:0:
372,186,143478,2,0,P|413:197|455:184,2,87.5,0|4|8,0:0|0:0|0:0,0:0:0:0:
311,272,143992,6,0,L|308:360,1,87.5,0|4,0:0|0:0,0:0:0:0:
194,318,144335,2,0,L|197:230,1,87.5,0|8,0:0|0:0,0:0:0:0:
201,124,144678,1,0,0:0:0:0:
293,58,144849,1,0,0:0:0:0:
365,146,145021,1,4,0:0:0:0:
361,259,145192,2,0,L|358:347,1,87.5,8|0,0:0|0:0,0:0:0:0:
461,280,145535,5,4,0:0:0:0:
467,173,145706,1,0,0:0:0:0:
365,146,145878,1,8,0:0:0:0:
371,39,146049,1,0,0:0:0:0:
278,91,146221,2,0,P|236:103|195:92,2,87.5,0|4|8,0:0|0:0|0:0,0:0:0:0:
365,146,146735,6,0,L|358:327,1,175,0|4,0:0|0:0,0:0:0:0:
247,348,147249,1,8,0:0:0:0:
228,242,147421,2,0,B|200:227|173:227|143:242|143:242|115:256|88:256|59:242,1,175,0|4,0:0|0:0,0:0:0:0:
100,150,147935,2,0,P|111:108|99:66,1,87.5,8|0,0:0|0:0,0:0:0:0:
230,50,148278,6,0,B|258:65|285:65|313:50|313:50|342:33|369:33|396:49,1,175,4|8,0:0|0:0,0:0:0:0:
483,108,148792,1,0,0:0:0:0:
392,155,148964,1,0,0:0:0:0:
478,214,149135,1,4,0:0:0:0:
388,267,149306,2,0,L|300:270,1,87.5,8|0,0:0|0:0,0:0:0:0:
202,230,149649,6,0,P|194:271|205:318,1,87.5,4|0,0:0|0:0,0:0:0:0:
302,350,149992,2,0,B|275:366|248:366|219:349|219:349|191:334|164:334|136:349,1,175,8|0,0:0|0:0,0:0:0:0:
113,246,150506,1,4,0:0:0:0:
157,150,150678,2,0,P|199:136|241:147,1,87.5,8|0,0:0|0:0,0:0:0:0:
313,190,151021,6,0,P|345:202|380:199,1,70,4|0,0:0|0:0,0:0:0:0:
438,138,151364,2,0,P|411:201|422:270,1,140,8|0,0:0|0:0,0:0:0:0:
486,325,151878,1,4,0:0:0:0:
486,325,152049,2,0,P|459:347|426:356,1,70,8|0,0:0|0:0,0:0:0:0:
351,316,152392,5,4,0:0:0:0:
191,319,153764,6,0,P|243:345|354:314,1,175,4|8,0:0|0:0,0:0:0:0:
390,248,154278,1,0,0:0:0:0:
351,179,154450,2,0,P|343:136|353:93,2,87.5,0|4|8,0:0|0:0|0:0,0:0:0:0:
293,233,154964,6,0,L|205:230,1,87.5,2|4,0:0|0:0,0:0:0:0:
126,226,155307,1,2,0:0:0:0:
68,172,155478,2,0,L|71:84,1,87.5,10|0,0:0|0:0,0:0:0:0:
141,47,155821,1,2,0:0:0:0:
170,59,155906,1,2,0:0:0:0:
192,82,155992,1,6,0:0:0:0:
203,111,156078,1,2,0:0:0:0:
205,141,156164,2,0,L|161:142,3,43.75,10|2|2|2,0:0|0:0|0:0|0:0,0:0:0:0:
227,153,156507,6,0,P|275:162|401:111,1,175,6|8,0:0|0:0,0:0:0:0:
457,78,157021,1,0,0:0:0:0:
457,78,157107,1,0,0:0:0:0:
457,78,157193,2,0,P|468:116|456:162,1,87.5,0|4,0:0|0:0,0:0:0:0:
473,238,157535,1,8,0:0:0:0:
405,282,157707,6,0,B|376:267|347:267|320:282|320:282|292:298|264:298|237:282,1,175,0|4,0:0|0:0,0:0:0:0:
199,214,158221,1,10,0:0:0:0:
276,200,158393,1,2,0:0:0:0:
255,124,158564,1,2,0:0:0:0:
332,138,158736,1,6,0:0:0:0:
394,61,158907,2,0,L|306:64,1,87.5,10|0,0:0|0:0,0:0:0:0:
184,70,159250,6,0,P|175:154|238:210,1,175,4|8,0:0|0:0,0:0:0:0:
316,217,159764,1,0,0:0:0:0:
273,283,159935,1,0,0:0:0:0:
273,283,160107,1,4,0:0:0:0:
332,334,160278,2,0,L|420:331,1,87.5,8|0,0:0|0:0,0:0:0:0:
459,262,160621,6,0,L|456:174,1,87.5,4|0,0:0|0:0,0:0:0:0:
392,127,160964,1,8,0:0:0:0:
320,160,161135,1,0,0:0:0:0:
253,118,161306,2,0,P|213:99|170:100,1,87.5,0|4,0:0|0:0,0:0:0:0:
196,181,161650,2,0,P|205:223|197:266,1,87.5,8|0,0:0|0:0,0:0:0:0:
135,322,161993,6,0,P|177:312|220:320,1,87.5,4|0,0:0|0:0,0:0:0:0:
284,275,162335,2,0,P|326:284|369:276,1,87.5,8|0,0:0|0:0,0:0:0:0:
431,227,162678,2,0,P|440:184|432:141,1,87.5,0|4,0:0|0:0,0:0:0:0:
371,83,163021,1,8,0:0:0:0:
355,181,163193,6,0,P|312:189|269:179,1,87.5,0|0,0:0|0:0,0:0:0:0:
234,109,163535,2,0,P|191:100|148:110,1,87.5,4|8,0:0|0:0,0:0:0:0:
146,197,163878,2,0,L|149:109,1,87.5,0|0,0:0|0:0,0:0:0:0:
70,124,164221,2,0,L|67:212,1,87.5,4|8,0:0|0:0,0:0:0:0:
102,282,164564,6,0,P|144:290|187:280,1,87.5,2|4,0:0|0:0,0:0:0:0:
233,216,164907,2,0,P|275:207|318:217,1,87.5,2|8,0:0|0:0,0:0:0:0:
364,280,165250,2,0,P|406:288|449:278,1,87.5,2|0,0:0|0:0,0:0:0:0:
448,198,165593,1,6,0:0:0:0:
448,198,165678,1,2,0:0:0:0:
448,198,165764,1,10,0:0:0:0:
386,125,165935,6,0,L|298:128,1,87.5,0|0,0:0|0:0,0:0:0:0:
275,203,166278,2,0,L|187:200,1,87.5,0|8,0:0|0:0,0:0:0:0:
108,196,166621,1,0,0:0:0:0:
151,130,166793,1,0,0:0:0:0:
116,60,166964,1,4,0:0:0:0:
73,126,167135,1,8,0:0:0:0:
194,64,167307,6,0,B|219:48|247:48|275:64|275:64|302:79|331:79|360:64,1,175,0|0,0:0|0:0,0:0:0:0:
442,85,167821,1,10,0:0:0:0:
442,85,167907,1,2,0:0:0:0:
442,85,167993,1,2,0:0:0:0:
477,162,168164,6,0,P|437:173|392:161,2,87.5,0|4|8,0:0|0:0|0:0,0:0:0:0:
505,236,168678,2,0,P|419:250|338:220,1,175,0|4,0:0|0:0,0:0:0:0:
317,144,169193,1,8,0:0:0:0:
246,178,169364,2,0,P|205:192|162:186,1,87.5,0|0,0:0|0:0,0:0:0:0:
98,140,169707,1,6,0:0:0:0:
98,140,169793,1,2,0:0:0:0:
98,140,169878,1,10,0:0:0:0:
36,189,170050,1,0,0:0:0:0:
97,248,170221,6,0,P|178:277|263:263,1,175,4|8,0:0|0:0,0:0:0:0:
330,221,170735,2,0,P|341:262|330:304,1,87.5,0|0,0:0|0:0,0:0:0:0:
398,344,171078,1,4,0:0:0:0:
465,302,171250,2,0,L|462:214,1,87.5,8|0,0:0|0:0,0:0:0:0:
459,135,171593,6,0,B|430:120|401:120|374:135|374:135|346:151|318:151|293:135,1,175,4|8,0:0|0:0,0:0:0:0:
241,74,172107,1,0,0:0:0:0:
186,130,172278,1,0,0:0:0:0:
186,130,172450,1,4,0:0:0:0:
124,178,172621,2,0,L|127:266,1,87.5,8|0,0:0|0:0,0:0:0:0:
194,321,172964,5,4,0:0:0:0:
424,238,173307,5,8,0:0:0:0:
303,220,173478,1,4,0:0:0:0:
74,147,173821,5,8,0:0:0:0:
195,130,173992,1,4,0:0:0:0:
98,56,174164,1,8,0:0:0:0:
219,39,174335,1,4,0:0:0:0:
442,116,174678,5,8,0:0:0:0:
424,238,174849,1,4,0:0:0:0:
200,323,175193,5,8,0:0:0:0:
183,202,175364,1,4,0:0:0:0:
303,220,175535,1,8,0:0:0:0:
320,99,175706,5,2,0:0:0:0:
