osu file format v14

[General]
AudioFilename: time bomb.mp3
AudioLeadIn: 0
PreviewTime: 131735
Countdown: 0
SampleSet: Soft
StackLeniency: 0.7
Mode: 0
LetterboxInBreaks: 0
WidescreenStoryboard: 1

[Editor]
DistanceSpacing: 1.3
BeatDivisor: 4
GridSize: 32
TimelineZoom: 0.9000002

[Metadata]
Title:Time Bomb (feat. Veela)
TitleUnicode:Time Bomb (feat. Veela)
Artist:Feint & Boyinaband
ArtistUnicode:Feint & Boyinaband
Creator:Naitsirk
Version:Hard
Source:
Tags:dnb d&b d'n'b drum and n' bass monstercat 007 solace ft. icebolt
BeatmapID:1554578
BeatmapSetID:652909

[Difficulty]
HPDrainRate:5
CircleSize:3.6
OverallDifficulty:5
ApproachRate:7
SliderMultiplier:1.3
SliderTickRate:1

[Events]
//Background and Video events
0,0,"time bomb.jpg",0,0
//Break Periods
2,88135,98006
//Storyboard Layer 0 (Background)
//Storyboard Layer 1 (Fail)
//Storyboard Layer 2 (Pass)
//Storyboard Layer 3 (Foreground)
//Storyboard Sound Samples

[TimingPoints]
164,342.857142857143,4,2,1,50,1,0
38564,-100,4,2,1,55,0,0
42678,-133.333333333333,4,2,1,60,0,0
44049,-90.9090909090909,4,1,1,70,0,1
44392,-90.9090909090909,4,1,1,70,0,0
64621,-100,4,2,1,40,0,0
65992,-90.9090909090909,4,1,1,70,0,1
87935,-100,4,1,1,60,0,0
98906,-100,4,2,1,50,0,0
104392,-100,4,2,1,55,0,0
108506,-133.333333333333,4,2,1,60,0,0
109878,-90.9090909090909,4,1,1,70,0,1
110221,-90.9090909090909,4,1,1,70,0,0
130449,-100,4,2,1,40,0,0
131821,-90.9090909090909,4,1,1,70,0,1
151021,-100,4,1,1,70,0,1
152392,-100,4,1,1,70,0,0
153764,-100,4,1,1,70,0,0
175706,-100,4,1,1,70,0,0

[Colours]
Combo1 : 248,193,0
Combo2 : 255,76,0
Combo3 : 255,138,21
SliderBorder : 255,127,0

[HitObjects]
348,94,22106,6,0,L|478:89,2,130,6|8|0,0:0|0:0|0:0,0:0:0:0:
269,99,22964,1,4,0:0:0:0:
225,34,23135,1,8,0:0:0:0:
177,177,23478,6,0,P|176:209|161:237,1,65,6|0,0:0|0:0,0:0:0:0:
84,227,23821,2,0,P|84:259|99:287,1,65,8|0,0:0|0:0,0:0:0:0:
171,315,24164,2,0,L|301:320,1,130,0|8,0:0|0:0,0:0:0:0:
380,324,24678,1,0,0:0:0:0:
451,287,24849,6,0,P|402:247|336:258,1,130,6|8,0:0|0:0,0:0:0:0:
301,320,25364,2,0,L|296:190,1,130,0|4,0:0|0:0,0:0:0:0:
293,111,25878,1,8,0:0:0:0:
221,249,26221,6,0,L|223:323,1,65,6|0,0:0|0:0,0:0:0:0:
145,329,26564,2,0,L|143:264,1,65,8|0,0:0|0:0,0:0:0:0:
140,186,26906,2,0,P|115:128|142:71,1,130,0|8,0:0|0:0,0:0:0:0:
196,131,27421,1,0,0:0:0:0:
273,136,27592,6,0,L|403:141,1,130,6|8,0:0|0:0,0:0:0:0:
456,84,28106,2,0,P|429:141|454:198,1,130,0|4,0:0|0:0,0:0:0:0:
510,253,28621,1,8,0:0:0:0:
353,249,28964,6,0,L|288:247,1,65,6|0,0:0|0:0,0:0:0:0:
223,291,29306,2,0,L|158:292,1,65,8|0,0:0|0:0,0:0:0:0:
79,293,29649,2,0,P|52:235|65:172,1,130,0|8,0:0|0:0,0:0:0:0:
109,106,30164,1,0,0:0:0:0:
176,145,30335,6,0,B|232:171|232:171|302:151,1,130,6|8,0:0|0:0,0:0:0:0:
344,89,30849,2,0,L|339:219,1,130,0|4,0:0|0:0,0:0:0:0:
391,277,31364,1,8,0:0:0:0:
473,93,31706,6,0,L|343:88,1,130,6|8,0:0|0:0,0:0:0:0:
264,84,32221,2,0,B|245:78|223:86|208:102|208:102|191:117|168:126|136:119,1,130,0|4,0:0|0:0,0:0:0:0:
152,40,32735,1,8,0:0:0:0:
142,203,33078,6,0,L|138:270,1,65,6|0,0:0|0:0,0:0:0:0:
197,320,33421,2,0,P|246:280|309:289,1,130,8|0,0:0|0:0,0:0:0:0:
378,325,33935,1,4,0:0:0:0:
374,247,34106,1,8,0:0:0:0:
398,108,34449,6,0,P|365:102|335:112,1,65,6|0,0:0|0:0,0:0:0:0:
293,178,34792,2,0,P|260:183|230:173,1,65,8|0,0:0|0:0,0:0:0:0:
202,99,35135,2,0,P|155:141|158:204,1,130,0|8,0:0|0:0,0:0:0:0:
198,272,35649,1,0,0:0:0:0:
119,277,35821,5,6,0:0:0:0:
119,277,35992,2,0,L|54:279,1,65,0|8,0:0|0:0,0:0:0:0:
20,208,36335,2,0,P|66:166|63:103,1,130,0|4,0:0|0:0,0:0:0:0:
89,28,36849,1,8,0:0:0:0:
258,26,37192,6,0,P|263:59|253:89,1,65,6|0,0:0|0:0,0:0:0:0:
187,131,37535,1,8,0:0:0:0:
187,131,37706,1,0,0:0:0:0:
255,169,37878,2,0,L|385:164,1,130,0|8,0:0|0:0,0:0:0:0:
463,161,38392,1,0,0:0:0:0:
428,230,38564,6,0,P|439:271|387:345,1,130,6|8,0:0|0:0,0:0:0:0:
360,270,39078,2,0,B|297:253|297:253|228:270,1,130,0|4,0:0|0:0,0:0:0:0:
182,327,39592,1,8,0:0:0:0:
124,211,39935,6,0,P|133:180|128:148,1,65,6|0,0:0|0:0,0:0:0:0:
70,96,40278,2,0,P|64:64|74:33,1,65,8|0,0:0|0:0,0:0:0:0:
143,69,40621,2,0,L|289:61,1,130,0|8,0:0|0:0,0:0:0:0:
350,57,41135,1,0,0:0:0:0:
427,52,41306,6,0,B|445:113|445:113|419:181,1,130,6|8,0:0|0:0,0:0:0:0:
365,229,41821,2,0,P|309:196|247:208,1,130,0|4,0:0|0:0,0:0:0:0:
181,248,42335,2,0,P|150:257|118:252,1,65,8|0,0:0|0:0,0:0:0:0:
37,217,42678,6,0,L|31:333,1,97.50000371933,6|8,0:0|0:0,0:0:0:0:
113,349,43192,1,0,0:0:0:0:
113,349,43364,6,0,L|119:229,1,97.5
237,243,44049,6,0,L|379:235,1,143.000004364014,6|8,0:0|0:0,0:0:0:0:
422,157,44564,2,0,P|352:150|303:198,1,143.000004364014,2|6,0:0|0:0,0:0:0:0:
313,285,45078,1,8,0:0:0:0:
174,316,45421,6,0,P|145:295|132:262,1,71.5000021820069,6|0,0:0|0:0,0:0:0:0:
150,178,45764,2,0,P|158:110|108:44,1,143.000004364014,10|0,0:0|0:0,0:0:0:0:
39,85,46278,1,6,0:0:0:0:
39,85,46449,2,0,L|43:169,1,71.5000021820069,8|0,0:0|0:0,0:0:0:0:
80,235,46792,6,0,P|64:274|71:311,1,71.5000021820069,6|0,0:0|0:0,0:0:0:0:
151,283,47135,2,0,L|297:275,1,143.000004364014,10|0,0:0|0:0,0:0:0:0:
379,270,47649,1,6,0:0:0:0:
444,214,47821,2,0,L|448:142,1,71.5000021820069,10|0,0:0|0:0,0:0:0:0:
366,114,48164,6,0,L|294:118,1,71.5000021820069,2|4,0:0|0:0,0:0:0:0:
243,185,48506,2,0,L|100:177,1,143.000004364014,10|0,0:0|0:0,0:0:0:0:
25,222,49021,1,6,0:0:0:0:
87,280,49192,1,10,0:0:0:0:
87,280,49364,1,0,0:0:0:0:
151,331,49535,6,0,P|186:338|220:331,1,71.5000021820069,6|0,0:0|0:0,0:0:0:0:
282,271,49878,2,0,P|340:240|411:264,1,143.000004364014,10|0,0:0|0:0,0:0:0:0:
480,311,50392,1,6,0:0:0:0:
485,225,50564,2,0,L|489:153,1,71.5000021820069,10|0,0:0|0:0,0:0:0:0:
453,75,50906,6,0,L|381:71,1,71.5000021820069,6|0,0:0|0:0,0:0:0:0:
357,152,51249,2,0,L|214:144,1,143.000004364014,10|0,0:0|0:0,0:0:0:0:
127,137,51764,1,6,0:0:0:0:
127,137,51935,2,0,P|125:168|148:210,1,71.5000021820069,10|0,0:0|0:0,0:0:0:0:
222,234,52278,6,0,P|224:265|201:307,1,71.5000021820069,6|0,0:0|0:0,0:0:0:0:
134,346,52621,2,0,L|277:338,1,143.000004364014,10|0,0:0|0:0,0:0:0:0:
358,312,53135,1,2,0:0:0:0:
439,331,53306,2,0,L|511:327,1,71.5000021820069,10|0,0:0|0:0,0:0:0:0:
512,231,53649,6,0,L|350:222,1,143.000004364014,2|10,0:0|0:0,0:0:0:0:
197,219,54335,1,2,0:0:0:0:
197,219,54506,1,6,0:0:0:0:
274,270,54678,1,10,0:0:0:0:
274,270,54849,1,2,0:0:0:0:
190,308,55021,6,0,L|118:304,1,71.5000021820069,6|0,0:0|0:0,0:0:0:0:
32,296,55364,2,0,B|36:223|36:223|-5:174|-5:174|2:79,1,214.500006546021,10|6,0:0|0:0,0:0:0:0:
65,40,56049,1,8,0:0:0:0:
172,163,56392,6,0,P|177:196|168:235,1,71.5000021820069,6|0,0:0|0:0,0:0:0:0:
118,304,56735,2,0,B|151:325|184:325|218:304|218:304|251:282|285:282|318:304,1,214.500006546021,10|6,0:0|0:0,0:0:0:0:
394,346,57421,1,8,0:0:0:0:
321,190,57764,6,0,P|285:184|250:190,1,71.5000021820069,6|0,0:0|0:0,0:0:0:0:
170,219,58106,2,0,B|160:200|160:176|172:152|172:152|183:128|183:104|172:80,1,143.000004364014,10|0,0:0|0:0,0:0:0:0:
250,44,58621,1,6,0:0:0:0:
335,49,58792,2,0,P|370:47|401:63,1,71.5000021820069,10|0,0:0|0:0,0:0:0:0:
402,149,59135,6,0,L|398:221,1,71.5000021820069,2|4,0:0|0:0,0:0:0:0:
394,306,59478,2,0,B|370:317|347:317|325:306|325:306|302:295|279:295|257:306,1,143.000004364014,10|0,0:0|0:0,0:0:0:0:
187,263,59992,1,6,0:0:0:0:
248,202,60164,2,0,P|255:167|249:132,1,71.5000021820069,10|0,0:0|0:0,0:0:0:0:
213,54,60506,6,0,L|141:50,1,71.5000021820069,6|0,0:0|0:0,0:0:0:0:
55,47,60849,2,0,B|19:75|19:75|23:172,1,143.000004364014,10|4,0:0|0:0,0:0:0:0:
74,242,61364,1,6,0:0:0:0:
109,164,61535,2,0,P|143:156|178:162,1,71.5000021820069,10|0,0:0|0:0,0:0:0:0:
239,218,61878,6,0,L|311:214,1,71.5000021820069,6|0,0:0|0:0,0:0:0:0:
395,207,62221,2,0,P|374:273|310:299,1,143.000004364014,10|0,0:0|0:0,0:0:0:0:
224,306,62735,1,6,0:0:0:0:
224,306,62906,2,0,P|183:306|155:319,1,71.5000021820069,10|0,0:0|0:0,0:0:0:0:
79,358,63249,6,0,P|69:325|75:286,1,71.5000021820069,6|0,0:0|0:0,0:0:0:0:
138,231,63592,2,0,P|148:160|127:91,1,143.000004364014,10|0,0:0|0:0,0:0:0:0:
57,43,64106,1,6,0:0:0:0:
57,43,64278,2,0,P|83:19|116:6,1,71.5000021820069,10|0,0:0|0:0,0:0:0:0:
197,35,64621,6,0,P|260:35|311:73,1,130,10|10,2:0|2:0,0:0:0:0:
245,214,65306,2,0,P|231:181|232:145,1,65,0|10,0:0|0:0,0:0:0:0:
327,198,65649,2,0,P|328:233|314:266,1,65,0|0,0:0|0:0,0:0:0:0:
232,305,65992,6,0,P|268:342|377:329,1,143.000004364014,4|8,0:0|0:0,0:0:0:0:
431,305,66506,1,0,0:0:0:0:
461,225,66678,1,0,0:0:0:0:
461,225,66849,1,4,0:0:0:0:
486,142,67021,1,8,0:0:0:0:
408,103,67192,6,0,P|372:102|341:119,1,71.5000021820069,0|4,0:0|0:0,0:0:0:0:
293,190,67535,2,0,P|262:207|218:203,1,71.5000021820069,0|8,0:0|0:0,0:0:0:0:
183,132,67878,1,0,0:0:0:0:
183,132,68049,1,0,0:0:0:0:
146,54,68221,1,4,0:0:0:0:
146,53,68392,2,0,P|114:68|96:99,1,71.5000021820069,8|0,0:0|0:0,0:0:0:0:
91,186,68735,6,0,L|87:258,1,71.5000021820069,4|0,0:0|0:0,0:0:0:0:
154,319,69078,1,8,0:0:0:0:
154,319,69249,1,0,0:0:0:0:
213,254,69421,2,0,P|247:246|282:253,1,71.5000021820069,0|4,0:0|0:0,0:0:0:0:
343,318,69764,1,8,0:0:0:0:
416,273,69935,6,0,B|449:242|449:242|434:129,1,143.000004364014,0|4,0:0|0:0,0:0:0:0:
421,60,70449,1,8,0:0:0:0:
344,99,70621,2,0,B|319:88|295:88|271:98|271:98|247:108|224:108|200:98,1,143.000004364014,0|4,0:0|0:0,0:0:0:0:
123,72,71135,2,0,P|119:119|144:160,1,71.5000021820069,8|0,0:0|0:0,0:0:0:0:
166,221,71478,6,0,P|205:250|303:224,1,143.000004364014,4|8,0:0|0:0,0:0:0:0:
340,162,71992,1,0,0:0:0:0:
340,162,72164,1,0,0:0:0:0:
419,193,72335,1,4,0:0:0:0:
383,271,72506,2,0,P|391:305|385:340,1,71.5000021820069,8|0,0:0|0:0,0:0:0:0:
299,345,72849,6,0,L|227:341,1,71.5000021820069,4|0,0:0|0:0,0:0:0:0:
142,330,73192,2,0,B|133:163,1,143.000004364014,8|0,0:0|0:0,0:0:0:0:
172,109,73706,1,4,0:0:0:0:
236,172,73878,1,8,0:0:0:0:
236,172,74049,1,0,0:0:0:0:
263,259,74221,6,0,P|307:229|321:144,2,143.000004364014,4|8|0,0:0|0:0|0:0,0:0:0:0:
236,172,75078,2,0,P|202:160|167:167,1,71.5000021820069,4|8,0:0|0:0,0:0:0:0:
90,205,75421,6,0,P|80:170|88:135,1,71.5000021820069,0|0,0:0|0:0,0:0:0:0:
154,81,75764,2,0,P|163:46|155:11,1,71.5000021820069,4|8,0:0|0:0,0:0:0:0:
244,46,76106,6,0,P|278:38|312:48,1,71.5000021820069,0|0,0:0|0:0,0:0:0:0:
388,90,76449,2,0,P|422:97|456:87,1,71.5000021820069,4|8,0:0|0:0,0:0:0:0:
494,254,76964,6,0,B|408:240|408:240|355:273,1,143.000004364014,4|8,0:0|0:0,0:0:0:0:
295,326,77478,1,0,0:0:0:0:
210,308,77649,1,0,0:0:0:0:
210,308,77821,1,4,0:0:0:0:
126,291,77992,1,8,0:0:0:0:
103,208,78164,6,0,P|112:173|104:138,1,71.5000021820069,0|4,0:0|0:0,0:0:0:0:
193,126,78506,2,0,P|184:91|191:57,1,71.5000021820069,0|8,0:0|0:0,0:0:0:0:
271,24,78849,1,0,0:0:0:0:
271,24,79021,1,0,0:0:0:0:
327,89,79192,1,4,0:0:0:0:
327,89,79364,2,0,L|323:161,1,71.5000021820069,8|0,0:0|0:0,0:0:0:0:
271,229,79706,6,0,P|237:238|203:231,1,71.5000021820069,4|0,0:0|0:0,0:0:0:0:
130,185,80049,1,8,0:0:0:0:
130,185,80221,1,0,0:0:0:0:
102,266,80392,2,0,P|115:294|156:327,1,71.5000021820069,0|4,0:0|0:0,0:0:0:0:
229,335,80735,1,8,0:0:0:0:
314,334,80906,6,0,P|372:291|376:205,1,143.000004364014,0|4,0:0|0:0,0:0:0:0:
392,138,81421,1,8,0:0:0:0:
350,63,81592,2,0,B|325:52|301:52|277:62|277:62|253:72|230:72|206:62,1,143.000004364014,0|4,0:0|0:0,0:0:0:0:
132,100,82106,2,0,P|98:91|64:98,1,71.5000021820069,8|0,0:0|0:0,0:0:0:0:
95,178,82449,6,0,P|123:237|212:254,1,143.000004364014,4|8,0:0|0:0,0:0:0:0:
279,255,82964,1,0,0:0:0:0:
364,251,83135,1,0,0:0:0:0:
364,251,83306,1,4,0:0:0:0:
449,246,83478,2,0,L|446:175,1,71.5000021820069,8|0,0:0|0:0,0:0:0:0:
444,87,83821,6,0,L|373:90,1,71.5000021820069,4|0,0:0|0:0,0:0:0:0:
292,109,84164,2,0,B|281:134|281:158|291:182|291:182|301:206|301:229|291:253,1,143.000004364014,8|0,0:0|0:0,0:0:0:0:
349,312,84678,1,4,0:0:0:0:
269,337,84849,2,0,P|235:329|201:338,1,71.5000021820069,8|0,0:0|0:0,0:0:0:0:
133,279,85192,5,4,0:0:0:0:
98,97,85535,1,8,0:0:0:0:
98,97,85706,1,4,0:0:0:0:
275,144,86049,5,8,0:0:0:0:
275,144,86221,1,4,0:0:0:0:
188,168,86392,1,8,0:0:0:0:
188,168,86564,1,4,0:0:0:0:
366,123,86906,5,8,0:0:0:0:
366,123,87078,1,4,0:0:0:0:
376,307,87421,5,8,0:0:0:0:
376,307,87592,1,4,0:0:0:0:
301,358,87764,1,8,0:0:0:0:
215,324,87935,5,6,0:0:0:0:
318,267,98906,6,0,B|341:272|364:263|381:248|381:248|396:232|418:224|437:230,2,130,6|8|0,0:0|0:0|0:0,0:0:0:0:
252,212,99764,1,4,0:0:0:0:
328,176,99935,1,8,0:0:0:0:
218,67,100278,6,0,L|216:132,1,65,6|0,0:0|0:0,0:0:0:0:
158,185,100621,2,0,L|156:250,1,65,8|0,0:0|0:0,0:0:0:0:
101,313,100964,2,0,P|160:332|217:304,1,130,0|8,0:0|0:0,0:0:0:0:
270,238,101478,1,0,0:0:0:0:
342,280,101649,5,6,0:0:0:0:
342,280,101821,2,0,L|407:282,1,65,0|8,0:0|0:0,0:0:0:0:
485,284,102164,2,0,B|494:261|494:240|485:219|485:219|477:198|477:178|485:157,1,130,0|4,0:0|0:0,0:0:0:0:
504,81,102678,1,8,0:0:0:0:
400,197,103021,6,0,P|367:198|338:185,1,65,6|0,0:0|0:0,0:0:0:0:
294,113,103364,1,8,0:0:0:0:
294,113,103535,1,0,0:0:0:0:
228,170,103706,2,0,L|223:303,1,130,0|8,0:0|0:0,0:0:0:0:
154,338,104221,1,0,0:0:0:0:
87,293,104392,6,0,L|90:163,1,130,6|8,0:0|0:0,0:0:0:0:
90,84,104906,2,0,B|111:74|131:74|152:84|152:84|173:94|194:94|217:84,1,130,0|4,0:0|0:0,0:0:0:0:
282,40,105421,1,8,0:0:0:0:
401,132,105764,6,0,L|399:197,1,65,6|0,0:0|0:0,0:0:0:0:
324,220,106106,2,0,L|326:285,1,65,8|0,0:0|0:0,0:0:0:0:
261,328,106449,2,0,B|239:338|218:338|197:327|197:327|176:317|156:317|135:327,1,130,0|8,0:0|0:0,0:0:0:0:
67,288,106964,1,0,0:0:0:0:
129,240,107135,6,0,P|165:188|152:126,1,130,6|8,0:0|0:0,0:0:0:0:
88,82,107649,2,0,L|218:79,1,130,0|4,0:0|0:0,0:0:0:0:
296,78,108164,2,0,P|308:107|307:139,1,65,8|0,0:0|0:0,0:0:0:0:
282,222,108506,6,0,L|379:219,1,97.50000371933,6|8,0:0|0:0,0:0:0:0:
463,220,109021,1,0,0:0:0:0:
463,220,109192,6,0,B|484:174|484:174|476:108,1,97.50000371933
290,98,109878,6,0,L|148:106,1,143.000004364014,4|8,0:0|0:0,0:0:0:0:
68,69,110392,2,0,P|112:124|99:198,1,143.000004364014,0|6,0:0|0:0,0:0:0:0:
26,147,110906,1,8,0:0:0:0:
127,285,111249,6,0,L|198:280,1,71.5000021820069,6|0,0:0|0:0,0:0:0:0:
229,200,111592,2,0,L|371:208,1,143.000004364014,10|0,0:0|0:0,0:0:0:0:
457,217,112106,1,6,0:0:0:0:
457,217,112278,2,0,P|470:183|469:147,1,71.5000021820069,8|0,0:0|0:0,0:0:0:0:
443,64,112621,6,0,L|371:68,1,71.5000021820069,6|0,0:0|0:0,0:0:0:0:
300,115,112964,2,0,L|158:107,1,143.000004364014,10|0,0:0|0:0,0:0:0:0:
71,101,113478,1,6,0:0:0:0:
77,186,113649,2,0,L|149:190,1,71.5000021820069,10|0,0:0|0:0,0:0:0:0:
234,196,113992,6,0,P|240:227|232:269,1,71.5000021820069,2|4,0:0|0:0,0:0:0:0:
170,328,114335,2,0,P|215:350|306:317,1,143.000004364014,10|0,0:0|0:0,0:0:0:0:
334,245,114849,1,6,0:0:0:0:
414,274,115021,1,10,0:0:0:0:
414,274,115192,1,0,0:0:0:0:
492,238,115364,6,0,P|485:202|488:166,1,71.5000021820069,6|0,0:0|0:0,0:0:0:0:
494,82,115706,2,0,L|348:86,1,143.000004364014,10|0,0:0|0:0,0:0:0:0:
250,87,116221,1,6,0:0:0:0:
303,154,116392,2,0,P|309:185|301:224,1,71.5000021820069,10|0,0:0|0:0,0:0:0:0:
236,283,116735,6,0,L|164:279,1,71.5000021820069,6|0,0:0|0:0,0:0:0:0:
78,272,117078,2,0,L|70:130,1,143.000004364014,10|0,0:0|0:0,0:0:0:0:
64,43,117592,1,6,0:0:0:0:
64,43,117764,2,0,P|102:48|137:72,1,71.5000021820069,10|0,0:0|0:0,0:0:0:0:
192,122,118106,6,0,P|223:128|265:122,1,71.5000021820069,6|0,0:0|0:0,0:0:0:0:
320,52,118449,2,0,B|351:116|351:116|329:186,1,143.000004364014,10|0,0:0|0:0,0:0:0:0:
300,266,118964,1,6,0:0:0:0:
360,327,119135,2,0,P|394:320|429:327,1,71.5000021820069,10|0,0:0|0:0,0:0:0:0:
480,257,119478,6,0,L|472:115,1,143.000004364014,2|10,0:0|0:0,0:0:0:0:
319,48,120164,1,2,0:0:0:0:
319,48,120335,1,6,0:0:0:0:
310,133,120506,1,10,0:0:0:0:
310,133,120678,1,2,0:0:0:0:
297,218,120849,6,0,P|293:250|295:292,1,71.5000021820069,6|0,0:0|0:0,0:0:0:0:
208,282,121192,2,0,B|141:278|141:278|84:312|84:312|2:306,1,214.500006546021,10|6,0:0|0:0,0:0:0:0:
13,220,121878,1,8,0:0:0:0:
129,94,122221,6,0,L|133:165,1,71.5000021820069,6|0,0:0|0:0,0:0:0:0:
218,159,122564,2,0,B|285:155|285:155|342:189|342:189|424:183,1,214.500006546021,10|6,0:0|0:0,0:0:0:0:
508,177,123249,1,8,0:0:0:0:
371,281,123592,6,0,L|300:286,1,71.5000021820069,6|0,0:0|0:0,0:0:0:0:
222,324,123935,2,0,L|77:334,1,143.000004364014,10|0,0:0|0:0,0:0:0:0:
14,278,124449,1,6,0:0:0:0:
66,209,124621,2,0,P|78:175|74:140,1,71.5000021820069,10|0,0:0|0:0,0:0:0:0:
31,65,124964,6,0,L|101:59,1,71.5000021820069,2|4,0:0|0:0,0:0:0:0:
164,119,125306,2,0,L|322:130,1,143.000004364014,10|0,0:0|0:0,0:0:0:0:
392,137,125821,1,6,0:0:0:0:
477,145,125992,2,0,P|480:180|468:213,1,71.5000021820069,10|0,0:0|0:0,0:0:0:0:
397,262,126335,6,0,L|326:267,1,71.5000021820069,6|0,0:0|0:0,0:0:0:0:
276,338,126678,2,0,L|133:327,1,143.000004364014,10|0,0:0|0:0,0:0:0:0:
47,317,127192,1,6,0:0:0:0:
94,245,127364,2,0,P|102:210|94:175,1,71.5000021820069,10|0,0:0|0:0,0:0:0:0:
61,96,127706,6,0,P|95:88|130:96,1,71.5000021820069,6|0,0:0|0:0,0:0:0:0:
177,24,128049,2,0,L|187:166,1,143.000004364014,10|0,0:0|0:0,0:0:0:0:
193,252,128564,1,6,0:0:0:0:
263,202,128735,2,0,P|297:193|332:202,1,71.5000021820069,10|0,0:0|0:0,0:0:0:0:
402,252,129078,6,0,L|397:323,1,71.5000021820069,6|0,0:0|0:0,0:0:0:0:
482,313,129421,2,0,L|492:171,1,143.000004364014,10|0,0:0|0:0,0:0:0:0:
497,84,129935,1,6,0:0:0:0:
421,123,130106,2,0,P|386:131|351:122,1,71.5000021820069,10|0,0:0|0:0,0:0:0:0:
297,60,130449,6,0,L|307:202,1,130,10|10,0:0|0:0,0:0:0:0:
181,88,131135,2,0,L|177:24,1,65,0|10,0:0|0:0,0:0:0:0:
96,51,131478,2,0,L|100:115,1,65,0|0,0:0|0:0,0:0:0:0:
113,232,131821,6,0,L|256:221,1,143.000004364014,4|8,0:0|0:0,0:0:0:0:
348,212,132335,1,0,0:0:0:0:
440,209,132506,1,0,0:0:0:0:
440,209,132678,1,4,0:0:0:0:
398,292,132849,1,8,0:0:0:0:
305,301,133021,6,0,L|212:308,1,71.5000021820069,0|4,0:0|0:0,0:0:0:0:
183,226,133364,2,0,L|255:221,1,71.5000021820069,0|8,0:0|0:0,0:0:0:0:
285,141,133706,1,0,0:0:0:0:
285,141,133878,1,0,0:0:0:0:
313,60,134049,1,4,0:0:0:0:
313,60,134221,2,0,P|345:75|367:103,1,71.5000021820069,8|0,0:0|0:0,0:0:0:0:
392,185,134564,6,0,L|387:257,1,71.5000021820069,4|0,0:0|0:0,0:0:0:0:
383,341,134906,1,8,0:0:0:0:
383,341,135078,1,0,0:0:0:0:
314,290,135249,2,0,P|280:281|245:288,1,71.5000021820069,0|4,0:0|0:0,0:0:0:0:
177,341,135592,1,8,0:0:0:0:
113,284,135764,6,0,L|124:141,1,143.000004364014,0|4,0:0|0:0,0:0:0:0:
130,55,136278,1,8,0:0:0:0:
202,100,136449,2,0,P|267:125|334:104,1,143.000004364014,0|4,0:0|0:0,0:0:0:0:
397,45,136964,1,8,0:0:0:0:
397,45,137135,1,0,0:0:0:0:
453,109,137306,6,0,L|442:252,1,143.000004364014,4|8,0:0|0:0,0:0:0:0:
436,337,137821,1,0,0:0:0:0:
436,337,137992,1,0,0:0:0:0:
366,285,138164,1,4,0:0:0:0:
294,332,138335,2,0,P|260:341|225:334,1,71.5000021820069,8|0,0:0|0:0,0:0:0:0:
216,248,138678,6,0,L|211:176,1,71.5000021820069,4|0,0:0|0:0,0:0:0:0:
174,98,139021,2,0,B|199:87|223:87|247:97|247:97|271:107|294:107|318:97,1,143.000004364014,8|0,0:0|0:0,0:0:0:0:
377,42,139535,1,4,0:0:0:0:
402,123,139706,1,8,0:0:0:0:
402,123,139878,1,0,0:0:0:0:
425,205,140049,6,0,L|420:277,1,71.5000021820069,4|0,0:0|0:0,0:0:0:0:
343,316,140392,2,0,L|338:244,1,71.5000021820069,8|0,0:0|0:0,0:0:0:0:
259,209,140735,2,0,L|254:281,1,71.5000021820069,0|4,0:0|0:0,0:0:0:0:
248,366,141078,1,8,0:0:0:0:
177,318,141249,6,0,P|159:287|129:267,1,71.5000021820069,0|0,0:0|0:0,0:0:0:0:
48,239,141592,2,0,P|65:208|95:188,1,71.5000021820069,4|8,0:0|0:0,0:0:0:0:
177,163,141935,2,0,P|159:132|129:112,1,71.5000021820069,0|0,0:0|0:0,0:0:0:0:
48,84,142278,2,0,P|65:53|95:33,1,71.5000021820069,4|8,0:0|0:0,0:0:0:0:
265,46,142792,6,0,L|408:57,1,143.000004364014,4|8,0:0|0:0,0:0:0:0:
493,65,143306,1,0,0:0:0:0:
443,135,143478,1,0,0:0:0:0:
443,135,143649,1,4,0:0:0:0:
386,199,143821,1,8,0:0:0:0:
329,263,143992,6,0,L|254:267,1,71.5000021820069,0|4,0:0|0:0,0:0:0:0:
226,186,144335,2,0,L|297:182,1,71.5000021820069,0|8,0:0|0:0,0:0:0:0:
307,96,144678,1,0,0:0:0:0:
307,96,144849,1,0,0:0:0:0:
220,99,145021,1,4,0:0:0:0:
220,99,145192,2,0,P|185:104|154:130,1,71.5000021820069,8|0,0:0|0:0,0:0:0:0:
138,209,145535,6,0,L|143:281,1,71.5000021820069,4|0,0:0|0:0,0:0:0:0:
210,333,145878,1,8,0:0:0:0:
210,333,146049,1,0,0:0:0:0:
264,266,146221,2,0,P|298:256|332:264,1,71.5000021820069,0|4,0:0|0:0,0:0:0:0:
397,321,146564,1,8,0:0:0:0:
432,243,146735,6,0,L|421:85,1,143.000004364014,0|4,0:0|0:0,0:0:0:0:
363,38,147249,1,8,0:0:0:0:
293,88,147421,2,0,P|223:94|168:50,1,143.000004364014,0|4,0:0|0:0,0:0:0:0:
91,13,147935,2,0,P|84:50|92:85,1,71.5000021820069,8|0,0:0|0:0,0:0:0:0:
140,158,148278,6,0,B|148:177|148:200|138:224|138:224|128:248|128:272|139:297,1,143.000004364014,4|8,0:0|0:0,0:0:0:0:
215,336,148792,1,0,0:0:0:0:
267,267,148964,1,0,0:0:0:0:
267,267,149135,1,4,0:0:0:0:
341,308,149306,2,0,L|413:313,1,71.5000021820069,8|0,0:0|0:0,0:0:0:0:
474,253,149649,6,0,P|482:218|476:183,1,71.5000021820069,4|0,0:0|0:0,0:0:0:0:
453,100,149992,2,0,L|296:89,1,143.000004364014,8|0,0:0|0:0,0:0:0:0:
238,48,150506,1,4,0:0:0:0:
231,133,150678,2,0,L|226:205,1,71.5000021820069,8|0,0:0|0:0,0:0:0:0:
218,288,151021,6,0,P|248:293|280:289,1,65,4|0,0:0|0:0,0:0:0:0:
311,209,151364,2,0,P|374:152|469:196,1,195,8|4,0:0|0:0,0:0:0:0:
463,274,152049,2,0,L|458:346,1,65,8|0,0:0|0:0,0:0:0:0:
373,309,152392,5,4,0:0:0:0:
253,308,153764,6,0,P|306:288|377:313,2,130,4|8|0,0:0|0:0|0:0,0:0:0:0:
191,251,154621,1,4,0:0:0:0:
191,251,154792,1,8,0:0:0:0:
254,194,154964,6,0,P|282:138|262:78,1,130,2|2,0:0|0:0,0:0:0:0:
184,80,155478,2,0,L|113:83,1,65,10|0,0:0|0:0,0:0:0:0:
49,118,155821,2,0,L|50:153,3,32.5,2|2|6|2,0:0|0:0|0:0|0:0,0:0:0:0:
88,155,156164,2,0,L|87:190,3,32.5,10|2|2|2,0:0|0:0|0:0|0:0,0:0:0:0:
126,188,156506,6,0,P|135:249|91:293,1,130,6|8,0:0|0:0,0:0:0:0:
141,362,157021,1,0,0:0:0:0:
217,333,157192,2,0,L|281:330,1,65,0|4,0:0|0:0,0:0:0:0:
359,327,157535,1,8,0:0:0:0:
320,259,157706,6,0,P|292:203|312:143,1,130,0|4,0:0|0:0,0:0:0:0:
386,117,158221,2,0,L|457:120,1,65,10|2,0:0|0:0,0:0:0:0:
442,198,158564,2,0,L|377:195,1,65,2|6,0:0|0:0,0:0:0:0:
312,142,158906,1,10,0:0:0:0:
190,253,159249,6,0,L|340:259,2,130,4|8|0,0:0|0:0|0:0,0:0:0:0:
105,251,160106,1,4,0:0:0:0:
105,251,160278,1,8,0:0:0:0:
149,178,160449,6,0,P|178:118|151:56,1,130,0|0,0:0|0:0,0:0:0:0:
94,116,160964,2,0,L|29:113,1,65,8|0,0:0|0:0,0:0:0:0:
14,188,161306,2,0,B|20:226|8:259|8:259|42:326,1,130,0|8,0:0|0:0,0:0:0:0:
221,243,161992,6,0,P|161:222|104:250,1,130,4|8,0:0|0:0,0:0:0:0:
255,326,162678,2,0,P|302:284|306:221,1,130,0|8,0:0|0:0,0:0:0:0:
249,162,163192,6,0,P|309:140|367:167,1,130,0|4,0:0|0:0,0:0:0:0:
392,243,163706,1,8,0:0:0:0:
457,201,163878,2,0,L|450:50,1,130,0|4,0:0|0:0,0:0:0:0:
301,103,164564,6,0,P|279:163|306:221,1,130,2|2,0:0|0:0,0:0:0:0:
326,295,165078,1,8,0:0:0:0:
252,321,165249,2,0,L|187:317,1,65,2|0,0:0|0:0,0:0:0:0:
118,279,165592,2,0,L|63:276,2,32.5,6|2|10,0:0|0:0|0:0,0:0:0:0:
178,229,165935,6,0,B|197:169|197:169|176:99,1,130,0|0,0:0|0:0,0:0:0:0:
36,173,166621,2,0,P|66:178|100:172,2,65,0|0|4,0:0|0:0|0:0,0:0:0:0:
17,96,167135,1,8,0:0:0:0:
71,39,167306,6,0,P|135:31|202:39,1,130,0|0,0:0|0:0,0:0:0:0:
276,68,167821,2,0,L|308:69,2,32.5,10|2|2,0:0|0:0|0:0,0:0:0:0:
210,121,168164,6,0,P|204:152|211:184,2,65,0|4|8,0:0|0:0|0:0,0:0:0:0:
282,151,168678,2,0,L|433:158,1,130,0|4,0:0|0:0,0:0:0:0:
490,161,169192,1,8,0:0:0:0:
449,227,169364,1,0,0:0:0:0:
285,272,169706,2,0,L|284:240,2,32.5,6|2|10,0:0|0:0|0:0,0:0:0:0:
226,324,170049,1,0,0:0:0:0:
199,250,170221,6,0,P|139:228|81:255,1,130,4|8,0:0|0:0,0:0:0:0:
43,322,170735,2,0,L|36:171,1,130,0|4,0:0|0:0,0:0:0:0:
33,113,171249,1,8,0:0:0:0:
182,66,171592,6,0,P|242:88|300:61,1,130,4|8,0:0|0:0,0:0:0:0:
376,48,172106,2,0,P|407:41|438:48,1,65,0|0,0:0|0:0,0:0:0:0:
486,118,172449,1,4,0:0:0:0:
486,118,172621,1,8,0:0:0:0:
327,154,172964,5,4,0:0:0:0:
449,269,173306,1,8,0:0:0:0:
449,269,173478,1,4,0:0:0:0:
281,242,173821,5,8,0:0:0:0:
281,242,173992,1,4,0:0:0:0:
229,166,174164,1,8,0:0:0:0:
229,166,174335,1,4,0:0:0:0:
222,333,174678,5,8,0:0:0:0:
222,333,174849,1,4,0:0:0:0:
134,187,175192,5,8,0:0:0:0:
134,187,175364,1,4,0:0:0:0:
164,92,175535,1,8,0:0:0:0:
229,166,175706,5,2,0:0:0:0:
