osu file format v14

[General]
AudioFilename: audio.mp3
AudioLeadIn: 0
PreviewTime: 65789
Countdown: 0
SampleSet: Soft
StackLeniency: 0.3
Mode: 0
LetterboxInBreaks: 0
WidescreenStoryboard: 1

[Editor]
DistanceSpacing: 1.1
BeatDivisor: 4
GridSize: 16
TimelineZoom: 1.6

[Metadata]
Title:Time Bomb (feat. Veela)
TitleUnicode:Time Bomb (feat. Veela)
Artist:Feint & Boyinaband
ArtistUnicode:Feint & Boyinaband
Creator:Kuki1537
Version:inti's Hard
Source:
Tags:dnb d&b d'n'b drum and n' bass monstercat 007 solace ft. basensorex nyantiaz intiaz majk00 enuhq my angel ram my_angel_ram english electronic edm female vocal featured artist fa
BeatmapID:3924257
BeatmapSetID:1722335

[Difficulty]
HPDrainRate:4.5
CircleSize:3.8
OverallDifficulty:6.2
ApproachRate:7.5
SliderMultiplier:1.6
SliderTickRate:1

[Events]
//Background and Video events
0,0,"Konachan.com - 335697 sample.jpg",0,0
//Break Periods
2,88018,97964
//Storyboard Layer 0 (Background)
//Storyboard Layer 1 (Fail)
//Storyboard Layer 2 (Pass)
//Storyboard Layer 3 (Foreground)
//Storyboard Layer 4 (Overlay)
//Storyboard Sound Samples

[TimingPoints]
47,342.857142857143,4,2,22,50,1,0
21989,-111.111111111111,4,2,22,50,0,0
43589,-111.111111111111,4,2,22,65,0,0
43932,-100,4,2,22,75,0,0
64504,-111.111111111111,4,2,22,65,0,0
65875,-90.9090909090909,4,2,22,80,0,1
87818,-100,4,2,22,80,0,0
87904,-90.9090909090909,4,2,22,5,0,0
97589,-90.9090909090909,4,2,22,50,0,0
98618,-90.9090909090909,4,2,22,5,0,0
98789,-111.111111111111,4,2,22,50,0,0
109418,-111.111111111111,4,2,22,65,0,0
109761,-100,4,2,22,75,0,0
130332,-111.111111111111,4,2,22,65,0,0
131704,-90.9090909090909,4,2,22,80,0,1
152104,-90.9090909090909,4,2,22,65,0,1
153647,-100,4,2,22,75,0,0
175589,-100,4,2,22,75,0,0
175675,-100,4,2,22,5,0,0

[Colours]
Combo1 : 233,163,112
Combo2 : 182,252,252
Combo3 : 98,217,217
Combo4 : 255,209,159

[HitObjects]
454,142,21989,6,0,L|307:129,1,143.999995605469,6|10,1:2|0:3,0:2:0:0:
256,69,22504,2,0,L|251:33,2,35.9999989013672,0|0|0,3:2|3:2|3:2,0:0:0:0:
201,129,22847,1,0,1:2:0:0:
126,97,23018,2,0,L|48:106,1,71.9999978027344,8|2,0:3|1:2,0:2:0:0:
46,121,23275,1,0,1:0:0:0:
38,137,23361,6,0,L|46:208,1,71.9999978027344,2|2,1:2|0:2,0:0:0:0:
118,249,23704,2,0,L|110:320,1,71.9999978027344,10|2,0:3|0:2,0:0:0:0:
191,300,24047,1,2,0:2:0:0:
385,223,24389,1,10,0:3:0:0:
385,223,24561,1,2,1:2:0:0:
337,156,24732,6,0,L|193:147,1,143.999995605469,2|10,1:2|0:3,0:2:0:0:
126,97,25247,2,0,L|83:104,2,35.9999989013672,2|0|0,3:2|3:2|3:2,0:0:0:0:
202,63,25589,1,0,1:2:0:0:
284,54,25761,2,0,L|359:63,1,71.9999978027344,8|0,0:3|1:2,0:2:0:0:
373,65,26018,1,0,1:0:0:0:
390,68,26104,5,2,1:2:0:0:
461,113,26275,2,0,P|474:150|470:195,2,71.9999978027344,2|10|2,0:2|0:3|0:2,0:0:0:0:
386,151,26789,2,0,B|368:224|400:224|388:293,1,143.999995605469,2|10,0:2|0:3,0:2:0:0:
320,341,27304,1,2,1:2:0:0:
256,288,27475,6,0,P|203:273|114:324,1,143.999995605469,2|10,1:2|0:3,0:2:0:0:
42,289,27989,2,0,L|2:292,2,35.9999989013672,2|0|0,3:2|3:2|3:2,0:0:0:0:
100,226,28332,1,0,1:2:0:0:
42,163,28504,1,8,0:3:0:0:
126,27,28847,6,0,L|122:99,2,71.9999978027344,2|2|10,1:2|0:2|0:3,0:0:0:0:
204,53,29361,1,2,3:2:0:0:
221,55,29446,1,0,3:2:0:0:
239,57,29532,1,2,3:2:0:0:
310,104,29704,1,0,1:2:0:0:
390,72,29875,2,0,L|387:144,1,71.9999978027344,10|2,0:3|1:2,0:0:0:0:
386,161,30132,1,0,1:0:0:0:
385,179,30218,6,0,B|336:185|336:185|310:202|310:202|241:212,1,143.999995605469,2|8,1:2|0:3,0:2:0:0:
203,139,30732,2,0,B|207:294,1,143.999995605469,2|2,0:2|1:2,0:2:0:0:
127,257,31247,2,0,B|124:156,1,71.9999978027344,10|0,0:3|1:2,0:2:0:0:
45,159,31589,6,0,B|48:302,1,143.999995605469,2|8,1:2|0:3,0:2:0:0:
122,339,32104,1,2,3:2:0:0:
139,344,32189,1,0,3:2:0:0:
156,351,32275,2,0,L|234:355,1,71.9999978027344,0|0,3:2|1:2,0:0:0:0:
299,312,32618,1,8,0:3:0:0:
480,352,32961,6,0,P|498:285|467:221,1,143.999995605469,2|10,1:2|0:3,0:2:0:0:
401,169,33475,2,0,L|400:112,2,35.9999989013672,0|0|0,3:2|3:2|3:2,0:0:0:0:
335,220,33818,1,0,1:2:0:0:
270,169,33989,2,0,L|191:176,1,71.9999978027344,8|0,0:3|1:2,0:2:0:0:
180,178,34247,1,0,1:0:0:0:
162,180,34332,5,2,1:2:0:0:
88,139,34504,2,0,L|81:60,2,71.9999978027344,2|10|2,0:2|0:3|0:2,0:0:0:0:
14,180,35018,1,2,0:2:0:0:
101,334,35360,1,10,0:3:0:0:
101,334,35532,1,2,1:2:0:0:
180,330,35704,6,0,L|257:336,1,71.9999978027344,2|2,1:2|0:2,0:2:0:0:
319,284,36047,1,10,0:3:0:0:
393,323,36218,2,0,L|397:364,2,35.9999989013672,2|0|0,3:2|3:2|3:2,0:0:0:0:
467,284,36561,1,0,1:2:0:0:
397,240,36732,2,0,L|404:166,1,71.9999978027344,8|0,0:3|1:2,0:2:0:0:
474,123,37075,6,0,P|438:91|405:91,1,71.9999978027344,2|2,1:2|0:2,0:0:0:0:
341,117,37418,2,0,P|293:126|262:128,1,71.9999978027344,10|2,0:3|0:2,0:0:0:0:
214,189,37761,2,0,P|126:174|70:170,1,143.999995605469,2|10,0:2|0:3,0:2:0:0:
18,107,38275,1,2,1:2:0:0:
66,39,38447,6,0,P|153:53|209:57,1,143.999995605469,2|10,1:2|0:3,0:2:0:0:
282,17,38961,1,2,3:2:0:0:
299,22,39047,1,0,3:2:0:0:
315,27,39132,1,0,3:2:0:0:
391,60,39304,1,0,1:2:0:0:
456,7,39475,1,8,0:3:0:0:
444,153,39818,6,0,L|432:224,2,71.9999978027344,2|2|10,1:2|0:2|0:3,0:0:0:0:
362,160,40332,1,2,0:2:0:0:
280,167,40504,2,0,L|254:321,1,143.999995605469,2|10,0:2|0:3,0:2:0:0:
187,355,41018,1,2,1:2:0:0:
117,309,41189,6,0,L|94:167,1,143.999995605469,2|8,1:2|0:3,0:2:0:0:
11,158,41704,2,0,P|32:111|131:91,1,143.999995605469,2|0,0:2|1:2,0:2:0:0:
176,145,42218,2,0,P|222:148|275:147,1,71.9999978027344,10|0,0:3|1:2,0:2:0:0:
332,146,42561,6,0,P|331:58|325:-28,1,143.999995605469,2|8,1:2|0:3,0:2:0:0:
413,2,43075,2,0,P|413:89|419:176,1,143.999995605469,2|2,0:2|0:2,0:0:0:0:
373,218,43589,1,2,0:2:0:0:
139,218,43932,6,0,P|119:297|163:365,1,160,6|10,1:2|0:2,0:2:0:0:
242,334,44447,2,0,L|347:345,1,80,2|0,0:2|0:2,0:2:0:0:
398,299,44789,1,2,1:2:0:0:
373,218,44961,1,8,0:2:0:0:
373,218,45132,1,0,0:2:0:0:
440,139,45304,6,0,P|379:115|290:156,2,160,2|10|0,1:2|0:2|0:2,0:2:0:0:
481,61,46161,1,2,1:2:0:0:
402,21,46332,2,0,P|334:22|312:28,1,80,10|2,0:2|0:2,0:0:0:0:
201,77,46675,6,0,L|120:72,1,80,2|0,1:2|0:2,0:2:0:0:
60,7,47018,2,0,B|34:83|34:83|70:173,1,160,10|0,0:2|0:2,0:2:0:0:
140,199,47532,1,2,1:2:0:0:
64,243,47704,2,0,L|69:328,1,80,10|0,0:2|0:2,0:0:0:0:
191,278,48047,6,0,L|186:363,1,80,2|0,0:2|1:2,0:0:0:0:
270,334,48389,2,0,L|281:136,1,160,10|0,0:2|0:2,0:2:0:0:
195,162,48904,1,2,1:2:0:0:
195,162,49075,1,10,0:2:0:0:
355,111,49418,6,0,B|417:107|417:107|439:96|439:96|516:90,2,160,2|10|0,1:2|0:2|0:2,0:2:0:0:
390,191,50275,1,2,1:2:0:0:
355,272,50447,2,0,L|263:261,1,80,10|0,0:2|0:2,0:2:0:0:
178,203,50789,6,0,L|86:214,1,80,2|0,1:2|0:2,0:2:0:0:
22,168,51132,2,0,P|6:110|72:31,1,160,10|2,0:2|0:2,0:2:0:0:
81,31,51561,1,2,0:2:0:0:
100,28,51646,1,2,1:2:0:0:
180,66,51818,2,0,L|272:77,1,80,10|0,0:2|0:2,0:2:0:0:
362,27,52161,6,0,L|373:119,1,80,2|0,1:2|0:2,0:2:0:0:
459,97,52504,2,0,P|442:167|442:258,1,160,10|0,0:2|0:2,0:2:0:0:
381,319,53018,1,2,1:2:0:0:
297,292,53189,2,0,L|287:212,1,80,10|0,0:2|0:2,0:2:0:0:
272,96,53532,6,0,B|232:81|232:81|192:86,1,80,2|0,0:2|1:2,0:2:0:0:
121,37,53875,2,0,B|106:77|106:77|111:116,1,80,10|0,0:2|0:2,0:2:0:0:
176,173,54218,2,0,B|162:207|162:207|130:235,1,80,2|2,0:2|1:2,0:0:0:0:
45,210,54561,1,10,0:2:0:0:
45,210,54732,1,2,0:2:0:0:
96,325,54904,6,0,P|171:323|210:332,1,80,6|0,1:2|0:2,0:2:0:0:
256,290,55247,2,0,P|336:285|405:236,1,160,10|0,0:2|0:2,0:0:0:0:
448,168,55761,1,2,1:2:0:0:
448,168,55932,1,8,0:2:0:0:
333,31,56275,6,0,L|335:110,1,80,2|0,1:2|0:2,0:2:0:0:
268,167,56618,2,0,B|177:177|199:132|108:149,1,160,10|0,0:2|0:2,0:2:0:0:
29,116,57132,2,0,P|24:163|46:210,2,80,2|8|0,1:2|0:2|0:2,0:2:0:0:
113,239,57647,6,0,P|118:278|107:316,1,80,2|0,1:2|0:2,0:2:0:0:
30,273,57989,2,0,L|221:283,1,160,10|0,0:2|0:2,0:2:0:0:
260,334,58504,1,2,1:2:0:0:
260,334,58675,1,10,0:2:0:0:
219,176,59018,6,0,L|223:80,1,80,2|0,0:2|1:2,0:0:0:0:
281,30,59361,2,0,B|331:26|331:26|372:39|372:39|454:32,1,160,10|0,0:2|0:2,0:2:0:0:
501,95,59875,1,2,1:2:0:0:
438,157,60047,1,10,0:2:0:0:
438,157,60218,1,0,0:2:0:0:
506,256,60389,6,0,L|502:335,1,80,2|0,1:2|0:2,0:2:0:0:
418,308,60732,2,0,P|352:304|259:354,1,160,10|0,0:2|0:2,0:0:0:0:
182,356,61247,1,2,1:2:0:0:
182,356,61418,1,10,0:2:0:0:
290,222,61761,6,0,L|286:142,1,80,2|0,1:2|0:2,0:2:0:0:
198,134,62104,2,0,B|148:130|148:130|107:143|107:143|25:136,1,160,10|2,0:2|0:2,0:2:0:0:
23,126,62532,1,2,0:2:0:0:
8,112,62618,1,2,1:2:0:0:
57,33,62789,2,0,L|154:23,1,80,10|0,0:2|0:2,0:2:0:0:
253,55,63132,6,0,L|350:65,1,80,2|0,1:2|0:2,0:2:0:0:
409,19,63475,2,0,L|417:203,1,160,10|0,0:2|0:2,0:2:0:0:
329,161,63989,1,2,1:2:0:0:
251,203,64161,2,0,L|261:300,1,80,10|0,0:2|0:2,0:2:0:0:
162,346,64504,5,2,0:2:0:0:
8,303,64847,1,2,3:2:0:0:
121,191,65189,2,0,L|131:288,1,71.9999978027344,2|2,3:2|3:2,0:2:0:0:
41,222,65532,1,2,3:2:0:0:
41,222,65704,1,2,3:2:0:0:
108,97,65875,6,0,P|155:101|201:141,2,88.000002685547,4|0|10,1:2|0:0|0:2,0:2:0:0:
121,191,66389,1,2,3:2:0:0:
141,197,66475,1,0,3:2:0:0:
162,201,66561,2,0,P|207:208|251:178,1,88.000002685547,2|2,3:2|1:2,0:0:0:0:
276,97,66904,1,10,0:2:0:0:
370,17,67075,6,0,L|465:21,1,88.000002685547,2|0,0:2|1:2,0:2:0:0:
500,108,67418,2,0,L|412:104,1,88.000002685547,2|8,0:2|0:2,0:2:0:0:
370,191,67761,1,2,0:2:0:0:
439,258,67932,1,2,0:2:0:0:
439,258,68104,1,2,1:2:0:0:
387,339,68275,2,0,L|299:342,1,88.000002685547,10|2,0:2|0:2,0:2:0:0:
208,272,68618,6,0,P|202:224|220:176,1,88.000002685547,2|2,1:2|0:2,0:2:0:0:
294,133,68961,2,0,P|300:85|282:37,1,88.000002685547,10|2,0:2|0:2,0:0:0:0:
204,97,69304,2,0,L|106:91,1,88.000002685547,2|2,0:2|1:2,0:0:0:0:
23,121,69647,1,10,0:2:0:0:
108,200,69818,6,0,L|99:403,1,176.000005371094,2|2,0:2|1:2,0:2:0:0:
187,333,70332,1,10,0:2:0:0:
274,374,70504,1,2,0:2:0:0:
274,374,70675,2,0,L|366:370,2,88.000002685547,0|0|8,0:2|1:2|0:2,0:0:0:0:
267,279,71189,1,2,0:2:0:0:
317,175,71361,6,0,B|417:186|392:136|493:155,1,176.000005371094,2|10,1:2|0:2,0:2:0:0:
505,58,71875,1,2,3:2:0:0:
485,46,71961,1,0,3:2:0:0:
464,37,72047,2,0,P|408:26|366:33,1,88.000002685547,2|2,3:2|1:2,0:0:0:0:
289,65,72389,1,8,0:2:0:0:
289,65,72561,1,2,0:2:0:0:
168,51,72732,6,0,P|113:39|77:16,1,88.000002685547,0|0,1:2|0:2,0:0:0:0:
19,97,73075,2,0,P|87:176|74:256,1,176.000005371094,8|0,0:2|0:2,0:0:0:0:
133,325,73589,1,2,1:2:0:0:
221,285,73761,2,0,L|326:300,1,88.000002685547,10|2,0:2|0:2,0:2:0:0:
412,237,74104,6,0,B|433:135|433:135|398:53,2,176.000005371094,2|10|2,1:2|0:2|0:2,0:2:0:0:
330,194,74961,1,0,1:2:0:0:
330,194,75132,1,10,0:2:0:0:
204,232,75304,6,0,L|107:236,1,88.000002685547,2|0,0:2|0:0,0:2:0:0:
32,186,75647,2,0,P|22:146|37:91,1,88.000002685547,2|8,1:2|0:2,0:0:0:0:
75,17,75989,2,0,L|172:13,1,88.000002685547,2|0,0:2|0:2,0:0:0:0:
244,60,76332,2,0,P|254:100|239:155,1,88.000002685547,2|8,1:2|0:2,0:0:0:0:
338,1,76847,6,0,L|426:5,1,88.000002685547,4|0,1:2|0:0,0:2:0:0:
510,51,77189,1,10,0:2:0:0:
456,132,77361,1,2,3:2:0:0:
451,153,77447,1,0,3:2:0:0:
449,174,77532,2,0,L|445:262,2,88.000002685547,2|2|10,3:2|1:2|0:2,0:0:0:0:
338,224,78047,6,0,L|342:312,1,88.000002685547,2|0,0:2|1:2,0:2:0:0:
251,277,78389,2,0,P|183:266|137:289,1,88.000002685547,2|8,0:2|0:2,0:2:0:0:
74,302,78732,1,2,0:2:0:0:
7,231,78904,1,2,0:2:0:0:
7,231,79075,1,2,1:2:0:0:
74,160,79247,2,0,L|79:71,1,88.000002685547,10|2,0:2|0:2,0:2:0:0:
185,24,79589,6,0,L|189:111,2,88.000002685547,2|2|10,1:2|0:2|0:2,0:0:0:0:
275,60,80104,1,2,0:2:0:0:
363,22,80275,2,0,P|426:26|476:38,1,88.000002685547,2|2,0:2|1:2,0:0:0:0:
500,113,80618,1,10,0:2:0:0:
450,216,80789,6,0,P|387:220|337:232,1,88.000002685547,2|0,0:2|0:2,0:2:0:0:
306,303,81132,2,0,P|262:310|218:311,1,88.000002685547,2|10,1:2|0:2,0:0:0:0:
151,241,81475,2,0,L|146:63,1,176.000005371094,2|0,0:2|1:2,0:0:0:0:
65,11,81989,1,8,0:2:0:0:
11,121,82161,1,2,0:2:0:0:
11,121,82332,6,0,L|15:296,1,176.000005371094,2|8,1:2|0:2,0:2:0:0:
103,338,82847,1,2,3:2:0:0:
122,328,82932,1,0,3:2:0:0:
141,317,83018,1,2,3:2:0:0:
217,268,83189,2,0,P|273:270|330:296,1,88.000002685547,2|8,1:2|0:2,0:0:0:0:
369,357,83532,1,2,0:2:0:0:
476,315,83704,6,0,L|483:210,1,88.000002685547,0|0,1:2|0:0,0:2:0:0:
414,157,84047,2,0,L|407:52,1,88.000002685547,8|0,0:2|0:2,0:0:0:0:
321,111,84389,1,0,0:2:0:0:
321,111,84561,1,0,1:2:0:0:
239,59,84732,2,0,L|151:64,1,88.000002685547,10|2,0:2|0:2,0:2:0:0:
108,172,85075,6,0,L|195:166,1,88.000002685547,2|0,1:2|0:0,0:2:0:0:
278,226,85418,1,10,0:2:0:0:
278,226,85589,2,0,P|294:287|275:332,1,88.000002685547,0|2,1:2|0:2,0:0:0:0:
208,363,85932,1,8,0:2:0:0:
117,328,86104,1,2,1:2:0:0:
117,328,86275,1,10,0:2:0:0:
15,358,86447,6,0,L|6:257,1,88.000002685547,0|2,1:2|0:2,0:0:0:0:
61,190,86789,1,8,0:2:0:0:
61,190,86961,2,0,L|70:89,1,88.000002685547,2|0,1:2|0:2,0:0:0:0:
21,17,87304,1,10,0:2:0:0:
116,29,87475,1,0,1:2:0:0:
212,40,87647,1,8,0:2:0:0:
211,41,87818,5,4,1:2:0:0:
64,96,98789,6,0,B|112:80|112:80|208:96,1,143.999995605469,6|10,1:2|0:3,0:2:0:0:
287,80,99304,2,0,L|330:83,2,35.9999989013672,0|0|0,3:2|3:2|3:2,0:0:0:0:
258,159,99647,1,0,1:2:0:0:
287,238,99818,2,0,L|283:329,1,71.9999978027344,8|0,0:3|1:2,0:2:0:0:
294,324,100075,1,0,1:0:0:0:
304,338,100160,5,2,1:2:0:0:
382,304,100332,2,0,L|473:300,2,71.9999978027344,2|10|2,0:2|0:3|0:2,0:0:0:0:
382,219,100847,2,0,P|390:170|365:77,1,143.999995605469,2|10,0:2|0:3,0:2:0:0:
293,42,101361,1,2,1:2:0:0:
215,67,101532,6,0,L|126:58,2,71.9999978027344,2|2|10,1:2|0:2|0:3,0:2:0:0:
276,123,102047,1,2,3:2:0:0:
273,140,102132,1,0,3:2:0:0:
270,158,102218,1,0,3:2:0:0:
207,212,102389,1,0,1:2:0:0:
280,251,102561,1,8,0:3:0:0:
184,376,102904,6,0,P|179:340|171:305,1,71.9999978027344,2|2,1:2|0:2,0:0:0:0:
100,262,103247,2,0,L|25:258,1,71.9999978027344,10|2,0:3|0:2,0:0:0:0:
0,178,103589,2,0,P|70:152|159:147,1,143.999995605469,2|10,0:2|0:3,0:2:0:0:
215,112,104104,1,2,1:2:0:0:
292,146,104275,6,0,B|327:153|358:169|358:169|373:139|419:120,1,143.999995605469,2|10,1:2|0:3,0:2:0:0:
494,94,104789,2,0,L|498:56,2,35.9999989013672,2|0|0,3:2|3:2|3:2,0:0:0:0:
485,177,105132,1,0,1:2:0:0:
476,260,105304,2,0,L|467:340,1,71.9999978027344,8|0,0:3|1:2,0:2:0:0:
395,369,105647,6,0,L|387:297,1,71.9999978027344,2|2,1:2|0:2,0:0:0:0:
326,243,105989,2,0,L|333:171,1,71.9999978027344,10|2,0:3|0:2,0:0:0:0:
289,99,106332,2,0,B|222:115|213:57|140:72,1,143.999995605469,2|10,0:2|0:3,0:2:0:0:
87,125,106847,1,2,1:2:0:0:
10,90,107018,6,0,P|3:141|65:207,1,143.999995605469,2|8,1:2|0:3,0:2:0:0:
144,188,107532,2,0,L|136:358,1,143.999995605469,2|0,0:2|1:2,0:2:0:0:
221,329,108047,2,0,P|276:321|310:325,1,71.9999978027344,10|0,0:3|1:2,0:2:0:0:
374,331,108389,6,0,L|368:188,1,143.999995605469,2|8,1:2|0:3,0:2:0:0:
289,162,108904,2,0,L|295:18,1,143.999995605469,0|2,0:2|0:2,0:0:0:0:
373,53,109418,1,2,0:2:0:0:
202,98,109761,6,0,L|118:101,2,80,6|0|10,1:2|0:2|0:2,0:2:0:0:
175,182,110275,2,0,L|4:188,1,160,2|2,0:2|1:2,0:2:0:0:
48,269,110789,2,0,L|50:348,1,80,8|0,0:2|0:2,0:0:0:0:
153,293,111132,6,0,L|150:372,1,80,2|0,1:2|0:2,0:2:0:0:
232,341,111475,2,0,P|290:327|400:343,1,160,10|0,0:2|0:2,0:2:0:0:
465,295,111989,1,2,1:2:0:0:
412,223,112161,2,0,L|332:220,1,80,10|2,0:2|0:2,0:0:0:0:
233,163,112504,6,0,L|153:165,1,80,2|0,1:2|0:2,0:2:0:0:
87,224,112847,2,0,P|64:172|118:88,1,160,10|0,0:2|0:2,0:2:0:0:
183,36,113361,1,2,1:2:0:0:
262,72,113532,2,0,L|341:74,1,80,10|0,0:2|0:2,0:0:0:0:
445,29,113875,6,0,L|447:108,1,80,2|0,0:2|1:2,0:0:0:0:
374,158,114218,2,0,P|327:219|370:297,1,160,10|0,0:2|0:2,0:2:0:0:
419,351,114732,1,2,1:2:0:0:
419,351,114904,1,10,0:2:0:0:
374,158,115247,6,0,B|312:154|312:154|290:143|290:143|213:137,2,160,2|10|0,1:2|0:2|0:0,0:2:0:0:
447,108,116104,1,2,1:2:0:0:
367,70,116275,2,0,L|270:39,1,80,10|0,0:2|0:2,0:0:0:0:
186,14,116618,6,0,L|109:38,1,80,2|0,1:2|0:2,0:2:0:0:
23,55,116961,2,0,P|60:117|35:201,1,160,10|2,0:2|0:2,0:2:0:0:
31,216,117389,1,2,0:2:0:0:
24,235,117475,1,2,1:2:0:0:
73,308,117647,2,0,P|112:280|142:254,1,80,10|0,0:2|0:2,0:0:0:0:
229,186,117989,6,0,P|282:200|315:215,1,80,2|0,1:2|0:2,0:2:0:0:
374,263,118332,2,0,B|455:244|455:244|518:301,1,160,10|0,0:2|0:2,0:2:0:0:
437,343,118847,1,2,1:2:0:0:
336,357,119018,2,0,L|235:344,1,80,10|0,0:2|0:2,0:0:0:0:
152,297,119361,6,0,L|73:308,1,80,2|0,0:2|1:2,0:2:0:0:
1,256,119704,2,0,P|-3:204|29:151,1,80,10|0,0:2|0:2,0:2:0:0:
66,114,120047,2,0,P|70:62|38:9,2,80,2|2|10,0:2|1:2|0:2,0:2:0:0:
137,165,120561,1,2,0:2:0:0:
244,118,120732,6,0,L|326:123,1,80,6|0,1:2|0:2,0:2:0:0:
363,43,121075,2,0,L|197:32,1,160,10|0,0:2|0:2,0:0:0:0:
125,1,121589,1,2,1:2:0:0:
125,1,121761,1,8,0:2:0:0:
137,165,122104,6,0,B|139:200|139:200|122:241,1,80,2|0,1:2|0:2,0:2:0:0:
63,307,122447,2,0,P|156:290|223:323,1,160,10|0,0:2|0:2,0:2:0:0:
298,339,122961,2,0,L|403:335,2,80,2|8|0,1:2|0:2|0:2,0:0:0:0:
347,231,123475,6,0,L|426:234,1,80,2|0,1:2|0:2,0:2:0:0:
483,166,123818,2,0,B|476:127|510:92|510:92|523:67|510:11,1,160,10|0,0:2|0:2,0:2:0:0:
423,5,124332,1,2,1:2:0:0:
423,5,124504,1,10,0:2:0:0:
259,55,124847,6,0,L|263:160,1,80,2|0,0:2|1:2,0:0:0:0:
295,216,125189,2,0,P|259:247|154:224,1,160,10|0,0:2|0:2,0:2:0:0:
67,219,125704,2,0,L|71:324,2,80,2|10|0,1:2|0:2|0:2,0:0:0:0:
108,108,126218,6,0,P|105:62|88:17,1,80,2|0,1:2|0:2,0:2:0:0:
182,18,126561,2,0,P|262:49|366:35,1,160,10|0,0:2|0:0,0:0:0:0:
417,12,127075,1,2,1:2:0:0:
417,12,127247,1,10,0:2:0:0:
366,195,127589,6,0,P|377:233|379:273,1,80,2|0,1:2|0:2,0:2:0:0:
293,253,127932,2,0,L|125:247,1,160,10|2,0:2|0:2,0:2:0:0:
112,246,128361,1,2,0:2:0:0:
91,244,128447,1,2,1:2:0:0:
105,330,128618,2,0,L|184:332,1,80,10|0,0:2|0:2,0:0:0:0:
298,364,128961,6,0,L|377:361,1,80,2|0,1:2|0:2,0:2:0:0:
460,329,129304,2,0,P|489:270|455:165,1,160,10|0,0:2|0:2,0:2:0:0:
420,107,129818,1,2,1:2:0:0:
344,151,129989,2,0,L|264:148,1,80,10|0,0:2|0:2,0:2:0:0:
192,79,130332,5,2,0:2:0:0:
38,122,130675,1,2,3:2:0:0:
151,234,131017,2,0,L|161:137,1,71.9999978027344,2|2,3:2|3:2,0:2:0:0:
71,203,131360,1,2,3:2:0:0:
71,203,131532,1,2,3:2:0:0:
145,315,131704,6,0,L|244:309,1,88.000002685547,4|0,1:2|0:0,0:2:0:0:
308,248,132047,2,0,L|407:254,1,88.000002685547,10|2,0:2|3:2,0:0:0:0:
414,242,132304,1,0,3:2:0:0:
430,227,132389,1,2,3:2:0:0:
497,157,132561,1,2,1:2:0:0:
412,110,132732,1,10,0:2:0:0:
459,11,132904,6,0,P|418:1|368:11,1,88.000002685547,2|0,0:2|1:2,0:2:0:0:
314,85,133247,2,0,P|273:95|223:85,1,88.000002685547,2|8,0:2|0:2,0:2:0:0:
152,30,133589,1,2,0:2:0:0:
89,105,133761,1,2,0:2:0:0:
89,105,133932,1,2,1:2:0:0:
1,61,134104,2,0,L|-2:154,1,88.000002685547,10|2,0:2|0:2,0:2:0:0:
78,237,134447,6,0,L|81:330,2,88.000002685547,2|2|10,1:2|0:2|0:2,0:2:0:0:
159,184,134961,1,2,0:2:0:0:
239,237,135132,2,0,L|331:243,2,88.000002685547,2|2|10,0:2|1:2|0:2,0:0:0:0:
238,120,135647,6,0,P|235:72|248:31,1,88.000002685547,2|0,0:2|0:0,0:2:0:0:
338,5,135989,2,0,L|427:16,1,88.000002685547,2|10,1:2|0:2,0:0:0:0:
505,70,136332,2,0,L|494:159,1,88.000002685547,2|0,0:2|0:2,0:0:0:0:
492,258,136675,1,0,1:2:0:0:
492,258,136847,2,0,L|481:347,1,88.000002685547,8|2,0:2|0:2,0:0:0:0:
368,277,137189,6,0,B|268:266|293:316|192:297,1,176.000005371094,2|10,1:2|0:2,0:2:0:0:
103,270,137703,1,2,3:2:0:0:
84,282,137789,1,0,3:2:0:0:
66,296,137875,2,0,P|31:268|8:230,1,88.000002685547,2|2,3:2|1:2,0:0:0:0:
59,152,138217,1,8,0:2:0:0:
59,152,138389,1,2,0:2:0:0:
48,43,138560,6,0,P|103:55|139:78,1,88.000002685547,0|0,1:2|0:2,0:0:0:0:
209,127,138903,2,0,P|313:121|361:56,1,176.000005371094,8|0,0:2|0:2,0:0:0:0:
441,24,139417,1,2,1:2:0:0:
500,100,139589,1,10,0:2:0:0:
500,100,139760,1,2,0:2:0:0:
444,197,139932,6,0,L|448:376,2,176.000005371094,2|10|2,1:2|0:2|0:2,0:2:0:0:
362,250,140789,1,0,1:2:0:0:
362,250,140961,1,10,0:2:0:0:
257,218,141132,6,0,L|160:222,1,88.000002685547,2|0,0:2|0:0,0:2:0:0:
85,172,141475,2,0,P|75:132|90:77,1,88.000002685547,2|8,1:2|0:2,0:2:0:0:
128,3,141817,2,0,L|225:-1,1,88.000002685547,2|0,0:2|0:0,0:2:0:0:
297,46,142160,2,0,P|307:86|292:141,1,88.000002685547,2|8,1:2|0:2,0:2:0:0:
398,8,142675,6,0,L|495:12,1,88.000002685547,0|0,1:2|0:2,0:2:0:0:
506,106,143018,1,10,0:2:0:0:
461,191,143189,1,2,3:2:0:0:
459,213,143275,1,0,3:2:0:0:
459,235,143361,2,0,L|455:332,2,88.000002685547,2|2|10,3:2|1:2|0:2,0:0:0:0:
344,227,143875,6,0,L|247:231,1,88.000002685547,2|0,0:2|1:2,0:0:0:0:
200,309,144218,2,0,L|103:305,1,88.000002685547,2|8,0:2|0:2,0:0:0:0:
27,256,144561,1,2,0:2:0:0:
111,206,144732,2,0,L|111:115,1,88.000002685547,2|2,0:2|1:2,0:2:0:0:
28,69,145075,1,10,0:2:0:0:
28,69,145247,1,2,0:2:0:0:
127,11,145418,6,0,L|218:11,1,88.000002685547,2|2,1:2|0:2,0:0:0:0:
294,66,145761,2,0,L|294:154,1,88.000002685547,10|2,0:2|0:2,0:0:0:0:
369,220,146104,1,2,0:2:0:0:
369,220,146275,1,2,1:2:0:0:
299,287,146447,1,10,0:2:0:0:
375,369,146618,6,0,L|182:363,1,176.000005371094,2|2,0:2|1:2,0:2:0:0:
137,288,147132,1,10,0:2:0:0:
62,349,147304,2,0,P|28:267|59:187,1,176.000005371094,2|0,0:2|1:2,0:0:0:0:
97,100,147818,2,0,L|95:4,1,88.000002685547,8|2,0:2|0:2,0:0:0:0:
180,138,148161,6,0,B|256:163|282:102|357:135,1,176.000005371094,2|8,1:2|0:2,0:2:0:0:
445,108,148675,1,2,3:2:0:0:
449,86,148761,1,0,3:2:0:0:
452,64,148847,1,2,3:2:0:0:
369,15,149017,2,0,P|315:25|256:-13,1,88.000002685547,2|8,1:2|0:2,0:0:0:0:
193,0,149360,1,2,0:2:0:0:
81,56,149532,6,0,L|74:161,1,88.000002685547,0|0,1:2|0:0,0:2:0:0:
118,230,149875,2,0,L|125:335,1,88.000002685547,8|0,0:2|0:2,0:0:0:0:
206,265,150217,1,0,0:2:0:0:
206,265,150389,1,0,1:2:0:0:
273,325,150560,2,0,L|361:320,1,88.000002685547,10|0,0:2|0:2,0:0:0:0:
404,212,150903,6,0,L|317:218,1,88.000002685547,2|0,1:2|0:2,0:2:0:0:
234,158,151247,2,0,P|218:97|237:52,1,88.000002685547,10|0,0:2|0:2,0:2:0:0:
293,7,151589,2,0,L|486:20,1,176.000005371094,2|10,0:2|3:2,0:2:0:0:
512,128,152104,1,2,0:2:0:0:
234,158,153647,6,0,B|197:141|197:141|151:149,2,80,4|0|10,1:2|0:2|0:2,0:2:0:0:
256,243,154161,1,2,0:2:0:0:
193,304,154332,2,0,B|156:321|156:321|117:314,1,80,2|2,0:2|1:2,0:0:0:0:
41,268,154675,1,10,0:2:0:0:
58,181,154847,6,0,L|53:97,1,80,2|0,0:2|1:2,0:2:0:0:
114,38,155189,1,2,0:2:0:0:
114,38,155361,2,0,L|198:33,1,80,10|0,0:2|0:2,0:2:0:0:
264,85,155704,2,0,L|348:90,1,80,2|2,0:2|1:2,0:0:0:0:
426,58,156047,2,0,L|432:99,3,40,10|2|2|2,0:2|0:2|0:2|0:2,0:0:0:0:
444,112,156389,5,2,1:2:0:0:
443,200,156561,2,0,L|438:284,2,80,2|10|2,0:2|0:2|0:2,0:0:0:0:
423,201,156989,1,2,0:2:0:0:
403,202,157075,1,2,0:2:0:0:
329,250,157247,1,2,1:2:0:0:
329,250,157418,1,10,0:2:0:0:
244,226,157589,6,0,L|149:235,1,80,2|0,0:2|0:2,0:2:0:0:
98,292,157932,1,2,1:2:0:0:
28,237,158104,2,0,L|19:142,1,80,10|2,0:2|0:2,0:2:0:0:
76,89,158447,2,0,L|85:-6,2,80,2|2|10,0:2|1:2|3:2,0:2:0:0:
246,68,159132,6,0,B|240:134|240:134|250:171|250:171|244:226,1,160,2|10,1:2|0:2,0:2:0:0:
294,298,159647,1,2,0:2:0:0:
374,263,159818,1,2,0:2:0:0:
374,263,159989,2,0,P|430:257|472:258,1,80,2|8,1:2|0:2,0:2:0:0:
505,185,160332,1,2,0:2:0:0:
442,122,160504,6,0,P|441:82|435:42,1,80,0|0,1:2|0:0,0:2:0:0:
348,52,160847,2,0,P|353:91|354:131,1,80,10|2,0:2|0:2,0:0:0:0:
266,140,161189,2,0,P|265:100|260:61,2,80,2|0|10,0:2|1:2|0:2,0:2:0:0:
191,188,161704,1,2,0:2:0:0:
107,159,161875,6,0,B|15:141|15:141|-8:165|1:238,2,160,2|10|2,1:2|0:2|0:2,0:2:0:0:
124,247,162732,1,0,1:2:0:0:
124,247,162904,1,10,0:2:0:0:
197,294,163075,6,0,P|242:301|303:293,1,80,2|0,0:2|0:0,0:2:0:0:
347,246,163418,2,0,P|392:239|453:247,1,80,2|8,1:2|0:2,0:2:0:0:
499,192,163761,2,0,L|497:85,1,80,2|0,0:2|0:2,0:0:0:0:
415,79,164104,2,0,L|417:-28,1,80,2|8,1:2|0:2,0:0:0:0:
332,25,164447,1,2,0:2:0:0:
332,25,164618,6,0,L|330:132,2,80,0|2|8,1:2|0:2|0:2,0:0:0:0:
247,50,165132,1,2,0:2:0:0:
167,12,165304,2,0,L|72:17,1,80,0|2,0:2|1:2,0:0:0:0:
22,76,165647,1,8,0:0:0:0:
69,149,165818,6,0,L|65:229,1,80,2|0,0:2|1:2,0:2:0:0:
146,262,166161,2,0,L|150:342,1,80,2|10,0:2|0:2,0:0:0:0:
228,302,166504,1,2,0:2:0:0:
310,332,166675,2,0,L|389:338,2,80,2|2|10,0:2|1:2|0:2,0:0:0:0:
295,245,167189,6,0,P|309:182|332:160,1,80,2|0,0:2|1:2,0:2:0:0:
375,104,167532,2,0,P|361:41|338:19,2,80,2|10|2,0:2|0:2|0:2,0:0:0:0:
287,88,168047,2,0,P|230:89|191:88,1,80,2|2,0:2|1:2,0:2:0:0:
120,102,168389,1,10,0:2:0:0:
144,186,168561,6,0,P|183:185|223:186,1,80,2|0,0:2|0:2,0:2:0:0:
317,171,168904,2,0,P|356:171|396:170,1,80,2|10,1:2|0:2,0:0:0:0:
476,132,169247,1,2,0:2:0:0:
468,291,169589,1,2,1:2:0:0:
453,304,169675,1,2,0:2:0:0:
438,317,169761,1,10,0:2:0:0:
359,277,169932,1,2,0:2:0:0:
288,330,170104,6,0,B|203:308|203:308|130:351,1,160,0|8,1:2|0:2,0:0:0:0:
53,331,170618,1,2,0:2:0:0:
13,252,170789,1,0,0:2:0:0:
13,252,170961,2,0,P|23:198|88:106,1,160,2|2,1:2|0:2,0:2:0:0:
99,25,171475,6,0,P|151:43|186:43,1,80,2|0,1:2|0:0,0:2:0:0:
256,9,171818,2,0,P|266:63|331:155,1,160,10|2,0:2|0:2,0:2:0:0:
398,195,172332,1,2,1:2:0:0:
482,169,172504,2,0,L|473:84,1,80,8|2,0:2|0:2,0:0:0:0:
392,115,172847,6,0,L|398:202,1,80,2|0,1:2|0:0,0:2:0:0:
350,271,173190,1,10,0:2:0:0:
350,271,173361,2,0,P|289:287|244:268,1,80,0|2,1:2|0:2,0:0:0:0:
193,246,173704,1,8,0:2:0:0:
231,168,173876,1,2,1:2:0:0:
231,168,174047,1,10,0:2:0:0:
178,97,174219,6,0,L|185:17,1,80,0|2,1:2|0:2,0:0:0:0:
101,19,174561,1,8,0:2:0:0:
101,19,174733,2,0,L|0:28,1,80,2|0,1:2|0:2,0:0:0:0:
6,113,175076,1,10,0:2:0:0:
61,180,175247,1,2,1:2:0:0:
24,262,175419,1,10,0:2:0:0:
24,261,175590,5,6,1:2:0:0:
