osu file format v14

[General]
AudioFilename: audio.mp3
AudioLeadIn: 0
PreviewTime: 65789
Countdown: 0
SampleSet: Soft
StackLeniency: 0.7
Mode: 0
LetterboxInBreaks: 0
WidescreenStoryboard: 1

[Editor]
Bookmarks: 22106,87935,98906,178449
DistanceSpacing: 1
BeatDivisor: 4
GridSize: 8
TimelineZoom: 1.6

[Metadata]
Title:Time Bomb (feat. Veela)
TitleUnicode:Time Bomb (feat. Veela)
Artist:Feint & Boyinaband
ArtistUnicode:Feint & Boyinaband
Creator:Kuki1537
Version:Without You
Source:
Tags:dnb d&b d'n'b drum and n' bass monstercat 007 solace ft. basensorex nyantiaz intiaz majk00 enuhq my angel ram my_angel_ram english electronic edm female vocal featured artist fa
BeatmapID:3924031
BeatmapSetID:1722335

[Difficulty]
HPDrainRate:5
CircleSize:4
OverallDifficulty:9
ApproachRate:9.2
SliderMultiplier:1.8
SliderTickRate:1

[Events]
//Background and Video events
0,0,"Konachan.com - 335697 sample.jpg",0,0
//Break Periods
2,90761,96848
//Storyboard Layer 0 (Background)
//Storyboard Layer 1 (Fail)
//Storyboard Layer 2 (Pass)
//Storyboard Layer 3 (Foreground)
//Storyboard Layer 4 (Overlay)
//Storyboard Sound Samples

[TimingPoints]
47,342.857142857143,4,2,22,50,1,0
21989,-117.647058823529,4,2,22,50,0,0
43589,-100,4,2,22,65,0,0
43932,-100,4,2,22,75,0,1
64504,-117.647058823529,4,2,22,65,0,0
65189,-90.9090909090909,4,2,22,65,0,0
65532,-71.4285714285714,4,2,22,65,0,0
65875,-86.9565217391303,4,2,22,80,0,1
68275,-62.5,4,2,22,80,0,1
68618,-86.9565217391303,4,2,22,80,0,1
79247,-62.5,4,2,22,80,0,1
79589,-86.9565217391303,4,2,22,80,0,1
87647,-62.5,4,2,22,80,0,1
87818,-62.5,4,2,22,80,0,0
87904,-86.9565217391303,4,2,22,50,0,0
90561,-86.9565217391303,4,2,22,5,0,0
97418,-166.666666666667,4,2,22,50,0,0
98618,-200,4,2,22,5,0,0
98789,-117.647058823529,4,2,22,50,0,0
109418,-100,4,2,22,65,0,0
109761,-100,4,2,22,75,0,1
130332,-117.647058823529,4,2,22,65,0,0
131018,-90.9090909090909,4,2,22,65,0,0
131361,-71.4285714285714,4,2,22,65,0,0
131704,-86.9565217391303,4,2,22,80,0,1
134104,-62.5,4,2,22,80,0,1
134447,-86.9565217391303,4,2,22,80,0,1
145075,-62.5,4,2,22,80,0,1
145418,-86.9565217391303,4,2,22,80,0,1
152104,-117.647058823529,4,2,22,65,0,0
153304,-83.3333333333333,4,2,22,65,0,0
153647,-100,4,2,22,75,0,0
158104,-62.5,4,2,22,75,0,0
158275,-71.4285714285714,4,2,22,75,0,0
158447,-83.3333333333333,4,2,22,75,0,0
158618,-100,4,2,22,75,0,0
175418,-83.3333333333333,4,2,22,75,0,0
175675,-83.3333333333333,4,2,22,50,0,0
178332,-100,4,2,22,5,0,0

[Colours]
Combo1 : 233,163,112
Combo2 : 182,252,252
Combo3 : 98,217,217
Combo4 : 255,209,159

[HitObjects]
205,50,21989,6,0,P|134:32|83:108,1,153.000002918243,6|10,1:2|0:3,0:2:0:0:
83,173,22504,1,0,3:2:0:0:
97,169,22589,1,0,3:2:0:0:
111,165,22675,1,0,3:2:0:0:
125,161,22761,1,0,3:2:0:0:
139,157,22847,1,0,1:2:0:0:
96,268,23018,2,0,L|18:248,1,76.5000014591217,8|2,0:3|1:2,0:2:0:0:
105,357,23361,5,2,1:2:0:0:
185,240,23532,1,2,0:2:0:0:
231,382,23704,1,10,0:3:0:0:
330,272,23875,1,2,3:2:0:0:
330,272,23961,1,0,3:2:0:0:
330,272,24047,2,0,L|427:292,1,76.5000014591217,2|0,3:2|1:2,0:2:0:0:
512,236,24389,1,10,0:3:0:0:
445,362,24561,1,2,1:2:0:0:
382,200,24732,6,0,B|368:160|368:160|408:115|382:39,1,153.000002918243,2|10,1:2|0:3,0:2:0:0:
251,84,25247,1,2,3:2:0:0:
261,94,25332,1,0,3:2:0:0:
274,101,25418,1,0,3:2:0:0:
288,106,25504,1,0,3:2:0:0:
302,108,25589,1,0,1:2:0:0:
265,2,25761,2,0,P|221:1|190:23,1,76.5000014591217,8|0,0:3|1:2,0:2:0:0:
128,108,26104,5,2,1:2:0:0:
113,22,26275,1,2,0:2:0:0:
26,37,26447,1,10,0:3:0:0:
46,127,26618,1,2,3:2:0:0:
46,127,26704,1,0,3:2:0:0:
46,127,26789,2,0,L|30:205,1,76.5000014591217,2|0,3:2|1:2,0:2:0:0:
147,346,27132,1,10,0:3:0:0:
15,285,27304,1,2,1:2:0:0:
126,196,27475,6,0,B|175:205|175:205|212:245|212:245|278:256,1,153.000002918243,2|10,1:2|0:3,0:2:0:0:
147,346,27989,1,2,3:2:0:0:
142,331,28075,1,0,3:2:0:0:
138,316,28161,1,0,3:2:0:0:
134,301,28247,1,0,3:2:0:0:
130,286,28332,1,0,1:2:0:0:
257,167,28504,2,0,L|273:90,1,76.5000014591217,8|0,0:3|1:2,0:2:0:0:
413,200,28847,5,2,1:2:0:0:
260,253,29018,1,2,0:2:0:0:
378,357,29189,1,10,0:3:0:0:
350,272,29361,1,2,3:2:0:0:
350,272,29447,1,0,3:2:0:0:
350,272,29532,2,0,L|322:178,1,76.5000014591217,2|0,3:2|1:2,0:2:0:0:
169,135,29875,1,10,0:3:0:0:
260,253,30047,1,2,1:2:0:0:
352,36,30218,6,0,P|406:6|513:14,1,153.000002918243,2|8,1:2|0:3,0:2:0:0:
512,90,30732,2,0,P|458:120|351:112,1,153.000002918243,2|2,0:2|1:2,0:2:0:0:
266,61,31247,2,0,L|285:143,1,76.5000014591217,10|0,0:3|1:2,0:2:0:0:
175,232,31589,6,0,B|110:190|110:190|22:202,1,153.000002918243,2|8,1:2|0:3,0:2:0:0:
17,283,32104,2,0,B|81:324|81:324|169:312,1,153.000002918243,2|0,0:2|1:2,0:2:0:0:
239,290,32618,1,8,0:3:0:0:
239,290,32961,6,0,B|246:323|283:335|283:335|396:309,1,153.000002918243,2|10,1:2|0:3,0:2:0:0:
445,359,33475,1,0,3:2:0:0:
449,344,33561,1,0,3:2:0:0:
454,329,33647,1,0,3:2:0:0:
458,314,33732,1,0,3:2:0:0:
463,299,33818,1,0,1:2:0:0:
295,172,33989,2,0,P|295:213|329:253,1,76.5000014591217,8|0,0:3|1:2,0:2:0:0:
474,161,34332,5,2,1:2:0:0:
337,98,34504,1,2,0:2:0:0:
407,226,34675,1,10,0:3:0:0:
430,82,34847,1,2,3:2:0:0:
430,82,34933,1,0,3:2:0:0:
430,82,35018,2,0,L|412:-1,1,76.5000014591217,2|0,3:2|1:2,0:2:0:0:
337,98,35361,1,10,0:3:0:0:
474,161,35532,1,2,1:2:0:0:
329,264,35704,6,0,L|311:186,1,76.5000014591217,2|2,1:2|0:2,0:2:0:0:
419,287,36047,1,10,0:3:0:0:
270,332,36218,1,2,3:2:0:0:
255,336,36304,1,0,3:2:0:0:
240,340,36389,1,0,3:2:0:0:
225,345,36475,1,0,3:2:0:0:
210,350,36561,1,0,1:2:0:0:
138,230,36732,2,0,L|226:255,1,76.5000014591217,8|0,0:3|1:2,0:2:0:0:
107,327,37075,5,2,1:2:0:0:
42,199,37247,1,2,0:2:0:0:
12,353,37418,1,10,0:3:0:0:
138,230,37589,1,2,3:2:0:0:
138,230,37675,1,0,3:2:0:0:
138,230,37761,2,0,L|157:148,1,76.5000014591217,2|0,3:2|1:2,0:2:0:0:
266,37,38104,1,10,0:3:0:0:
98,89,38275,1,2,1:2:0:0:
235,192,38447,6,0,B|316:178|302:235|394:221,1,153.000002918243,2|10,1:2|0:3,0:2:0:0:
274,337,38961,1,2,3:2:0:0:
270,322,39047,1,0,3:2:0:0:
267,308,39132,1,0,3:2:0:0:
264,293,39218,1,0,3:2:0:0:
261,278,39304,1,0,1:2:0:0:
462,200,39475,2,0,P|467:240|450:277,1,76.5000014591217,8|0,0:3|1:2,0:2:0:0:
358,139,39818,5,2,1:2:0:0:
512,46,39989,1,2,0:2:0:0:
333,19,40161,1,10,0:3:0:0:
434,96,40332,1,2,3:2:0:0:
434,96,40418,1,0,3:2:0:0:
434,96,40504,2,0,L|417:17,1,76.5000014591217,2|0,3:2|1:2,0:2:0:0:
282,90,40847,1,10,0:3:0:0:
442,181,41018,1,2,1:2:0:0:
259,238,41189,6,0,B|208:248|208:248|178:290|178:290|117:306,1,153.000002918243,2|8,1:2|0:3,0:2:0:0:
61,373,41704,2,0,B|98:338|98:338|62:224,1,153.000002918243,2|0,0:2|1:2,0:2:0:0:
106,81,42218,2,0,L|125:-5,1,76.5000014591217,10|0,0:3|1:2,0:2:0:0:
10,160,42561,6,0,P|82:161|163:207,1,153.000002918243,2|8,1:2|0:3,0:2:0:0:
238,299,43075,1,2,0:2:0:0:
351,239,43247,5,2,0:2:0:0:
363,227,43332,1,2,0:2:0:0:
372,205,43418,1,2,0:2:0:0:
362,179,43504,1,2,0:2:0:0:
330,150,43589,1,2,0:2:0:0:
309,99,43675,1,2,0:2:0:0:
328,42,43761,1,2,0:2:0:0:
386,11,43847,1,2,0:2:0:0:
448,22,43932,6,0,L|425:137,1,90,6|0,1:2|0:2,0:2:0:0:
269,213,44275,1,10,0:2:0:0:
484,325,44447,2,0,L|463:228,1,90,2|0,0:2|0:2,0:2:0:0:
211,281,44789,2,0,P|260:303|304:294,1,90,2|8,1:2|0:2,0:2:0:0:
159,73,45132,5,0,3:2:0:0:
159,73,45218,1,0,3:2:0:0:
159,73,45304,2,0,L|63:97,1,90,2|0,1:2|0:2,0:2:0:0:
108,344,45647,2,0,L|144:158,1,180,10|0,0:2|0:2,0:2:0:0:
268,41,46161,1,2,1:2:0:0:
49,101,46332,1,10,0:2:0:0:
238,197,46504,5,2,3:2:0:0:
238,197,46589,1,0,3:2:0:0:
238,197,46675,2,0,P|280:218|332:206,1,90,2|0,1:2|0:2,0:2:0:0:
418,13,47018,2,0,B|359:49|359:49|398:159,1,180,10|0,0:2|0:2,0:2:0:0:
446,324,47532,1,2,1:2:0:0:
497,122,47704,1,10,0:2:0:0:
321,211,47875,5,0,3:2:0:0:
321,211,47961,1,0,3:2:0:0:
321,211,48047,1,2,0:2:0:0:
512,266,48218,1,0,1:2:0:0:
304,368,48389,2,0,L|122:332,1,180,10|0,0:2|0:2,0:2:0:0:
15,149,48904,1,2,1:2:0:0:
237,262,49075,1,10,0:2:0:0:
34,358,49247,5,2,3:2:0:0:
34,358,49332,1,0,3:2:0:0:
34,358,49418,2,0,L|57:255,1,90,2|0,1:2|0:2,0:2:0:0:
93,78,49761,1,10,0:2:0:0:
237,262,49932,2,0,P|196:287|145:280,1,90,2|0,0:2|0:2,0:2:0:0:
0,141,50275,1,2,1:2:0:0:
279,65,50447,2,0,L|259:160,1,90,10|0,0:2|3:2,0:2:0:0:
259,175,50704,1,0,3:2:0:0:
259,175,50789,6,0,L|357:158,1,90,2|0,1:2|0:2,0:2:0:0:
512,322,51132,2,0,B|448:312|400:359|400:359|375:337|334:341,1,180,10|0,0:2|0:2,0:2:0:0:
237,262,51647,1,2,1:2:0:0:
237,262,51732,1,2,0:2:0:0:
237,262,51818,2,0,L|259:357,1,90,10|0,0:2|0:2,0:2:0:0:
413,225,52161,6,0,P|440:184|438:143,1,90,2|0,1:2|0:2,0:2:0:0:
241,45,52504,2,0,B|178:58|178:58|144:98|144:98|75:113,1,180,10|0,0:2|0:2,0:2:0:0:
239,146,53018,1,2,1:2:0:0:
89,16,53189,2,0,L|-5:-1,1,90,10|0,0:2|0:2,0:2:0:0:
55,192,53532,6,0,P|82:148|80:105,1,90,2|0,0:2|1:2,0:2:0:0:
0,310,53875,2,0,L|96:333,1,90,10|0,0:2|0:2,0:2:0:0:
325,185,54218,1,2,0:2:0:0:
136,259,54389,1,2,1:2:0:0:
380,353,54561,1,10,0:2:0:0:
235,155,54732,5,2,3:2:0:0:
235,155,54818,1,0,3:2:0:0:
235,155,54904,2,0,P|231:204|269:257,1,90,6|0,1:2|0:2,0:2:0:0:
487,217,55247,1,10,0:2:0:0:
328,9,55418,2,0,L|305:116,1,90,2|0,0:2|0:2,0:2:0:0:
380,353,55761,2,0,L|403:246,1,90,2|8,1:2|0:2,0:2:0:0:
511,118,56104,5,0,3:2:0:0:
511,118,56189,1,0,3:2:0:0:
511,118,56275,2,0,L|413:142,1,90,2|0,1:2|0:2,0:2:0:0:
248,239,56618,2,0,L|64:195,1,180,10|0,0:2|0:2,0:2:0:0:
334,163,57132,2,0,L|359:258,1,90,2|8,1:2|0:2,0:2:0:0:
168,347,57475,5,0,3:2:0:0:
168,347,57561,1,0,3:2:0:0:
168,347,57647,2,0,P|142:303|149:264,1,90,2|0,1:2|0:2,0:2:0:0:
3,55,57989,2,0,B|100:35|75:109|184:86,1,180,10|0,0:2|0:2,0:2:0:0:
340,27,58504,1,2,1:2:0:0:
243,217,58675,1,10,0:2:0:0:
149,11,58847,5,0,3:2:0:0:
149,11,58932,1,0,3:2:0:0:
149,11,59018,1,2,0:2:0:0:
372,106,59189,1,0,1:2:0:0:
102,174,59361,2,0,B|-14:146|-14:146|29:195,1,180,10|0,0:2|0:2,0:2:0:0:
193,349,59875,1,2,1:2:0:0:
295,142,60047,1,10,0:2:0:0:
132,272,60218,5,0,3:2:0:0:
132,272,60304,1,0,3:2:0:0:
132,272,60389,2,0,L|221:253,1,90,2|0,1:2|0:2,0:2:0:0:
401,207,60732,1,10,0:2:0:0:
244,0,60904,2,0,P|222:41|229:90,1,90,2|0,0:2|0:2,0:2:0:0:
308,228,61247,1,2,1:2:0:0:
403,37,61418,2,0,L|314:55,1,90,10|0,0:2|0:2,0:2:0:0:
95,154,61761,6,0,L|183:172,1,90,2|0,1:2|0:2,0:2:0:0:
459,251,62104,2,0,B|401:264|401:264|364:312|364:312|291:329,1,180,10|0,0:2|0:2,0:2:0:0:
143,367,62618,1,2,1:2:0:0:
143,367,62704,1,2,0:2:0:0:
143,367,62789,2,0,L|165:265,1,90,10|0,0:2|0:2,0:2:0:0:
7,131,63132,6,0,P|3:186|32:222,1,90,2|0,1:2|0:2,0:2:0:0:
244,336,63475,2,0,B|363:310|363:310|375:277|418:258,1,180,10|0,0:2|0:2,0:2:0:0:
450,341,63989,1,2,1:2:0:0:
307,234,64161,2,0,L|287:144,1,90,10|0,0:2|0:2,0:2:0:0:
314,66,64504,6,0,L|373:7,1,76.5000014591217,2|0,0:2|0:2,0:2:0:0:
229,85,64847,2,0,L|147:57,1,76.5000014591217,2|0,3:2|3:2,0:2:0:0:
66,32,65104,1,0,3:2:0:0:
66,32,65189,6,0,L|81:93,1,49.5000015106202,2|0,3:2|0:2,0:2:0:0:
139,142,65361,2,0,L|154:203,1,49.5000015106202,2|0,3:2|0:2,0:2:0:0:
3,191,65532,6,0,P|24:172|65:163,1,62.9999980773926,2|0,3:2|0:2,0:2:0:0:
226,230,65704,2,0,P|252:244|289:243,1,62.9999980773926,2|0,3:2|0:2,0:2:0:0:
340,10,65875,6,0,P|282:11|230:105,1,155.250002961159,4|0,1:2|0:2,0:2:0:0:
236,125,66218,1,10,0:2:0:0:
412,84,66389,1,2,3:2:0:0:
406,114,66475,1,0,3:2:0:0:
400,144,66561,1,2,3:2:0:0:
394,174,66647,1,0,3:2:0:0:
388,204,66732,1,2,1:2:0:0:
315,93,66904,1,10,0:2:0:0:
484,182,67075,6,0,P|487:242|448:288,1,103.500001974106,2|0,0:2|1:2,0:2:0:0:
238,383,67418,2,0,P|235:323|274:277,1,103.500001974106,2|8,0:2|0:2,0:2:0:0:
388,204,67761,1,2,3:2:0:0:
388,204,67847,1,0,3:2:0:0:
388,204,67932,2,0,L|328:218,1,51.7500009870529,2|0,3:2|0:2,0:2:0:0:
102,176,68104,2,0,L|152:164,1,51.7500009870529,2|0,1:2|0:2,0:2:0:0:
257,288,68275,6,0,P|236:252|243:208,1,72,10|0,0:2|0:2,0:2:0:0:
236,69,68447,2,0,P|256:99|257:135,1,72,2|0,0:2|0:2,0:2:0:0:
158,272,68618,6,0,P|98:289|20:347,1,155.250002961159,2|0,1:2|0:2,0:2:0:0:
0,384,68961,1,10,0:2:0:0:
222,336,69132,1,2,3:2:0:0:
242,312,69218,1,0,3:2:0:0:
251,282,69304,1,2,3:2:0:0:
250,251,69389,1,0,3:2:0:0:
237,222,69475,1,2,1:2:0:0:
362,328,69647,1,10,0:2:0:0:
158,272,69818,6,0,B|116:234|116:234|155:117,1,155.250002961159,2|0,0:2|0:2,0:2:0:0:
159,100,70161,1,2,1:2:0:0:
25,265,70332,1,10,0:2:0:0:
237,222,70504,2,0,L|343:195,1,103.500001974106,2|0,0:2|0:2,0:2:0:0:
290,71,70847,6,0,L|276:135,1,51.7500009870529,0|0,1:2|0:2,0:2:0:0:
400,307,71018,2,0,L|414:243,1,51.7500009870529,8|0,0:2|0:2,0:2:0:0:
466,50,71189,5,2,3:2:0:0:
466,50,71275,1,0,3:2:0:0:
466,50,71361,2,0,B|418:31|418:31|449:155,1,155.250002961159,2|0,1:2|0:2,0:2:0:0:
451,174,71704,1,10,0:2:0:0:
308,319,71875,1,2,3:2:0:0:
315,288,71961,1,0,3:2:0:0:
322,257,72047,1,2,3:2:0:0:
329,227,72132,1,0,3:2:0:0:
337,196,72218,1,2,1:2:0:0:
411,295,72389,1,8,0:2:0:0:
217,347,72561,6,0,P|168:353|118:323,1,103.500001974106,2|0,0:2|1:2,0:2:0:0:
3,145,72904,1,0,0:2:0:0:
195,256,73075,1,8,0:2:0:0:
17,345,73247,1,0,3:2:0:0:
17,345,73332,1,0,3:2:0:0:
17,345,73418,1,0,3:2:0:0:
94,129,73589,6,0,L|82:190,1,51.7500009870529,2|0,1:2|0:2,0:2:0:0:
112,378,73761,2,0,L|124:317,1,51.7500009870529,10|0,0:2|0:2,0:2:0:0:
219,167,73932,5,2,3:2:0:0:
219,167,74018,1,0,3:2:0:0:
219,167,74104,2,0,P|270:157|330:197,1,103.500001974106,2|0,1:2|0:2,0:2:0:0:
423,335,74447,1,10,0:2:0:0:
236,361,74618,1,0,3:2:0:0:
226,331,74704,1,0,3:2:0:0:
228,300,74789,1,2,3:2:0:0:
239,271,74875,1,0,3:2:0:0:
259,247,74961,1,0,1:2:0:0:
131,281,75132,1,10,0:2:0:0:
325,319,75304,6,0,L|363:167,1,155.250002961159,2|0,0:2|0:2,0:2:0:0:
371,129,75647,1,2,1:2:0:0:
473,249,75818,1,8,0:2:0:0:
275,140,75989,1,2,3:2:0:0:
275,140,76075,1,0,3:2:0:0:
275,140,76161,1,0,3:2:0:0:
486,54,76332,1,2,1:2:0:0:
378,255,76504,1,8,0:2:0:0:
318,43,76675,5,0,3:2:0:0:
318,43,76761,1,0,3:2:0:0:
318,43,76847,2,0,B|242:32|242:32|179:83,1,155.250002961159,4|0,1:2|0:2,0:2:0:0:
148,111,77189,1,10,0:2:0:0:
246,263,77361,1,2,3:2:0:0:
253,232,77447,1,0,3:2:0:0:
260,202,77532,1,2,3:2:0:0:
267,171,77618,1,0,3:2:0:0:
275,138,77704,1,2,1:2:0:0:
128,206,77875,1,10,0:2:0:0:
361,341,78047,6,0,L|384:238,1,103.500001974106,2|0,0:2|1:2,0:2:0:0:
170,9,78389,2,0,L|147:112,1,103.500001974106,2|8,0:2|0:2,0:2:0:0:
85,264,78732,1,2,3:2:0:0:
85,264,78818,1,0,3:2:0:0:
85,264,78904,2,0,L|22:279,1,51.7500009870529,2|0,3:2|0:2,0:2:0:0:
290,175,79075,2,0,L|340:163,1,51.7500009870529,2|0,1:2|0:2,0:2:0:0:
69,176,79247,6,0,L|-5:158,1,72,10|0,0:2|0:2,0:2:0:0:
313,256,79418,2,0,L|382:274,1,72,2|0,0:2|0:2,0:2:0:0:
166,94,79589,5,2,1:2:0:0:
218,346,79761,1,2,0:2:0:0:
85,264,79932,1,10,0:2:0:0:
290,175,80104,1,2,3:2:0:0:
312,154,80189,1,0,3:2:0:0:
324,125,80275,1,2,3:2:0:0:
324,93,80361,1,0,3:2:0:0:
311,63,80447,1,2,1:2:0:0:
194,217,80618,1,10,0:2:0:0:
382,274,80789,6,0,L|488:248,1,103.500001974106,2|0,0:2|0:2,0:2:0:0:
234,106,81132,1,2,1:2:0:0:
302,321,81304,1,10,0:2:0:0:
425,150,81475,1,2,3:2:0:0:
425,150,81561,1,0,3:2:0:0:
425,150,81647,1,0,0:2:0:0:
194,217,81818,1,0,1:2:0:0:
457,350,81989,1,8,0:2:0:0:
162,369,82161,5,2,3:2:0:0:
162,369,82247,1,0,3:2:0:0:
162,369,82332,2,0,L|194:213,1,155.250002961159,2|0,1:2|0:2,0:2:0:0:
201,177,82675,1,8,0:2:0:0:
17,17,82847,1,2,3:2:0:0:
25,46,82932,1,0,3:2:0:0:
33,75,83018,1,2,3:2:0:0:
41,104,83104,1,0,3:2:0:0:
49,133,83189,1,2,1:2:0:0:
234,57,83361,1,8,0:2:0:0:
60,225,83532,1,2,0:2:0:0:
290,141,83704,6,0,P|346:136|401:214,1,155.250002961159,0|0,1:2|0:2,0:2:0:0:
388,253,84047,1,8,0:2:0:0:
207,155,84218,1,0,3:2:0:0:
207,155,84304,1,0,3:2:0:0:
207,155,84389,2,0,L|234:260,1,103.500001974106,0|0,3:2|1:2,0:2:0:0:
165,329,84732,6,0,L|148:268,1,51.7500009870529,10|0,0:2|0:2,0:2:0:0:
290,141,84904,2,0,L|307:202,1,51.7500009870529,2|0,0:2|0:2,0:2:0:0:
128,195,85075,6,0,L|86:40,1,155.250002961159,2|0,1:2|0:2,0:2:0:0:
74,0,85418,1,10,0:2:0:0:
5,203,85589,1,0,1:2:0:0:
15,194,85761,1,2,3:2:0:0:
213,58,85932,5,8,0:2:0:0:
281,288,86104,1,2,1:2:0:0:
86,102,86275,5,10,0:2:0:0:
11,321,86447,1,0,1:2:0:0:
24,313,86618,1,2,3:2:0:0:
221,162,86789,5,8,0:2:0:0:
282,384,86961,1,2,1:2:0:0:
269,376,87132,1,0,3:2:0:0:
52,192,87304,6,0,L|121:209,1,51.7500009870529,10|0,0:2|0:2,0:2:0:0:
309,256,87475,2,0,L|247:240,1,51.7500009870529,0|0,1:2|0:2,0:2:0:0:
11,321,87647,5,8,0:2:0:0:
340,126,87818,1,4,1:2:0:0:
256,192,87989,12,0,90561,0:2:0:0:
125,62,97418,6,0,B|58:20|-1:109|44:187|192:160|217:142|153:79|238:42|307:74,1,377.999988464356,0|0,3:2|0:2,0:2:0:0:
344,0,98789,6,0,L|311:165,1,153.000002918243,6|10,1:2|0:3,0:2:0:0:
382,210,99304,1,0,3:2:0:0:
396,215,99389,1,0,3:2:0:0:
411,215,99475,1,0,3:2:0:0:
425,211,99561,1,0,3:2:0:0:
438,202,99647,1,0,1:2:0:0:
322,272,99818,2,0,P|287:255|241:260,1,76.5000014591217,8|0,0:3|1:2,0:2:0:0:
37,331,100161,5,2,1:2:0:0:
168,236,100332,1,2,0:2:0:0:
87,215,100504,1,10,0:3:0:0:
171,364,100675,1,2,3:2:0:0:
171,364,100761,1,0,3:2:0:0:
171,364,100847,2,0,L|254:345,1,76.5000014591217,2|0,3:2|1:2,0:2:0:0:
224,175,101189,1,10,0:3:0:0:
110,293,101361,1,2,1:2:0:0:
129,84,101532,6,0,L|151:178,1,76.5000014591217,2|2,1:2|0:2,0:2:0:0:
269,269,101875,1,10,0:3:0:0:
327,122,102047,1,2,3:2:0:0:
339,113,102132,1,0,3:2:0:0:
353,108,102218,1,0,3:2:0:0:
368,106,102304,1,0,3:2:0:0:
382,109,102389,1,0,1:2:0:0:
508,210,102561,2,0,L|427:190,1,76.5000014591217,8|0,0:3|1:2,0:2:0:0:
287,351,102904,5,2,1:2:0:0:
456,283,103075,1,2,0:2:0:0:
303,222,103247,1,10,0:3:0:0:
383,364,103418,1,2,3:2:0:0:
383,364,103504,1,0,3:2:0:0:
383,364,103589,2,0,L|363:279,1,76.5000014591217,2|0,3:2|1:2,0:2:0:0:
255,127,103932,1,10,0:3:0:0:
433,191,104104,1,2,1:2:0:0:
278,308,104275,6,0,B|228:318|228:318|194:359|194:359|119:377,1,153.000002918243,2|10,1:2|0:3,0:2:0:0:
123,226,104789,1,2,3:2:0:0:
128,240,104875,1,0,3:2:0:0:
133,254,104961,1,0,3:2:0:0:
138,268,105047,1,0,3:2:0:0:
143,282,105133,1,0,1:2:0:0:
0,384,105304,2,0,L|21:300,1,76.5000014591217,8|0,0:3|1:2,0:2:0:0:
115,133,105647,5,2,1:2:0:0:
2,230,105818,1,2,0:2:0:0:
143,282,105989,1,10,0:3:0:0:
259,187,106161,1,2,3:2:0:0:
259,187,106247,1,0,3:2:0:0:
259,187,106332,2,0,L|241:102,1,76.5000014591217,2|0,3:2|1:2,0:2:0:0:
275,29,106675,1,10,0:3:0:0:
115,133,106847,1,2,1:2:0:0:
345,172,107018,6,0,L|496:139,1,153.000002918243,2|8,1:2|0:3,0:2:0:0:
512,221,107532,2,0,L|362:253,1,153.000002918243,2|0,0:2|1:2,0:2:0:0:
292,325,108047,2,0,L|211:306,1,76.5000014591217,10|0,0:3|1:2,0:2:0:0:
57,134,108389,6,0,P|115:150|128:258,1,153.000002918243,2|8,1:2|0:3,0:2:0:0:
30,306,108904,1,0,0:2:0:0:
148,380,109075,5,2,0:2:0:0:
165,383,109161,1,2,0:2:0:0:
187,381,109247,1,2,0:2:0:0:
213,360,109332,1,2,0:2:0:0:
239,322,109418,1,2,0:2:0:0:
284,289,109504,1,2,0:2:0:0:
342,287,109589,1,2,0:2:0:0:
398,322,109675,1,2,0:2:0:0:
419,384,109761,6,0,L|445:283,1,90,6|0,1:2|0:2,0:2:0:0:
483,130,110104,1,10,0:2:0:0:
284,289,110275,2,0,L|258:188,1,90,2|0,0:2|0:2,0:2:0:0:
508,47,110618,2,0,P|461:45|421:74,1,90,2|8,1:2|0:2,0:2:0:0:
225,31,110961,5,0,3:2:0:0:
225,31,111047,1,0,3:2:0:0:
225,31,111132,2,0,L|320:9,1,90,2|0,1:2|0:2,0:2:0:0:
493,212,111475,2,0,B|433:199|433:199|396:155|396:155|325:141,1,180,10|0,0:2|0:2,0:2:0:0:
137,276,111989,1,2,1:2:0:0:
361,234,112161,1,10,0:2:0:0:
169,116,112332,5,2,3:2:0:0:
169,116,112418,1,0,3:2:0:0:
169,116,112504,2,0,L|191:212,1,90,2|0,1:2|0:2,0:2:0:0:
19,342,112847,2,0,B|45:234|45:234|85:222|101:182,1,180,10|0,0:2|0:2,0:2:0:0:
219,32,113361,1,2,1:2:0:0:
24,149,113532,1,10,0:2:0:0:
226,221,113704,5,0,3:2:0:0:
226,221,113789,1,0,3:2:0:0:
226,221,113875,1,2,0:2:0:0:
109,30,114047,1,0,1:2:0:0:
293,159,114218,2,0,P|317:205|241:313,1,180,10|0,0:2|0:2,0:2:0:0:
187,121,114732,1,2,1:2:0:0:
376,68,114904,1,10,0:2:0:0:
226,221,115075,5,2,3:2:0:0:
226,221,115161,1,0,3:2:0:0:
226,221,115247,2,0,L|130:198,2,90,2|0|10,1:2|0:2|0:2,0:2:0:0:
428,0,115761,2,0,B|481:45|481:45|437:180,1,180,2|2,0:2|1:2,0:2:0:0:
350,294,116275,1,10,0:2:0:0:
270,110,116447,5,0,3:2:0:0:
270,110,116532,1,0,3:2:0:0:
270,110,116618,2,0,P|317:106|364:136,1,90,2|0,1:2|0:2,0:2:0:0:
448,306,116961,2,0,B|356:296|381:357|272:344,1,180,10|0,0:2|0:2,0:2:0:0:
119,261,117475,1,2,1:2:0:0:
125,234,117561,1,2,0:2:0:0:
131,207,117647,1,10,0:2:0:0:
0,326,117818,1,0,0:2:0:0:
187,365,117989,6,0,L|211:262,1,90,2|0,1:2|0:2,0:2:0:0:
64,38,118332,2,0,B|9:71|9:71|44:189,1,180,10|0,0:2|0:2,0:2:0:0:
289,192,118847,1,2,1:2:0:0:
111,107,119018,1,10,0:2:0:0:
320,32,119189,5,0,3:2:0:0:
320,32,119275,1,0,3:2:0:0:
320,32,119361,2,0,P|343:72|332:127,1,90,2|0,0:2|1:2,0:2:0:0:
166,274,119704,2,0,P|143:234|154:179,1,90,10|0,0:2|0:2,0:2:0:0:
332,201,120047,2,0,L|278:189,1,45,2|0,0:2|0:2,0:2:0:0:
111,107,120218,2,0,L|154:97,1,45,2|0,1:2|0:2,0:2:0:0:
411,165,120389,1,10,0:2:0:0:
422,188,120475,1,0,3:2:0:0:
422,215,120561,1,2,3:2:0:0:
415,241,120647,1,0,3:2:0:0:
400,262,120732,6,0,L|507:291,1,90,6|0,1:2|0:2,0:2:0:0:
334,384,121075,1,10,0:2:0:0:
236,222,121247,2,0,P|232:173|266:127,1,90,2|0,0:2|0:2,0:2:0:0:
502,32,121589,2,0,P|506:81|472:127,1,90,2|8,1:2|0:2,0:2:0:0:
332,201,121932,5,0,3:2:0:0:
332,201,122018,1,0,3:2:0:0:
332,201,122104,2,0,L|355:102,1,90,2|0,1:2|0:2,0:2:0:0:
92,0,122447,2,0,L|133:179,1,180,10|0,0:2|0:2,0:2:0:0:
175,348,122961,1,2,1:2:0:0:
47,204,123132,1,8,0:2:0:0:
196,252,123304,5,0,3:2:0:0:
196,252,123389,1,0,3:2:0:0:
196,252,123475,2,0,L|98:279,1,90,2|0,1:2|0:2,0:2:0:0:
356,358,123818,2,0,B|408:320|408:320|362:202,1,180,10|0,0:2|0:2,0:2:0:0:
283,141,124332,1,2,1:2:0:0:
466,221,124504,1,10,0:2:0:0:
299,284,124675,5,0,3:2:0:0:
299,284,124761,1,0,3:2:0:0:
299,284,124847,1,2,0:2:0:0:
495,375,125018,1,0,1:2:0:0:
366,212,125189,2,0,L|189:254,1,180,10|0,0:2|0:2,0:2:0:0:
50,200,125704,1,2,1:2:0:0:
189,349,125875,1,10,0:2:0:0:
236,156,126047,5,0,3:2:0:0:
236,156,126132,1,0,3:2:0:0:
236,156,126218,2,0,P|243:107|214:67,2,90,2|0|10,1:2|0:2|0:2,0:2:0:0:
394,170,126732,2,0,B|336:184|336:184|302:234|302:234|230:254,1,180,2|2,0:2|1:2,0:2:0:0:
408,265,127247,1,10,0:2:0:0:
486,87,127418,5,0,3:2:0:0:
486,87,127504,1,0,3:2:0:0:
486,87,127589,2,0,L|508:-5,1,90,2|0,1:2|0:2,0:2:0:0:
394,170,127932,2,0,P|458:183|494:302,1,180,10|0,0:2|0:2,0:2:0:0:
307,347,128447,1,2,1:2:0:0:
281,340,128532,1,2,0:2:0:0:
254,333,128618,1,10,0:2:0:0:
362,251,128789,1,0,0:2:0:0:
167,365,128961,6,0,P|161:317|187:272,1,90,2|0,1:2|0:2,0:2:0:0:
362,251,129304,2,0,P|341:162|284:91,1,180,10|0,0:2|0:2,0:2:0:0:
379,13,129818,1,2,1:2:0:0:
251,178,129989,2,0,L|156:158,1,90,10|0,0:2|0:2,0:2:0:0:
91,96,130332,6,0,L|71:21,1,76.5000014591217,2|0,0:2|0:2,0:2:0:0:
19,154,130675,2,0,L|0:228,1,76.5000014591217,2|0,3:2|3:2,0:2:0:0:
52,292,130932,1,0,3:2:0:0:
52,292,131018,6,0,L|107:280,1,49.5000015106202,2|0,3:2|0:2,0:2:0:0:
174,316,131189,2,0,L|229:304,1,49.5000015106202,2|0,3:2|0:2,0:2:0:0:
58,377,131361,6,0,P|20:374|-10:352,1,62.9999980773926,2|0,3:2|0:2,0:2:0:0:
214,223,131532,2,0,P|252:226|282:248,1,62.9999980773926,2|0,3:2|0:2,0:2:0:0:
391,384,131704,6,0,L|356:216,1,155.250002961159,4|0,1:2|0:2,0:2:0:0:
348,187,132047,1,10,0:2:0:0:
412,4,132218,1,2,3:2:0:0:
442,0,132304,1,0,3:2:0:0:
472,5,132389,1,2,3:2:0:0:
497,23,132475,1,0,3:2:0:0:
512,50,132561,1,2,1:2:0:0:
460,209,132732,1,10,0:2:0:0:
319,22,132904,6,0,L|205:47,1,103.500001974106,2|0,0:2|1:2,0:2:0:0:
359,232,133247,2,0,L|473:207,1,103.500001974106,2|8,0:2|0:2,0:2:0:0:
257,130,133589,5,2,3:2:0:0:
257,130,133675,1,0,3:2:0:0:
257,130,133761,2,0,P|236:158|233:200,1,51.7500009870529,2|0,3:2|0:2,0:2:0:0:
144,185,133932,2,0,P|148:219|175:252,1,51.7500009870529,2|0,1:2|0:2,0:2:0:0:
217,44,134104,6,0,P|181:54|150:89,1,72,10|0,0:2|0:2,0:2:0:0:
62,268,134275,2,0,P|91:294|134:304,1,72,2|0,0:2|0:2,0:2:0:0:
357,259,134447,6,0,P|365:197|298:133,1,155.250002961159,2|0,1:2|0:2,0:2:0:0:
257,130,134789,1,10,0:2:0:0:
316,340,134961,1,2,3:2:0:0:
345,349,135047,1,0,3:2:0:0:
375,348,135132,1,2,3:2:0:0:
403,335,135218,1,0,3:2:0:0:
424,312,135304,1,2,1:2:0:0:
282,214,135475,1,10,0:2:0:0:
227,384,135647,6,0,L|193:225,1,155.250002961159,2|0,0:2|0:2,0:2:0:0:
185,185,135989,1,2,1:2:0:0:
48,340,136161,1,10,0:2:0:0:
125,114,136332,1,2,3:2:0:0:
125,114,136418,1,0,3:2:0:0:
125,114,136504,1,0,3:2:0:0:
254,301,136675,1,0,1:2:0:0:
38,156,136847,1,8,0:2:0:0:
19,119,136932,1,0,3:2:0:0:
23,77,137018,1,2,3:2:0:0:
45,42,137104,1,0,3:2:0:0:
82,25,137189,6,0,B|141:11|141:11|241:58,1,155.250002961159,2|0,1:2|0:2,0:2:0:0:
264,71,137532,1,10,0:2:0:0:
239,252,137704,1,2,3:2:0:0:
213,233,137789,1,0,3:2:0:0:
200,205,137875,1,2,3:2:0:0:
199,173,137961,1,0,3:2:0:0:
213,146,138047,1,2,1:2:0:0:
354,260,138218,1,8,0:2:0:0:
159,384,138389,6,0,L|134:279,1,103.500001974106,2|0,0:2|1:2,0:2:0:0:
151,73,138732,1,0,0:2:0:0:
37,274,138904,1,8,0:2:0:0:
301,187,139075,1,0,3:2:0:0:
301,187,139161,1,0,3:2:0:0:
301,187,139247,1,0,0:2:0:0:
70,44,139418,6,0,L|20:-7,1,51.7500009870529,2|0,1:2|0:2,0:2:0:0:
86,131,139589,2,0,L|68:183,1,51.7500009870529,10|0,0:2|0:2,0:2:0:0:
158,80,139761,5,2,3:2:0:0:
158,80,139847,1,0,3:2:0:0:
158,80,139932,2,0,L|323:38,1,155.250002961159,2|0,1:2|0:2,0:2:0:0:
378,105,140275,2,0,P|424:132|492:123,1,103.500001974106,10|0,0:2|3:2,0:2:0:0:
512,116,140532,1,0,3:2:0:0:
512,116,140618,1,2,3:2:0:0:
448,40,140789,1,0,1:2:0:0:
496,225,140961,1,10,0:2:0:0:
293,135,141132,6,0,B|346:193|346:193|330:292,1,155.250002961159,2|0,0:2|0:2,0:2:0:0:
245,270,141475,2,0,B|212:234|212:234|221:178,1,103.500001974106,2|8,1:2|0:2,0:2:0:0:
8,22,141818,6,0,B|-4:98|-4:98|49:156,1,155.250002961159,2|0,0:2|0:2,0:2:0:0:
121,110,142161,2,0,B|130:57|130:57|97:21,1,103.500001974106,2|8,1:2|0:2,0:2:0:0:
14,238,142504,5,0,3:2:0:0:
14,238,142589,1,0,3:2:0:0:
14,238,142675,2,0,P|70:243|117:210,1,103.500001974106,0|0,1:2|0:2,0:2:0:0:
280,123,143018,1,10,0:2:0:0:
232,336,143189,1,2,3:2:0:0:
224,305,143275,1,0,3:2:0:0:
217,274,143361,1,2,3:2:0:0:
210,243,143447,1,0,3:2:0:0:
204,212,143532,1,2,1:2:0:0:
120,355,143704,1,10,0:2:0:0:
309,251,143875,5,2,3:2:0:0:
309,251,143961,1,0,3:2:0:0:
309,251,144047,2,0,P|384:237|453:302,1,155.250002961159,0|0,1:2|0:2,0:2:0:0:
458,325,144389,1,8,0:2:0:0:
354,377,144561,1,2,3:2:0:0:
354,377,144647,1,0,3:2:0:0:
354,377,144732,2,0,L|371:307,1,51.7500009870529,2|0,3:2|0:2,0:2:0:0:
394,201,144904,2,0,L|411:131,1,51.7500009870529,2|0,1:2|0:2,0:2:0:0:
504,52,145075,6,0,P|508:92|484:124,1,72,10|0,0:2|0:2,0:2:0:0:
310,186,145247,2,0,P|292:216|297:251,1,72,2|0,0:2|0:2,0:2:0:0:
447,384,145418,5,2,1:2:0:0:
406,150,145589,1,2,0:2:0:0:
264,338,145761,1,10,0:2:0:0:
238,104,145932,1,2,3:2:0:0:
216,82,146018,1,0,3:2:0:0:
188,69,146103,1,2,3:2:0:0:
156,69,146189,1,0,3:2:0:0:
127,81,146275,1,2,1:2:0:0:
0,223,146447,1,10,0:2:0:0:
194,264,146618,6,0,L|168:154,1,103.500001974106,2|0,0:2|0:2,0:2:0:0:
258,7,146961,1,2,1:2:0:0:
81,157,147132,1,10,0:2:0:0:
303,189,147304,1,2,3:2:0:0:
303,189,147389,1,0,3:2:0:0:
303,189,147475,1,0,3:2:0:0:
141,51,147647,1,0,1:2:0:0:
372,132,147818,1,8,0:2:0:0:
196,305,147989,5,2,3:2:0:0:
196,305,148075,1,0,3:2:0:0:
196,305,148161,2,0,B|175:255|175:255|193:214|193:214|165:153,1,155.250002961159,2|0,1:2|0:2,0:2:0:0:
193,124,148504,1,8,0:2:0:0:
392,299,148675,1,2,3:2:0:0:
362,289,148761,1,0,3:2:0:0:
332,279,148847,1,2,3:2:0:0:
302,270,148932,1,0,3:2:0:0:
272,261,149018,1,2,1:2:0:0:
438,206,149189,1,8,0:2:0:0:
309,370,149361,1,2,0:2:0:0:
284,159,149532,6,0,B|196:137|223:207|124:189,1,155.250002961159,0|0,1:2|0:2,0:2:0:0:
93,176,149875,1,8,0:2:0:0:
170,0,150047,1,0,3:2:0:0:
170,0,150132,1,0,3:2:0:0:
170,0,150218,2,0,L|140:123,1,103.500001974106,0|0,3:2|1:2,0:2:0:0:
13,275,150561,1,10,0:2:0:0:
52,261,150647,1,0,3:2:0:0:
92,263,150732,1,0,3:2:0:0:
127,284,150818,1,0,3:2:0:0:
150,318,150904,6,0,P|198:346|265:326,1,103.500001974106,2|0,1:2|0:2,0:2:0:0:
325,384,151247,2,0,P|373:356|389:288,1,103.500001974106,10|0,0:2|0:2,0:2:0:0:
469,265,151589,2,0,P|469:209|418:161,1,103.500001974106,2|0,0:2|1:2,0:2:0:0:
469,93,151932,5,10,3:2:0:0:
469,93,152104,2,0,P|425:60|326:70,1,153.000002918243,2|2,0:2|0:2,0:2:0:0:
293,0,152618,1,8,0:3:0:0:
244,61,152789,2,0,L|274:216,1,153.000002918243,2|2,0:2|3:2,0:2:0:0:
213,271,153218,1,0,3:2:0:0:
213,271,153304,2,0,L|148:256,1,53.9999983520508,0|0,3:2|0:2,0:2:0:0:
346,167,153475,2,0,L|398:179,1,53.9999983520508,0|0,3:2|0:2,0:2:0:0:
311,384,153647,6,0,L|287:267,1,90,4|0,1:2|0:2,0:2:0:0:
181,172,153989,1,10,0:2:0:0:
88,297,154161,1,2,3:2:0:0:
88,297,154247,1,0,3:2:0:0:
88,297,154332,1,2,3:2:0:0:
273,211,154504,1,2,1:2:0:0:
90,110,154675,1,10,0:2:0:0:
293,39,154847,6,0,L|404:13,1,90,2|0,0:2|1:2,0:2:0:0:
219,143,155189,2,0,L|169:130,1,45,2|0,0:2|0:2,0:2:0:0:
273,211,155361,2,0,L|384:185,1,90,10|0,0:2|0:2,0:2:0:0:
497,46,155704,5,2,0:2:0:0:
446,84,155789,1,2,0:2:0:0:
439,135,155875,1,2,1:2:0:0:
460,175,155961,1,2,0:2:0:0:
492,205,156047,1,10,0:2:0:0:
509,243,156132,1,2,0:2:0:0:
505,270,156218,1,2,0:2:0:0:
492,292,156304,1,2,0:2:0:0:
480,299,156389,2,0,L|392:319,1,90,2|2,1:2|0:2,0:2:0:0:
190,276,156732,5,10,0:2:0:0:
205,260,156818,1,2,0:2:0:0:
202,281,156904,1,2,0:2:0:0:
191,262,156989,1,2,0:2:0:0:
211,272,157075,1,2,0:2:0:0:
132,194,157247,1,2,1:2:0:0:
298,251,157418,1,10,0:2:0:0:
175,365,157589,2,0,L|79:386,1,90,2|0,0:2|0:2,0:2:0:0:
0,248,157932,1,2,1:2:0:0:
93,129,158104,6,0,P|121:147|143:188,1,72,10|0,0:2|0:2,0:2:0:0:
210,95,158275,2,0,P|220:135|216:164,1,62.9999980773926,2|0,0:2|0:2,0:2:0:0:
323,143,158447,2,0,P|316:173|298:194,1,53.9999983520508,2|0,0:2|0:2,0:2:0:0:
393,237,158618,2,0,P|371:252|346:259,1,45,2|0,1:2|0:2,0:2:0:0:
409,339,158789,1,10,3:2:0:0:
401,344,158875,1,2,3:2:0:0:
392,347,158961,1,2,3:2:0:0:
383,349,159047,1,2,3:2:0:0:
374,350,159132,6,0,L|280:325,1,90,2|0,1:2|0:2,0:2:0:0:
123,250,159475,1,10,0:2:0:0:
302,190,159647,1,2,3:2:0:0:
302,190,159732,1,0,3:2:0:0:
302,190,159818,1,2,3:2:0:0:
196,346,159989,2,0,L|217:251,1,90,2|8,1:2|0:2,0:2:0:0:
3,109,160332,5,2,3:2:0:0:
3,109,160418,1,0,3:2:0:0:
3,109,160504,2,0,L|32:249,1,135,0|0,1:2|0:2,0:2:0:0:
40,284,160847,1,10,0:2:0:0:
148,140,161018,1,2,3:2:0:0:
148,140,161104,1,0,3:2:0:0:
148,140,161189,2,0,P|194:133|243:158,1,90,2|0,3:2|1:2,0:2:0:0:
432,233,161532,6,0,L|453:278,1,45,10|0,0:2|0:2,0:2:0:0:
448,148,161704,2,0,L|476:107,1,45,2|0,0:2|0:2,0:2:0:0:
365,180,161875,6,0,L|212:145,1,135,2|0,1:2|0:2,0:2:0:0:
194,141,162218,2,0,L|218:240,1,90,10|0,0:2|3:2,0:2:0:0:
226,273,162475,1,0,3:2:0:0:
226,273,162561,1,2,3:2:0:0:
311,124,162732,1,0,1:2:0:0:
123,214,162904,1,10,0:2:0:0:
337,384,163075,6,0,L|305:246,1,135,2|0,0:2|0:2,0:2:0:0:
299,212,163418,2,0,L|404:239,1,90,2|8,1:2|0:2,0:2:0:0:
498,62,163761,1,2,3:2:0:0:
498,62,163847,1,0,3:2:0:0:
498,62,163932,1,0,3:2:0:0:
350,133,164104,1,2,1:2:0:0:
512,268,164275,1,8,0:2:0:0:
373,338,164447,6,0,L|275:360,1,90,2|0,0:2|1:2,0:2:0:0:
130,153,164789,2,0,L|217:172,1,90,2|8,0:2|0:2,0:2:0:0:
172,340,165132,2,0,L|181:383,2,45,2|0|0,3:2|3:2|3:2,0:2:0:0:
89,315,165475,5,2,1:2:0:0:
121,263,165589,5,2,0:2:0:0:
181,249,165704,5,2,0:2:0:0:
236,277,165818,6,0,P|280:302|336:291,1,90,2|0,0:2|1:2,0:2:0:0:
512,191,166161,1,2,0:2:0:0:
394,349,166332,1,10,0:2:0:0:
329,168,166504,1,2,3:2:0:0:
329,168,166589,1,0,3:2:0:0:
329,168,166675,1,2,3:2:0:0:
481,323,166847,1,2,1:2:0:0:
430,117,167018,1,10,0:2:0:0:
318,299,167189,6,0,P|273:300|236:277,1,90,2|0,0:2|1:2,0:2:0:0:
252,92,167532,1,2,0:2:0:0:
411,236,167704,2,0,L|419:198,6,22.5,10|0|0|0|0|0|0,0:2|0:2|0:2|0:2|0:2|0:2|0:2,0:2:0:0:
512,289,168047,6,0,L|463:300,1,45,2|0,0:2|0:2,0:2:0:0:
354,158,168218,2,0,L|305:169,1,45,2|0,1:2|0:2,0:2:0:0:
236,277,168389,1,10,0:2:0:0:
130,137,168561,6,0,L|150:230,1,90,2|0,0:2|0:2,0:2:0:0:
189,377,168904,1,2,1:2:0:0:
69,291,169075,1,10,0:2:0:0:
234,189,169247,1,2,3:2:0:0:
234,189,169332,1,0,3:2:0:0:
234,189,169418,1,2,0:2:0:0:
73,73,169589,1,2,1:2:0:0:
110,48,169675,1,2,0:2:0:0:
154,55,169761,1,10,0:2:0:0:
318,207,169932,6,0,P|373:210|407:188,1,90,2|0,0:2|1:2,0:2:0:0:
502,21,170275,1,2,0:2:0:0:
348,123,170447,1,8,0:2:0:0:
512,163,170618,1,2,3:2:0:0:
512,163,170704,1,0,3:2:0:0:
512,163,170789,1,0,3:2:0:0:
411,9,170961,2,0,L|434:101,1,90,2|8,1:2|0:2,0:2:0:0:
482,273,171304,5,2,3:2:0:0:
482,273,171389,1,0,3:2:0:0:
482,273,171475,2,0,P|432:285|357:330,1,135,2|0,1:2|0:2,0:2:0:0:
329,357,171818,2,0,P|282:349|246:323,1,90,10|0,0:2|3:2,0:2:0:0:
221,296,172075,1,0,3:2:0:0:
221,296,172161,1,2,3:2:0:0:
175,382,172332,1,2,1:2:0:0:
305,259,172504,1,8,0:2:0:0:
137,235,172675,1,2,0:2:0:0:
258,122,172847,6,0,L|424:164,1,135,2|0,1:2|0:2,0:2:0:0:
432,166,173189,1,10,0:2:0:0:
305,259,173361,1,0,1:2:0:0:
298,246,173532,1,2,3:2:0:0:
166,69,173704,5,8,0:2:0:0:
353,148,173875,1,2,1:2:0:0:
87,207,174047,5,10,0:2:0:0:
262,109,174218,1,0,1:2:0:0:
258,122,174389,1,2,3:2:0:0:
4,77,174561,5,8,0:2:0:0:
179,175,174732,1,2,1:2:0:0:
175,162,174903,1,0,3:2:0:0:
10,246,175075,6,0,L|-3:189,1,45,10|0,0:2|0:2,0:2:0:0:
86,294,175247,2,0,L|96:337,1,45,2|0,1:2|0:2,0:2:0:0:
8,331,175418,5,10,0:2:0:0:
87,207,175589,1,6,1:2:0:0:
256,192,175675,12,0,178332,0:2:0:0:
