osu file format v14

[General]
AudioFilename: audio.mp3
AudioLeadIn: 0
PreviewTime: 65789
Countdown: 0
SampleSet: Soft
StackLeniency: 0.3
Mode: 0
LetterboxInBreaks: 0
WidescreenStoryboard: 1

[Editor]
DistanceSpacing: 0.5
BeatDivisor: 4
GridSize: 16
TimelineZoom: 1.6

[Metadata]
Title:Time Bomb (feat. Veela)
TitleUnicode:Time Bomb (feat. Veela)
Artist:Feint & Boyinaband
ArtistUnicode:Feint & Boyinaband
Creator:Kuki1537
Version:Ram's Expert
Source:
Tags:dnb d&b d'n'b drum and n' bass monstercat 007 solace ft. basensorex nyantiaz intiaz majk00 enuhq my angel ram my_angel_ram english electronic edm female vocal featured artist fa
BeatmapID:3922788
BeatmapSetID:1722335

[Difficulty]
HPDrainRate:5
CircleSize:3.6
OverallDifficulty:8.5
ApproachRate:9
SliderMultiplier:1.8
SliderTickRate:1

[Events]
//Background and Video events
0,0,"Konachan.com - 335697 sample.jpg",0,0
//Break Periods
2,90761,96818
//Storyboard Layer 0 (Background)
//Storyboard Layer 1 (Fail)
//Storyboard Layer 2 (Pass)
//Storyboard Layer 3 (Foreground)
//Storyboard Layer 4 (Overlay)
//Storyboard Sound Samples

[TimingPoints]
47,342.857142857143,4,2,22,50,1,0
21989,-117.647058823529,4,2,22,50,0,0
43589,-100,4,2,22,65,0,0
43932,-100,4,2,22,75,0,1
45561,-100,4,2,22,5,0,1
45647,-100,4,2,22,75,0,1
56532,-100,4,2,22,5,0,1
56618,-100,4,2,22,75,0,1
57904,-100,4,2,22,5,0,1
57990,-100,4,2,22,75,0,1
63389,-100,4,2,22,5,0,1
63475,-100,4,2,22,75,0,1
64504,-117.647058823529,4,2,22,65,0,0
65875,-86.9565217391303,4,2,22,80,0,1
74361,-86.9565217391303,4,2,22,5,0,1
74447,-86.9565217391303,4,2,22,80,0,1
82589,-86.9565217391303,4,2,22,5,0,1
82675,-86.9565217391303,4,2,22,80,0,1
87818,-86.9565217391303,4,2,22,80,0,0
87904,-86.9565217391303,4,2,22,50,0,0
90561,-86.9565217391303,4,2,22,5,0,0
97418,-200,4,2,22,50,0,0
98618,-200,4,2,22,5,0,0
98789,-117.647058823529,4,2,22,50,0,0
109418,-100,4,2,22,65,0,0
109761,-100,4,2,22,75,0,1
111389,-100,4,2,22,5,0,1
111475,-100,4,2,22,75,0,1
114132,-100,4,2,22,5,0,1
114218,-100,4,2,22,75,0,1
120989,-100,4,2,22,5,0,1
121075,-100,4,2,22,75,0,1
122361,-100,4,2,22,5,0,1
122447,-100,4,2,22,75,0,1
127847,-100,4,2,22,5,0,1
127933,-100,4,2,22,75,0,1
129218,-100,4,2,22,5,0,1
129304,-100,4,2,22,75,0,1
130332,-117.647058823529,4,2,22,65,0,0
131704,-86.9565217391303,4,2,22,80,0,1
137447,-86.9565217391303,4,2,22,5,0,1
137532,-86.9565217391303,4,2,22,80,0,1
148418,-86.9565217391303,4,2,22,5,0,1
148503,-86.9565217391303,4,2,22,80,0,1
151161,-86.9565217391303,4,2,22,5,0,1
151246,-86.9565217391303,4,2,22,80,0,1
152104,-117.647058823529,4,2,22,65,0,0
153132,-399.999999999997,4,2,22,65,0,0
153647,-100,4,2,22,75,0,0
158104,-100,4,2,22,75,0,0
158189,-100,4,2,22,5,0,0
158275,-100,4,2,22,75,0,0
158360,-100,4,2,22,5,0,0
158447,-100,4,2,22,75,0,0
158532,-100,4,2,22,5,0,0
158618,-100,4,2,22,75,0,0
158703,-100,4,2,22,5,0,0
158789,-100,4,2,22,75,0,0
173104,-100,4,2,22,5,0,0
173189,-100,4,2,22,75,0,0
175675,-100,4,2,22,50,0,0
178332,-100,4,2,22,5,0,0

[Colours]
Combo1 : 233,163,112
Combo2 : 182,252,252
Combo3 : 98,217,217
Combo4 : 255,209,159

[HitObjects]
60,20,21989,6,0,B|103:61|103:61|77:151,1,153.000002918243,6|10,1:2|0:3,0:2:0:0:
35,258,22504,1,0,3:2:0:0:
53,254,22589,1,0,3:2:0:0:
72,250,22675,1,0,3:2:0:0:
91,247,22761,1,0,3:2:0:0:
110,243,22846,1,0,1:2:0:0:
181,328,23018,2,0,L|256:343,1,76.5000014591217,8|2,0:3|1:2,0:2:0:0:
284,352,23275,1,0,3:0:0:0:
284,352,23361,5,2,1:2:0:0:
391,315,23532,1,2,0:2:0:0:
311,239,23704,2,0,P|319:202|327:165,1,76.5000014591217,10|2,0:3|3:2,0:0:0:0:
277,107,23961,1,0,3:0:0:0:
277,107,24047,2,0,L|270:54,2,38.2500007295609,2|0|0,3:2|3:0|1:2,0:2:0:0:
199,163,24389,2,0,P|161:157|128:138,1,76.5000014591217,10|2,0:3|1:2,0:0:0:0:
73,79,24647,5,0,3:0:0:0:
73,79,24732,2,0,P|85:154|97:230,1,153.000002918243,2|10,1:2|0:3,0:2:0:0:
175,274,25247,1,2,3:2:0:0:
172,293,25332,1,0,3:2:0:0:
168,312,25418,1,0,3:2:0:0:
165,331,25504,1,0,3:2:0:0:
163,350,25589,1,0,1:2:0:0:
266,306,25761,2,0,P|303:310|336:330,1,76.5000014591217,8|0,0:3|1:2,0:2:0:0:
359,352,26018,1,0,3:0:0:0:
359,352,26104,5,2,1:2:0:0:
462,312,26275,1,2,0:2:0:0:
405,180,26447,2,0,L|389:280,1,76.5000014591217,10|2,0:3|3:2,0:0:0:0:
321,310,26704,1,0,3:0:0:0:
321,310,26789,2,0,L|328:363,2,38.2500007295609,2|0|0,3:2|3:0|1:2,0:2:0:0:
251,244,27132,2,0,L|163:263,1,76.5000014591217,10|2,0:3|1:2,0:0:0:0:
33,195,27475,6,0,P|74:134|148:133,1,153.000002918243,2|10,1:2|0:3,0:2:0:0:
231,167,27989,1,2,3:2:0:0:
249,162,28074,1,0,3:2:0:0:
268,158,28160,1,0,3:2:0:0:
286,154,28246,1,0,3:2:0:0:
305,150,28331,1,0,1:2:0:0:
422,58,28504,2,0,L|323:39,1,76.5000014591217,8|0,0:3|1:2,0:2:0:0:
413,191,28847,5,2,1:2:0:0:
497,97,29018,1,2,0:2:0:0:
398,207,29189,2,0,L|417:294,1,76.5000014591217,10|2,0:3|3:2,0:0:0:0:
475,351,29447,1,0,3:0:0:0:
475,351,29532,2,0,L|536:333,2,38.2500007295609,2|0|0,3:2|3:0|1:2,0:2:0:0:
368,362,29875,2,0,P|335:342|297:337,1,76.5000014591217,10|2,0:3|1:2,0:0:0:0:
164,384,30218,6,0,P|177:308|192:233,1,153.000002918243,2|8,1:2|0:3,0:2:0:0:
62,140,30732,2,0,L|26:130,2,38.2500007295609,2|0|0,3:2|3:0|3:2,0:2:0:0:
225,110,31075,1,2,1:2:0:0:
120,0,31247,2,0,L|138:88,1,76.5000014591217,10|0,0:3|1:2,0:2:0:0:
147,161,31504,5,0,3:0:0:0:
147,161,31589,2,0,P|221:153|277:202,1,153.000002918243,2|8,1:2|0:3,0:2:0:0:
345,275,32104,1,2,3:2:0:0:
363,271,32189,1,0,3:0:0:0:
382,267,32275,1,0,3:0:0:0:
401,263,32361,1,0,3:0:0:0:
420,259,32446,1,0,1:2:0:0:
498,144,32618,2,0,P|464:127|426:124,1,76.5000014591217,8|0,0:3|1:2,0:2:0:0:
351,107,32875,5,0,3:0:0:0:
351,107,32961,2,0,P|344:69|337:31,1,76.5000014591217,2|0,1:2|0:0,0:2:0:0:
214,201,33304,2,0,P|220:163|227:125,1,76.5000014591217,10|0,0:3|3:2,0:0:0:0:
162,63,33561,1,0,3:2:0:0:
162,63,33647,2,0,L|99:75,2,38.2500007295609,0|0|0,3:2|3:2|1:2,0:0:0:0:
103,167,33989,2,0,L|18:149,1,76.5000014591217,8|0,0:3|1:2,0:2:0:0:
7,146,34247,5,0,3:0:0:0:
7,146,34332,1,2,1:2:0:0:
82,251,34504,1,2,0:2:0:0:
136,160,34675,1,10,0:3:0:0:
1,231,34847,1,2,0:2:0:0:
1,231,34932,1,0,3:0:0:0:
1,231,35018,2,0,L|13:292,2,38.2500007295609,2|0|0,3:2|3:0|1:2,0:2:0:0:
11,371,35361,2,0,L|94:354,1,76.5000014591217,10|2,0:3|1:2,0:2:0:0:
222,283,35704,5,2,1:2:0:0:
92,232,35875,1,2,0:2:0:0:
240,289,36047,1,10,0:3:0:0:
193,139,36218,1,2,3:2:0:0:
193,139,36304,1,0,3:2:0:0:
193,139,36389,2,0,L|185:192,2,38.2500007295609,0|0|0,3:2|3:2|1:2,0:0:0:0:
284,74,36732,2,0,P|321:77|355:94,1,76.5000014591217,8|0,0:3|1:2,0:2:0:0:
422,140,36989,5,0,3:0:0:0:
422,140,37075,2,0,P|415:180|408:220,1,76.5000014591217,2|2,1:2|0:2,0:0:0:0:
381,384,37418,1,10,0:3:0:0:
287,287,37590,1,2,0:2:0:0:
287,287,37676,1,0,3:0:0:0:
287,287,37761,2,0,L|323:276,2,38.2500007295609,2|0|0,3:2|3:0|1:2,0:2:0:0:
203,238,38104,2,0,L|106:219,1,76.5000014591217,10|2,0:3|1:2,0:0:0:0:
31,111,38447,6,0,P|76:91|115:95,1,76.5000014591217,2|0,1:2|0:0,0:2:0:0:
235,157,38789,1,10,0:3:0:0:
188,8,38961,1,2,3:2:0:0:
188,8,39047,1,0,3:2:0:0:
188,8,39132,2,0,L|175:71,2,38.2500007295609,0|0|0,3:2|3:2|1:2,0:0:0:0:
245,140,39475,2,0,L|331:121,1,76.5000014591217,8|0,0:3|1:2,0:2:0:0:
461,47,39818,5,2,1:2:0:0:
422,177,39989,1,2,0:2:0:0:
469,30,40161,1,10,0:3:0:0:
319,123,40332,1,2,3:2:0:0:
322,141,40417,1,0,3:0:0:0:
326,160,40503,1,2,3:2:0:0:
330,179,40589,1,0,3:0:0:0:
334,197,40674,1,0,1:2:0:0:
238,369,40847,2,0,L|250:293,1,76.5000014591217,10|2,0:3|1:2,0:0:0:0:
111,131,41189,6,0,B|82:178|82:178|117:278,1,153.000002918243,2|8,1:2|0:3,0:2:0:0:
311,237,41704,1,2,3:2:0:0:
294,221,41789,1,0,3:0:0:0:
273,211,41875,1,0,3:0:0:0:
251,207,41961,1,0,3:0:0:0:
228,211,42046,1,0,1:2:0:0:
114,270,42218,2,0,P|76:266|43:246,1,76.5000014591217,10|0,0:3|1:2,0:2:0:0:
118,0,42561,6,0,P|131:75|146:150,1,153.000002918243,2|8,1:2|0:3,0:2:0:0:
311,35,43075,1,2,0:2:0:0:
266,224,43247,1,2,0:2:0:0:
266,224,43332,1,2,0:2:0:0:
266,224,43418,2,0,L|257:174,1,38.2500007295609,2|2,0:2|0:2,0:0:0:0:
468,40,43589,1,2,0:2:0:0:
461,70,43674,1,2,0:2:0:0:
454,100,43760,1,2,0:2:0:0:
447,131,43846,1,2,0:2:0:0:
440,159,43932,6,0,L|331:139,1,90,6|0,1:2|0:2,0:2:0:0:
213,236,44275,1,10,0:2:0:0:
365,331,44447,1,2,3:2:0:0:
365,331,44532,1,0,3:0:0:0:
365,331,44618,1,0,3:2:0:0:
258,118,44789,1,2,1:2:0:0:
125,325,44961,2,0,P|80:319|39:301,1,90,8|0,0:2|3:2,0:0:0:0:
0,43,45304,6,0,P|66:32|132:19,1,135,2|0,1:2|0:0,0:2:0:0:
197,65,45647,2,0,P|251:78|301:87,1,90,10|0,0:2|3:2,0:2:0:0:
316,85,45904,1,0,3:0:0:0:
316,85,45989,1,0,3:2:0:0:
151,254,46161,1,2,1:2:0:0:
367,208,46332,1,10,0:2:0:0:
175,92,46504,1,2,0:2:0:0:
350,297,46675,6,0,P|359:253|367:209,1,90,2|0,1:2|0:2,0:2:0:0:
158,4,47018,2,0,P|166:48|175:92,1,90,10|0,0:2|3:0,0:2:0:0:
183,122,47275,1,0,3:0:0:0:
183,122,47361,1,0,3:2:0:0:
270,293,47532,1,2,1:2:0:0:
376,84,47704,1,10,0:2:0:0:
151,223,47875,5,0,3:2:0:0:
151,223,47961,1,0,3:2:0:0:
151,223,48047,2,0,P|106:219|67:197,1,90,2|0,3:2|1:2,0:2:0:0:
271,33,48389,2,0,P|288:121|305:209,1,180,10|0,0:2|3:2,0:2:0:0:
431,374,48904,1,2,1:2:0:0:
225,274,49075,1,10,0:2:0:0:
386,185,49247,1,2,0:2:0:0:
218,384,49418,6,0,P|209:339|199:295,1,90,2|0,1:2|0:2,0:2:0:0:
18,204,49761,1,10,0:2:0:0:
143,134,49932,1,2,3:2:0:0:
143,134,50018,1,0,3:0:0:0:
143,134,50104,2,0,L|133:203,1,45,0|0,3:2|3:0,0:0:0:0:
106,368,50275,1,2,1:2:0:0:
18,204,50447,1,10,0:2:0:0:
191,290,50618,1,0,3:2:0:0:
0,363,50789,6,0,L|94:344,1,90,2|0,1:2|3:2,0:2:0:0:
315,217,51132,2,0,L|226:199,1,90,10|0,0:2|3:0,0:2:0:0:
143,134,51389,1,0,3:0:0:0:
143,134,51475,2,0,L|203:122,1,45,0|0,3:2|3:0,0:0:0:0:
366,61,51647,1,2,1:2:0:0:
227,200,51818,1,10,0:2:0:0:
412,174,51989,1,0,3:2:0:0:
264,0,52161,6,0,P|282:81|287:106,1,90,2|0,1:2|3:2,0:2:0:0:
472,220,52504,2,0,B|370:189|396:275|303:248,1,180,10|0,0:2|3:2,0:2:0:0:
88,167,53018,1,2,1:2:0:0:
242,114,53189,2,0,P|233:158|226:202,1,90,10|0,0:2|3:2,0:2:0:0:
65,371,53532,6,0,P|104:350|149:347,1,90,2|0,3:2|1:2,0:2:0:0:
310,225,53875,2,0,P|265:222|225:201,1,90,10|0,0:2|3:2,0:2:0:0:
206,175,54132,1,0,3:0:0:0:
206,175,54218,1,2,3:2:0:0:
364,121,54389,1,2,1:2:0:0:
221,296,54561,1,10,0:2:0:0:
442,220,54732,1,2,3:2:0:0:
260,21,54904,6,0,P|268:65|276:109,1,90,6|0,1:2|0:2,0:2:0:0:
100,270,55247,2,0,P|108:225|116:181,1,90,10|2,0:2|3:2,0:0:0:0:
124,157,55504,1,0,3:0:0:0:
124,157,55589,1,0,3:2:0:0:
264,367,55761,1,2,1:2:0:0:
18,300,55932,2,0,P|54:274|99:269,1,90,8|0,0:2|3:2,0:0:0:0:
264,367,56275,6,0,B|238:329|238:329|265:240,1,135,2|0,1:2|0:0,0:2:0:0:
336,198,56618,2,0,P|301:169|257:159,1,90,10|0,0:2|3:0,0:2:0:0:
228,162,56875,1,0,3:2:0:0:
228,162,56961,1,0,3:2:0:0:
458,95,57132,1,2,1:2:0:0:
288,0,57304,2,0,P|296:44|304:88,1,90,8|0,0:2|3:2,0:0:0:0:
78,240,57647,6,0,P|144:251|210:263,1,135,2|0,1:2|0:0,0:2:0:0:
283,317,57989,2,0,P|327:307|370:297,1,90,10|0,0:2|3:0,0:2:0:0:
402,291,58247,1,0,3:0:0:0:
402,291,58332,1,0,3:2:0:0:
314,136,58504,1,2,1:2:0:0:
239,375,58675,1,10,0:2:0:0:
375,210,58847,1,0,3:2:0:0:
140,295,59018,6,0,P|96:289|57:268,1,90,2|0,3:2|1:2,0:2:0:0:
145,60,59361,2,0,L|160:152,1,90,10|0,0:2|3:0,0:2:0:0:
166,177,59618,1,0,3:0:0:0:
166,177,59704,1,0,3:2:0:0:
35,22,59875,1,2,1:2:0:0:
241,118,60047,1,10,0:2:0:0:
30,199,60218,1,0,3:2:0:0:
239,17,60389,6,0,P|283:22|318:49,1,90,2|0,1:2|3:2,0:2:0:0:
374,106,60647,1,0,3:0:0:0:
374,106,60732,2,0,L|473:88,1,90,10|2,0:2|3:2,0:0:0:0:
512,157,60989,1,0,3:0:0:0:
512,157,61075,2,0,L|501:206,1,45,0|0,3:2|3:0,0:0:0:0:
481,353,61247,1,2,1:2:0:0:
324,247,61418,2,0,P|378:224|416:229,1,90,10|0,0:2|3:2,0:2:0:0:
190,375,61761,6,0,L|95:349,1,90,2|0,1:2|3:2,0:2:0:0:
0,216,62104,2,0,L|95:190,1,90,10|0,0:2|3:0,0:2:0:0:
114,182,62361,1,0,3:0:0:0:
114,182,62447,1,0,3:2:0:0:
6,82,62618,1,2,1:2:0:0:
211,11,62789,2,0,L|184:122,1,90,10|0,0:2|3:2,0:2:0:0:
419,210,63132,6,0,P|373:163|308:162,1,135,2|0,1:2|0:0,0:2:0:0:
236,199,63475,2,0,P|246:242|257:286,1,90,10|0,0:2|3:0,0:2:0:0:
269,328,63732,1,0,3:0:0:0:
269,328,63818,1,0,3:2:0:0:
90,185,63989,1,2,1:2:0:0:
135,381,64161,2,0,P|145:337|156:293,1,90,10|0,0:2|3:2,0:2:0:0:
57,154,64504,5,2,3:2:0:0:
212,240,64847,5,2,3:2:0:0:
63,293,65189,5,2,3:2:0:0:
212,240,65361,1,2,3:2:0:0:
57,154,65532,1,2,3:2:0:0:
148,345,65704,1,2,3:2:0:0:
256,100,65875,6,0,P|210:75|159:74,1,103.500001974106,4|0,1:2|3:2,0:2:0:0:
314,293,66218,1,10,0:2:0:0:
419,103,66389,1,2,3:2:0:0:
419,103,66475,1,0,3:0:0:0:
419,103,66561,1,2,3:2:0:0:
210,198,66732,1,2,1:2:0:0:
332,0,66904,1,10,0:2:0:0:
442,241,67075,6,0,L|333:220,1,103.500001974106,2|0,3:2|1:2,0:0:0:0:
83,74,67418,2,0,L|192:53,1,103.500001974106,2|8,3:2|0:2,0:0:0:0:
80,259,67761,1,2,3:2:0:0:
80,259,67847,1,0,3:0:0:0:
80,259,67932,1,2,3:2:0:0:
282,170,68104,1,2,1:2:0:0:
83,74,68276,1,10,0:2:0:0:
228,288,68447,1,2,3:2:0:0:
355,19,68618,6,0,L|244:40,1,103.500001974106,2|2,1:2|3:2,0:0:0:0:
225,36,68875,1,0,3:0:0:0:
225,36,68961,1,10,0:2:0:0:
30,192,69132,1,2,3:2:0:0:
30,192,69218,1,0,3:0:0:0:
30,192,69304,1,2,3:2:0:0:
145,0,69475,1,2,1:2:0:0:
229,213,69647,1,10,0:2:0:0:
0,102,69818,6,0,P|33:63|83:54,1,103.500001974106,2|0,3:2|3:2,0:0:0:0:
257,230,70161,1,2,1:2:0:0:
74,133,70332,1,10,0:2:0:0:
275,25,70504,1,2,3:2:0:0:
275,25,70589,1,0,3:0:0:0:
275,25,70675,2,0,L|250:143,1,103.500001974106,0|0,3:2|1:2,0:0:0:0:
97,316,71018,2,0,L|75:214,1,103.500001974106,8|2,0:2|3:2,0:0:0:0:
275,25,71361,6,0,P|374:19|433:99,1,207.000003948212,2|10,1:2|0:2,0:2:0:0:
254,368,71875,1,2,3:2:0:0:
254,368,71961,1,0,3:0:0:0:
254,368,72047,1,2,3:2:0:0:
342,136,72218,1,2,1:2:0:0:
432,371,72389,1,8,0:2:0:0:
176,241,72561,5,2,3:2:0:0:
176,241,72647,1,0,3:0:0:0:
177,241,72732,2,0,P|228:232|279:223,1,103.500001974106,0|0,1:2|3:0,0:2:0:0:
440,54,73075,2,0,P|389:45|338:36,1,103.500001974106,8|0,0:2|3:0,0:0:0:0:
265,11,73332,1,0,3:0:0:0:
265,11,73418,2,0,L|214:22,1,51.7500009870529,0|0,3:2|3:0,0:0:0:0:
42,160,73589,1,2,1:2:0:0:
210,108,73761,1,10,0:2:0:0:
53,7,73932,1,2,3:2:0:0:
163,235,74104,6,0,B|216:266|216:266|321:240,1,155.250002961159,2|0,1:2|0:0,0:2:0:0:
384,269,74447,2,0,P|387:218|353:173,1,103.500001974106,10|0,0:2|3:2,0:2:0:0:
328,163,74704,1,0,3:0:0:0:
328,163,74789,1,2,3:2:0:0:
238,377,74961,1,0,1:2:0:0:
384,269,75132,1,10,0:2:0:0:
232,109,75304,6,0,L|256:232,1,103.500001974106,2|0,0:2|3:2,0:2:0:0:
447,363,75647,2,0,L|467:261,1,103.500001974106,2|8,1:2|0:2,0:2:0:0:
248,87,75989,6,0,L|272:210,1,103.500001974106,2|0,0:2|3:2,0:2:0:0:
426,380,76332,2,0,L|446:278,1,103.500001974106,2|8,1:2|0:2,0:2:0:0:
503,100,76675,1,0,3:2:0:0:
266,268,76847,6,0,P|214:272|167:252,1,103.500001974106,4|0,1:2|3:2,0:2:0:0:
55,58,77189,1,10,0:2:0:0:
249,167,77361,1,2,3:2:0:0:
249,167,77447,1,0,3:0:0:0:
249,167,77532,1,2,3:2:0:0:
28,137,77704,1,2,1:2:0:0:
214,1,77875,1,10,0:2:0:0:
59,271,78047,6,0,P|48:220|37:169,1,103.500001974106,2|0,3:2|1:2,0:0:0:0:
239,10,78389,2,0,P|228:60|217:111,1,103.500001974106,2|8,3:2|0:2,0:0:0:0:
303,334,78732,1,2,3:2:0:0:
303,334,78818,1,0,3:0:0:0:
303,334,78904,1,2,3:2:0:0:
393,127,79075,1,2,1:2:0:0:
466,384,79247,1,10,0:2:0:0:
337,192,79418,1,2,3:2:0:0:
118,384,79589,6,0,L|247:361,1,103.500001974106,2|2,1:2|0:2,0:0:0:0:
457,232,79932,1,10,0:2:0:0:
244,134,80104,1,2,3:2:0:0:
244,134,80189,1,0,3:0:0:0:
244,134,80275,1,2,3:2:0:0:
349,313,80447,1,2,1:2:0:0:
129,216,80618,1,10,0:2:0:0:
394,9,80789,6,0,L|371:118,1,103.500001974106,2|0,3:2|3:2,0:0:0:0:
228,306,81132,1,2,1:2:0:0:
156,92,81304,1,10,0:2:0:0:
409,222,81475,1,2,3:2:0:0:
409,222,81561,1,0,3:0:0:0:
409,222,81647,2,0,L|285:242,1,103.500001974106,0|0,3:2|1:2,0:0:0:0:
47,60,81989,1,8,0:2:0:0:
256,137,82161,1,2,3:2:0:0:
65,384,82332,6,0,B|39:334|39:334|60:237,1,155.250002961159,2|0,1:2|0:0,0:2:0:0:
7,178,82675,2,0,P|53:156|103:166,1,103.500001974106,8|2,0:2|3:2,0:0:0:0:
140,189,82932,1,0,3:0:0:0:
140,189,83018,1,2,3:2:0:0:
270,353,83189,1,2,1:2:0:0:
311,102,83361,1,8,0:2:0:0:
133,277,83532,1,2,3:2:0:0:
430,219,83704,6,0,L|307:181,1,103.500001974106,0|0,1:2|3:0,0:2:0:0:
126,91,84047,1,8,0:2:0:0:
283,28,84218,1,0,3:0:0:0:
283,28,84304,1,0,3:0:0:0:
283,28,84389,2,0,L|267:87,1,51.7500009870529,0|0,3:2|3:0,0:0:0:0:
209,248,84561,5,0,1:2:0:0:
114,72,84732,1,10,0:2:0:0:
218,271,84904,1,2,3:2:0:0:
0,178,85075,6,0,L|101:157,1,103.500001974106,2|0,1:2|3:2,0:2:0:0:
372,366,85418,1,10,0:2:0:0:
132,256,85589,1,0,1:2:0:0:
322,181,85761,5,2,0:2:0:0:
115,366,85932,1,8,0:2:0:0:
168,141,86104,1,2,1:2:0:0:
391,286,86275,1,10,0:2:0:0:
69,131,86447,6,0,P|91:85|135:60,1,103.500001974106,0|2,1:2|0:2,0:2:0:0:
374,197,86789,1,8,0:2:0:0:
139,287,86961,2,0,L|37:268,1,103.500001974106,2|0,1:2|3:2,0:2:0:0:
229,3,87304,1,10,0:2:0:0:
266,244,87475,1,0,1:2:0:0:
23,114,87647,1,8,0:2:0:0:
327,5,87818,5,4,1:2:0:0:
256,192,87904,12,0,90561,0:2:0:0:
334,160,97418,6,0,B|308:184|251:185|212:146|215:94|222:90|230:85|232:43|201:9|156:0|117:21,1,315,0|0,3:0|0:2,0:0:0:0:
0,90,98789,6,0,B|51:118|51:118|153:88,1,153.000002918243,6|10,1:2|0:3,0:2:0:0:
224,36,99304,1,0,3:2:0:0:
236,50,99389,1,0,3:2:0:0:
244,68,99475,1,0,3:2:0:0:
248,86,99561,1,0,3:2:0:0:
246,105,99646,1,0,1:2:0:0:
183,178,99818,2,0,L|167:252,1,76.5000014591217,8|0,0:3|0:2,0:2:0:0:
14,373,100161,6,0,P|77:352|99:356,1,76.5000014591217,2|2,1:2|3:2,0:0:0:0:
118,363,100418,1,0,3:0:0:0:
118,363,100504,1,10,0:3:0:0:
226,329,100675,1,2,3:2:0:0:
226,329,100761,1,0,3:0:0:0:
226,329,100847,2,0,L|263:335,2,38.2500007295609,2|0|0,3:2|3:0|1:2,0:2:0:0:
311,266,101189,6,0,L|395:252,1,76.5000014591217,10|2,0:3|0:2,0:0:0:0:
510,162,101532,1,2,1:2:0:0:
377,102,101704,1,2,0:2:0:0:
474,235,101875,1,10,0:3:0:0:
489,63,102047,1,2,3:2:0:0:
485,79,102132,1,0,3:0:0:0:
482,96,102218,1,0,3:0:0:0:
478,112,102304,1,0,3:0:0:0:
475,129,102389,1,0,1:2:0:0:
307,127,102561,2,0,P|339:106|376:101,1,76.5000014591217,8|0,0:3|0:2,0:2:0:0:
256,224,102904,5,2,1:2:0:0:
217,122,103075,1,2,0:2:0:0:
354,203,103247,1,10,0:3:0:0:
221,306,103418,1,2,3:2:0:0:
202,302,103503,1,0,3:2:0:0:
183,298,103589,1,2,3:2:0:0:
164,295,103675,1,0,3:2:0:0:
145,291,103760,1,0,1:2:0:0:
9,203,103932,2,0,L|98:184,1,76.5000014591217,10|2,0:3|0:2,0:0:0:0:
253,34,104275,6,0,P|183:56|169:127,1,153.000002918243,2|10,1:2|0:3,0:2:0:0:
316,207,104789,1,2,3:2:0:0:
312,188,104874,1,0,3:2:0:0:
308,169,104960,1,0,3:2:0:0:
304,150,105046,1,0,3:2:0:0:
301,131,105131,1,0,1:2:0:0:
422,222,105304,2,0,L|402:318,1,76.5000014591217,8|0,0:3|0:2,0:2:0:0:
262,331,105647,5,2,1:2:0:0:
316,207,105818,1,2,0:2:0:0:
255,349,105989,1,10,0:3:0:0:
180,258,106161,1,2,3:2:0:0:
180,258,106247,1,0,3:0:0:0:
180,258,106332,2,0,L|230:250,2,38.2500007295609,2|0|0,3:2|3:0|1:2,0:2:0:0:
90,266,106675,2,0,L|-10:246,1,76.5000014591217,10|2,0:3|0:2,0:0:0:0:
209,109,107018,6,0,B|298:80|298:80|322:98|352:104,1,153.000002918243,2|8,1:2|0:3,0:2:0:0:
493,57,107532,1,2,3:2:0:0:
477,38,107617,1,0,3:0:0:0:
457,25,107703,1,0,3:0:0:0:
433,19,107789,1,0,3:0:0:0:
409,21,107874,1,0,1:2:0:0:
209,109,108047,2,0,L|302:81,1,76.5000014591217,10|0,0:3|0:2,0:2:0:0:
74,201,108389,6,0,B|40:158|40:158|71:64,1,153.000002918243,2|8,1:2|0:3,0:2:0:0:
206,171,108904,1,0,0:2:0:0:
108,298,109075,1,2,0:2:0:0:
108,298,109161,1,2,0:2:0:0:
108,298,109247,2,0,L|38:314,1,38.2500007295609,2|2,0:2|0:2,0:0:0:0:
243,182,109418,1,2,0:2:0:0:
275,187,109503,1,2,0:2:0:0:
307,193,109589,1,2,0:2:0:0:
338,198,109675,1,2,0:2:0:0:
366,205,109761,6,0,L|454:186,1,90,6|0,1:2|0:2,0:2:0:0:
312,88,110104,1,10,0:2:0:0:
261,267,110275,1,2,3:2:0:0:
261,267,110361,1,0,3:0:0:0:
261,267,110447,1,0,3:2:0:0:
397,63,110618,1,2,1:2:0:0:
172,218,110789,2,0,P|158:260|168:303,1,90,8|0,0:2|0:2,0:0:0:0:
294,51,111132,6,0,B|243:29|243:29|156:58,1,135,2|0,1:2|0:0,0:2:0:0:
115,119,111475,2,0,P|88:83|99:17,1,90,10|0,0:2|3:0,0:2:0:0:
89,11,111732,1,0,3:0:0:0:
89,11,111818,1,0,3:2:0:0:
240,168,111989,1,2,1:2:0:0:
0,126,112161,1,10,0:2:0:0:
193,18,112332,1,2,3:2:0:0:
103,260,112504,6,0,P|93:216|83:172,1,90,2|0,1:2|3:2,0:2:0:0:
320,0,112847,2,0,P|309:43|300:87,1,90,10|0,0:2|3:2,0:2:0:0:
301,125,113104,1,0,3:0:0:0:
301,125,113189,1,0,3:2:0:0:
346,330,113361,1,2,1:2:0:0:
209,172,113532,1,10,0:2:0:0:
138,384,113704,1,0,3:2:0:0:
445,248,113875,6,0,P|397:203|332:204,1,135,2|0,3:2|0:0,0:0:0:0:
250,266,114218,2,0,P|205:270|165:250,1,90,10|0,0:2|3:0,0:2:0:0:
145,227,114475,1,0,3:0:0:0:
145,227,114561,1,0,3:2:0:0:
54,61,114732,1,2,1:2:0:0:
234,189,114904,1,10,0:2:0:0:
242,0,115075,1,2,3:2:0:0:
0,174,115247,6,0,L|89:156,1,90,2|0,1:2|3:2,0:2:0:0:
335,43,115589,2,0,L|246:25,1,90,10|2,0:2|3:2,0:0:0:0:
159,79,115847,1,0,3:0:0:0:
159,79,115932,2,0,L|172:146,1,45,0|0,3:2|3:0,0:0:0:0:
224,201,116104,1,2,1:2:0:0:
224,201,116189,1,0,3:0:0:0:
224,201,116275,2,0,L|203:311,1,90,10|0,0:2|3:2,0:2:0:0:
110,169,116618,5,2,1:2:0:0:
305,267,116789,1,0,3:2:0:0:
127,378,116961,2,0,L|110:289,1,90,10|0,0:2|3:0,0:2:0:0:
96,255,117218,1,0,3:0:0:0:
96,255,117304,1,0,3:2:0:0:
262,380,117475,1,2,1:2:0:0:
213,171,117647,2,0,L|196:259,1,90,10|0,0:2|3:2,0:2:0:0:
3,137,117989,6,0,P|62:120|100:105,1,90,2|0,1:2|3:2,0:2:0:0:
284,68,118332,2,0,P|232:0|147:10,1,180,10|0,0:2|3:2,0:2:0:0:
3,137,118847,1,2,1:2:0:0:
196,259,119018,2,0,L|179:170,1,90,10|0,0:2|3:2,0:2:0:0:
116,332,119361,6,0,P|149:361|193:368,1,90,2|0,3:2|1:2,0:2:0:0:
383,205,119704,2,0,L|284:232,1,90,10|0,0:2|3:2,0:2:0:0:
277,240,119961,1,0,3:0:0:0:
277,240,120047,1,2,3:2:0:0:
383,73,120218,1,2,1:2:0:0:
429,293,120389,1,10,0:2:0:0:
298,146,120561,1,2,3:2:0:0:
512,4,120732,6,0,P|497:69|482:135,1,135,6|0,1:2|0:0,0:2:0:0:
388,201,121075,2,0,P|399:253|411:306,1,90,10|2,0:2|3:2,0:0:0:0:
409,319,121332,1,0,3:0:0:0:
409,319,121418,1,0,3:2:0:0:
206,141,121589,1,2,1:2:0:0:
262,384,121761,2,0,P|271:340|281:296,1,90,8|0,0:2|3:2,0:0:0:0:
206,141,122104,6,0,P|140:153|74:165,1,135,2|0,1:2|0:0,0:2:0:0:
25,226,122446,2,0,P|0:190|0:145,1,90,10|0,0:2|3:0,0:2:0:0:
20,102,122704,1,0,3:0:0:0:
20,102,122789,1,0,3:2:0:0:
213,8,122961,1,2,1:2:0:0:
137,234,123132,1,8,0:2:0:0:
22,28,123304,1,0,3:2:0:0:
298,159,123475,6,0,P|342:153|382:132,1,90,2|0,1:2|3:2,0:2:0:0:
227,23,123818,2,0,L|212:115,1,90,10|0,0:2|3:0,0:2:0:0:
206,140,124075,1,0,3:0:0:0:
206,140,124161,1,0,3:2:0:0:
289,324,124332,1,2,1:2:0:0:
349,98,124504,1,10,0:2:0:0:
125,215,124675,1,0,3:2:0:0:
394,310,124847,6,0,P|438:305|473:278,1,90,2|0,3:2|1:2,0:0:0:0:
500,200,125104,1,0,3:0:0:0:
500,200,125189,2,0,L|411:183,1,90,10|0,0:2|3:0,0:2:0:0:
347,140,125447,1,0,3:0:0:0:
347,140,125532,2,0,L|358:91,1,45,0|0,3:2|3:0,0:0:0:0:
377,0,125704,1,2,1:2:0:0:
206,166,125875,2,0,P|203:225|226:262,1,90,10|0,0:2|3:2,0:0:0:0:
127,25,126218,6,0,L|32:51,1,90,2|0,1:2|3:2,0:2:0:0:
206,166,126561,2,0,L|301:192,1,90,10|2,0:2|3:2,0:2:0:0:
321,201,126818,1,0,3:0:0:0:
321,201,126904,1,0,3:2:0:0:
228,346,127075,1,2,1:2:0:0:
420,366,127246,2,0,L|393:255,1,90,10|0,0:2|3:2,0:2:0:0:
148,168,127589,6,0,P|214:211|279:196,1,135,2|0,1:2|0:0,0:2:0:0:
352,87,127932,2,0,L|264:106,1,90,10|0,0:2|3:0,0:2:0:0:
243,113,128189,1,0,3:0:0:0:
243,113,128275,1,0,3:2:0:0:
413,218,128446,1,2,1:2:0:0:
241,315,128618,2,0,P|251:268|261:224,1,90,10|0,0:2|3:2,0:2:0:0:
346,29,128961,6,0,B|374:69|374:69|349:164,1,135,2|0,1:2|0:0,0:2:0:0:
371,240,129304,2,0,P|326:238|287:217,1,90,10|0,0:2|3:0,0:2:0:0:
265,203,129561,1,0,3:0:0:0:
265,203,129647,1,0,3:2:0:0:
439,160,129818,1,2,1:2:0:0:
296,327,129989,1,10,0:2:0:0:
497,261,130161,1,0,3:2:0:0:
302,119,130332,5,2,3:2:0:0:
207,250,130675,5,2,3:2:0:0:
302,119,131018,5,2,3:2:0:0:
207,250,131189,1,2,3:2:0:0:
161,58,131361,1,2,3:2:0:0:
296,209,131532,1,2,3:2:0:0:
465,27,131704,6,0,L|362:9,1,103.500001974106,4|0,1:2|0:2,0:2:0:0:
126,231,132047,1,10,0:2:0:0:
328,134,132218,1,2,3:2:0:0:
328,134,132304,1,0,3:0:0:0:
328,134,132389,1,2,3:2:0:0:
121,63,132561,1,2,1:2:0:0:
274,290,132732,1,10,0:2:0:0:
228,30,132904,5,2,3:2:0:0:
228,30,132989,1,0,3:0:0:0:
228,30,133075,2,0,L|205:160,1,103.500001974106,0|2,1:2|0:2,0:0:0:0:
39,371,133418,2,0,L|16:241,1,103.500001974106,8|2,0:2|3:2,0:0:0:0:
11,237,133675,1,0,3:0:0:0:
11,237,133761,1,2,3:2:0:0:
229,285,133932,1,2,1:2:0:0:
40,140,134104,1,10,0:2:0:0:
149,363,134275,1,2,3:2:0:0:
340,134,134447,6,0,P|296:107|243:111,1,103.500001974106,2|2,1:2|3:2,0:0:0:0:
226,125,134704,1,0,3:0:0:0:
226,125,134789,1,10,3:2:0:0:
387,252,134961,1,2,3:2:0:0:
387,252,135047,1,0,3:0:0:0:
387,252,135132,1,2,3:2:0:0:
247,14,135304,1,2,1:2:0:0:
159,266,135475,1,10,0:2:0:0:
424,96,135647,6,0,L|318:74,1,103.500001974106,2|0,3:2|3:2,0:0:0:0:
91,218,135989,1,2,1:2:0:0:
317,157,136161,1,10,0:2:0:0:
154,10,136332,1,2,3:2:0:0:
154,10,136417,1,0,3:0:0:0:
154,10,136504,2,0,P|129:60|136:116,1,103.500001974106,0|0,3:2|1:2,0:0:0:0:
394,262,136847,1,8,0:2:0:0:
307,59,137018,1,2,3:2:0:0:
98,270,137189,6,0,B|156:244|156:244|246:262,1,155.250002961159,2|0,1:2|0:0,0:2:0:0:
275,269,137532,1,10,0:2:0:0:
467,139,137704,1,2,3:2:0:0:
467,139,137789,1,0,3:0:0:0:
467,139,137875,2,0,P|428:106|378:104,1,103.500001974106,2|2,3:2|1:2,0:0:0:0:
151,211,138218,1,8,0:2:0:0:
231,2,138389,1,2,3:2:0:0:
406,217,138561,6,0,L|304:196,1,103.500001974106,0|0,1:2|3:0,0:2:0:0:
116,384,138904,2,0,L|217:363,1,103.500001974106,8|0,0:2|3:0,0:0:0:0:
248,356,139161,1,0,3:0:0:0:
248,356,139247,1,0,3:2:0:0:
61,254,139418,1,2,1:2:0:0:
225,151,139589,1,10,0:2:0:0:
93,364,139761,1,2,3:2:0:0:
0,150,139932,6,0,B|54:126|54:126|160:149,1,155.250002961159,2|0,1:2|0:0,0:2:0:0:
202,216,140275,2,0,P|228:172|225:121,1,103.500001974106,10|0,0:2|3:2,0:2:0:0:
215,103,140532,1,0,3:0:0:0:
215,103,140618,1,2,3:2:0:0:
120,238,140789,1,0,1:2:0:0:
303,138,140961,1,10,0:2:0:0:
131,10,141132,6,0,P|111:56|121:106,1,103.500001974106,2|0,0:2|3:2,0:2:0:0:
295,266,141475,2,0,P|314:219|304:169,1,103.500001974106,2|8,1:2|0:2,0:2:0:0:
108,3,141818,6,0,P|88:49|98:99,1,103.500001974106,2|0,0:2|3:2,0:2:0:0:
319,276,142161,2,0,P|338:229|328:179,1,103.500001974106,2|8,1:2|0:2,0:2:0:0:
99,251,142504,1,0,3:2:0:0:
309,377,142675,6,0,P|409:353|509:326,1,207.000003948212,0|10,1:2|0:2,0:2:0:0:
294,164,143189,1,2,0:2:0:0:
482,229,143361,1,2,3:2:0:0:
360,73,143532,1,2,1:2:0:0:
302,278,143704,1,10,0:2:0:0:
472,96,143876,6,0,P|428:68|375:66,1,103.500001974106,2|0,3:2|1:2,0:0:0:0:
187,251,144218,2,0,P|229:278|280:281,1,103.500001974106,2|8,0:2|0:2,0:0:0:0:
198,16,144561,1,2,3:2:0:0:
198,16,144647,1,0,3:0:0:0:
198,16,144732,1,2,3:2:0:0:
46,207,144904,1,2,1:2:0:0:
271,127,145076,1,10,0:2:0:0:
56,35,145247,1,2,3:2:0:0:
206,352,145418,6,0,L|185:241,1,103.500001974106,2|2,1:2|3:2,0:0:0:0:
181,222,145675,1,0,3:0:0:0:
181,222,145761,1,10,0:2:0:0:
343,40,145932,1,2,3:2:0:0:
343,40,146018,1,0,3:0:0:0:
343,40,146104,1,2,3:2:0:0:
116,148,146275,1,2,1:2:0:0:
346,250,146447,1,10,0:2:0:0:
129,55,146618,6,0,P|77:56|33:81,1,103.500001974106,2|0,3:2|3:2,0:0:0:0:
168,278,146961,1,2,1:2:0:0:
278,67,147132,1,10,0:2:0:0:
35,247,147304,1,2,3:2:0:0:
35,247,147389,1,0,3:0:0:0:
35,247,147475,2,0,L|136:268,1,103.500001974106,0|0,3:2|1:2,0:0:0:0:
396,80,147818,2,0,L|294:58,1,103.500001974106,8|2,0:2|3:2,0:2:0:0:
379,384,148161,6,0,B|424:343|424:343|395:228,1,155.250002961159,2|0,1:2|0:0,0:2:0:0:
339,203,148504,2,0,P|381:174|442:178,1,103.500001974106,8|2,0:2|3:2,0:0:0:0:
464,187,148761,1,0,3:0:0:0:
464,187,148847,1,2,3:2:0:0:
265,245,149018,1,2,1:2:0:0:
355,40,149189,1,8,0:2:0:0:
478,303,149361,5,2,3:2:0:0:
478,303,149447,1,0,3:0:0:0:
478,303,149532,2,0,P|412:308|369:285,1,103.500001974106,0|0,1:2|3:2,0:2:0:0:
200,130,149875,1,8,0:2:0:0:
363,48,150047,1,0,3:0:0:0:
363,48,150132,1,0,3:0:0:0:
363,48,150218,2,0,L|349:108,1,51.7500009870529,0|0,3:2|3:0,0:0:0:0:
293,303,150389,5,0,1:2:0:0:
200,130,150560,1,10,0:2:0:0:
356,248,150732,1,0,3:2:0:0:
111,266,150903,6,0,P|190:250|262:231,1,155.250002961159,2|0,1:2|0:0,0:2:0:0:
409,157,151247,2,0,P|352:148|299:135,1,103.500001974106,10|0,0:2|3:2,0:2:0:0:
283,124,151504,1,0,3:0:0:0:
283,124,151589,1,2,3:2:0:0:
432,239,151761,1,0,1:2:0:0:
359,20,151932,1,10,0:2:0:0:
243,217,152104,6,0,L|228:138,1,76.5000014591217,2|0,0:2|0:2,0:2:0:0:
359,20,152447,2,0,L|344:95,1,76.5000014591217,2|8,0:2|0:3,0:2:0:0:
243,217,152789,2,0,P|310:215|344:257,1,114.750002188683,2|0,0:2|0:0,0:2:0:0:
395,308,153132,2,0,L|438:319,1,45,2|0,3:2|0:2,0:0:0:0:
331,201,153647,6,0,L|218:221,1,90,4|0,1:2|3:2,0:2:0:0:
213,218,153904,1,0,3:0:0:0:
213,218,153989,1,10,0:2:0:0:
88,53,154161,1,2,0:2:0:0:
252,135,154332,1,2,3:2:0:0:
65,182,154504,1,2,1:2:0:0:
190,37,154675,1,10,0:2:0:0:
128,241,154847,2,0,P|88:262|44:262,1,90,2|0,3:2|1:2,0:2:0:0:
162,125,155189,2,0,L|232:140,1,45,2|0,3:2|3:2,0:2:0:0:
156,111,155361,2,0,L|271:131,1,90,10|0,0:2|3:2,0:2:0:0:
431,74,155704,5,2,3:2:0:0:
427,102,155789,1,2,3:2:0:0:
421,129,155875,1,2,3:2:0:0:
416,158,155961,1,2,3:2:0:0:
389,185,156047,5,10,3:2:0:0:
394,213,156132,1,2,3:2:0:0:
400,241,156218,1,2,3:2:0:0:
404,270,156304,1,2,3:2:0:0:
411,301,156389,6,0,L|322:316,1,90,2|2,1:2|3:2,0:2:0:0:
231,357,156732,1,10,3:2:0:0:
231,357,156818,1,2,3:2:0:0:
231,357,156904,2,0,L|169:346,1,45,2|2,3:2|3:2,0:0:0:0:
33,296,157075,1,2,3:2:0:0:
212,244,157247,1,2,1:2:0:0:
57,150,157418,1,10,0:2:0:0:
107,384,157589,2,0,P|126:296|146:208,1,180,2|2,3:2|1:2,0:2:0:0:
258,146,158104,6,0,P|250:124|244:103,1,45,10|0,3:2|0:2,0:2:0:0:
235,135,158275,2,0,P|227:113|221:92,1,45,2|0,3:2|0:2,0:2:0:0:
139,17,158447,6,0,P|133:38|125:59,1,45,2|0,3:2|0:2,0:2:0:0:
116,28,158618,2,0,P|110:49|102:70,1,45,2|0,3:2|0:2,0:2:0:0:
7,202,158789,1,10,3:2:0:0:
29,198,158874,1,2,3:2:0:0:
51,194,158960,1,2,3:2:0:0:
73,190,159046,1,2,3:2:0:0:
96,185,159132,6,0,L|214:206,1,90,2|0,1:2|3:2,0:2:0:0:
365,121,159475,1,10,0:2:0:0:
238,16,159647,1,2,3:2:0:0:
224,33,159732,1,0,3:0:0:0:
215,54,159818,1,2,3:2:0:0:
213,76,159904,1,0,3:0:0:0:
217,98,159989,1,2,3:2:0:0:
288,224,160161,1,8,0:2:0:0:
453,105,160332,5,2,3:2:0:0:
453,105,160418,1,0,3:0:0:0:
453,105,160504,2,0,L|335:126,1,90,0|0,1:2|3:2,0:0:0:0:
222,278,160847,1,10,0:2:0:0:
428,219,161018,1,2,3:2:0:0:
428,219,161104,1,0,3:0:0:0:
428,219,161189,2,0,L|372:207,1,45,2|0,3:2|3:0,0:2:0:0:
168,167,161361,1,0,3:2:0:0:
330,102,161532,1,10,0:2:0:0:
269,269,161704,1,2,3:2:0:0:
133,75,161875,6,0,L|230:54,1,90,2|0,1:2|3:2,0:2:0:0:
89,224,162218,2,0,L|-8:203,1,90,10|0,0:2|3:2,0:2:0:0:
113,57,162561,6,0,L|210:36,1,90,2|0,0:2|3:2,0:2:0:0:
71,242,162904,2,0,L|3:227,1,45,10|0,3:2|3:2,0:2:0:0:
188,160,163075,6,0,P|198:203|207:247,1,90,2|0,3:2|3:2,0:2:0:0:
310,384,163418,2,0,P|319:340|329:296,1,90,2|8,1:2|0:2,0:2:0:0:
171,148,163761,6,0,P|181:191|190:235,1,90,2|0,3:2|3:2,0:2:0:0:
293,372,164104,2,0,P|302:328|312:284,1,90,2|8,1:2|0:2,0:2:0:0:
501,222,164447,6,0,P|459:239|415:236,1,90,2|0,0:2|1:2,0:2:0:0:
352,88,164790,2,0,P|387:115|407:155,1,90,2|8,0:2|0:2,0:2:0:0:
311,284,165133,2,0,P|316:239|341:202,1,90,2|0,0:2|0:2,0:2:0:0:
386,348,165475,6,0,L|452:334,2,60,2|2|2,3:2|3:2|3:2,0:2:0:0:
312,372,165818,6,0,L|214:356,1,90,2|0,3:2|1:2,0:2:0:0:
62,241,166161,1,2,3:2:0:0:
199,182,166332,1,10,0:2:0:0:
54,378,166503,5,2,3:2:0:0:
54,378,166589,1,0,3:0:0:0:
54,378,166675,1,2,3:2:0:0:
232,269,166847,1,2,1:2:0:0:
69,159,167018,2,0,L|88:261,1,90,10|2,0:2|3:2,0:0:0:0:
93,274,167275,1,0,3:0:0:0:
93,275,167361,5,0,1:2:0:0:
248,103,167532,1,2,3:2:0:0:
143,67,167704,1,10,3:2:0:0:
148,93,167789,1,2,3:2:0:0:
153,120,167875,1,2,3:2:0:0:
158,146,167961,1,2,3:2:0:0:
162,171,168047,6,0,P|202:189|247:190,1,90,2|2,3:2|1:2,0:0:0:0:
428,130,168389,1,10,0:2:0:0:
265,0,168561,2,0,L|285:109,1,90,2|0,3:2|3:2,0:2:0:0:
410,287,168904,1,2,1:2:0:0:
469,110,169075,1,10,0:2:0:0:
302,254,169247,1,2,0:2:0:0:
487,206,169418,1,2,3:2:0:0:
487,206,169504,1,0,3:2:0:0:
487,206,169589,2,0,L|430:193,1,45,2|2,3:2|3:2,0:0:0:0:
319,347,169761,2,0,L|434:324,1,90,10|2,0:2|3:2,0:0:0:0:
275,170,170104,6,0,B|210:159|210:159|168:192|168:192|108:183,1,180,0|8,1:2|0:2,0:0:0:0:
128,89,170618,1,2,3:2:0:0:
128,89,170704,1,0,3:0:0:0:
128,89,170789,1,0,3:2:0:0:
238,246,170961,1,2,1:2:0:0:
19,199,171132,2,0,L|123:179,1,90,8|2,0:2|3:2,0:0:0:0:
257,0,171475,6,0,L|236:110,1,90,2|0,1:2|3:2,0:2:0:0:
383,240,171818,2,0,L|362:130,1,90,10|0,0:2|3:2,0:2:0:0:
356,123,172075,1,0,3:0:0:0:
356,123,172161,1,2,3:2:0:0:
304,288,172332,1,2,1:2:0:0:
461,203,172504,1,8,0:2:0:0:
289,371,172675,5,2,3:2:0:0:
289,371,172761,1,0,3:0:0:0:
288,371,172847,2,0,L|144:338,1,135,2|0,1:2|0:0,0:2:0:0:
129,332,173189,1,10,0:2:0:0:
5,213,173361,1,0,1:2:0:0:
164,161,173532,1,2,0:2:0:0:
0,337,173704,1,8,0:2:0:0:
241,236,173875,1,2,1:2:0:0:
38,104,174047,1,10,0:2:0:0:
237,332,174218,6,0,P|281:331|321:311,1,90,0|2,1:2|3:2,0:2:0:0:
479,117,174560,1,8,0:2:0:0:
238,63,174732,2,0,L|260:183,1,90,2|0,1:2|3:2,0:2:0:0:
494,346,175075,1,10,0:2:0:0:
258,243,175246,1,2,1:2:0:0:
511,91,175418,1,10,0:2:0:0:
321,310,175589,5,6,1:2:0:0:
256,192,175675,12,0,178332,0:2:0:0:
