osu file format v14

[General]
AudioFilename: audio.mp3
AudioLeadIn: 0
PreviewTime: 65789
Countdown: 0
SampleSet: Soft
StackLeniency: 0.7
Mode: 0
LetterboxInBreaks: 0
WidescreenStoryboard: 1

[Editor]
Bookmarks: 22106,44049,65992,109878,131821,153764,178449
DistanceSpacing: 0.4
BeatDivisor: 4
GridSize: 32
TimelineZoom: 1.8

[Metadata]
Title:Time Bomb (feat. Veela)
TitleUnicode:Time Bomb (feat. Veela)
Artist:Feint & Boyinaband
ArtistUnicode:Feint & Boyinaband
Creator:Kuki1537
Version:MajK00 & eNu's Insane
Source:
Tags:dnb d&b d'n'b drum and n' bass monstercat 007 solace ft. basensorex nyantiaz intiaz majk00 enuhq my angel ram my_angel_ram english electronic edm female vocal featured artist fa
BeatmapID:3925092
BeatmapSetID:1722335

[Difficulty]
HPDrainRate:5
CircleSize:3.6
OverallDifficulty:8
ApproachRate:9
SliderMultiplier:1.63
SliderTickRate:1

[Events]
//Background and Video events
0,0,"Konachan.com - 335697 sample.jpg",0,0
//Break Periods
2,90761,96818
//Storyboard Layer 0 (Background)
//Storyboard Layer 1 (Fail)
//Storyboard Layer 2 (Pass)
//Storyboard Layer 3 (Foreground)
//Storyboard Layer 4 (Overlay)
//Storyboard Sound Samples

[TimingPoints]
47,342.857142857143,4,2,22,50,1,0
21989,-114.942528735632,4,2,22,50,0,0
43589,-114.942528735632,4,2,22,65,0,0
43932,-98.0392156862745,4,2,22,75,0,0
64504,-138.888888888889,4,2,22,65,0,0
65189,-108.695652173913,4,2,22,65,0,0
65875,-89.2857142857143,4,2,22,80,0,0
87904,-89.2857142857143,4,2,22,50,0,0
90561,-89.2857142857143,4,2,22,5,0,0
97418,-181.818181818182,4,2,22,50,0,0
98618,-181.818181818182,4,2,22,5,0,0
98789,-114.942528735632,4,2,22,50,0,0
109418,-114.942528735632,4,2,22,65,0,0
109761,-98.0392156862745,4,2,22,75,0,0
130332,-138.888888888889,4,2,22,65,0,0
131704,-89.2857142857143,4,2,22,80,0,0
152104,-89.2857142857143,4,2,22,65,0,0
152789,-121.951219512195,4,2,22,65,0,0
153647,-108.695652173913,4,2,22,75,0,0
175675,-108.695652173913,4,2,22,50,0,0
178332,-108.695652173913,4,2,22,5,0,0

[Colours]
Combo1 : 233,163,112
Combo2 : 182,252,252
Combo3 : 98,217,217
Combo4 : 255,209,159

[HitObjects]
0,113,21989,6,0,B|51:125|51:125|71:157|71:157|121:169,1,141.810001190117,6|10,1:2|0:3,0:2:0:0:
182,94,22504,2,0,L|173:59,4,35.4525002975292,0|0|0|0|0,3:2|3:2|3:2|3:2|1:2,0:0:0:0:
218,191,23018,1,8,0:3:0:0:
297,80,23189,5,2,1:2:0:0:
297,80,23275,1,0,1:2:0:0:
297,80,23361,2,0,L|382:101,1,70.9050005950584,2|2,1:2|0:2,0:0:0:0:
512,199,23704,1,10,0:3:0:0:
456,123,23875,1,2,0:2:0:0:
355,190,24047,2,0,L|372:258,1,70.9050005950584,2|0,0:2|1:2,0:2:0:0:
463,384,24389,2,0,L|480:315,1,70.9050005950584,10|2,0:3|1:2,0:0:0:0:
312,367,24732,6,0,B|263:355|263:355|227:390|180:381,1,141.810001190117,2|10,1:2|0:3,0:2:0:0:
187,254,25247,2,0,L|195:288,4,35.4525002975292,2|0|0|0|0,3:2|3:2|3:2|3:2|1:2,0:0:0:0:
283,267,25761,1,8,0:3:0:0:
189,166,25932,5,0,1:2:0:0:
189,166,26018,1,0,1:0:0:0:
189,166,26104,2,0,L|120:183,1,70.9050005950584,2|2,1:2|0:2,0:0:0:0:
223,74,26447,1,10,0:3:0:0:
278,156,26618,1,2,0:2:0:0:
133,84,26789,2,0,P|133:48|151:18,1,70.9050005950584,2|0,0:2|1:2,0:2:0:0:
296,14,27132,2,0,P|313:44|314:79,1,70.9050005950584,10|2,0:3|1:2,0:0:0:0:
422,176,27475,6,0,P|402:244|387:313,1,141.810001190117,2|10,1:2|0:3,0:2:0:0:
491,263,27989,2,0,P|494:280|499:297,4,35.4525002975292,2|0|0|0|0,3:2|3:2|3:2|3:2|1:2,0:0:0:0:
458,384,28504,1,8,0:3:0:0:
303,295,28675,5,0,1:2:0:0:
303,295,28761,1,0,1:0:0:0:
303,295,28847,2,0,P|267:296|235:311,1,70.9050005950584,2|2,1:2|0:2,0:0:0:0:
113,379,29189,1,10,0:3:0:0:
144,281,29361,1,2,0:2:0:0:
26,235,29532,2,0,L|43:303,1,70.9050005950584,2|0,0:2|1:2,0:2:0:0:
115,181,29875,2,0,L|97:112,1,70.9050005950584,10|2,0:3|1:2,0:0:0:0:
221,197,30218,6,0,B|294:181|276:243|353:228,1,141.810001190117,2|8,1:2|0:3,0:2:0:0:
435,171,30732,2,0,P|451:202|450:237,1,70.9050005950584,2|0,0:2|0:2,0:2:0:0:
391,318,31075,1,2,1:2:0:0:
504,384,31247,2,0,P|505:348|489:317,1,70.9050005950584,10|0,0:3|1:2,0:2:0:0:
352,228,31589,6,0,L|315:76,1,141.810001190117,2|8,1:2|0:3,0:2:0:0:
425,0,32104,2,0,L|407:68,1,70.9050005950584,2|0,0:2|0:0,0:2:0:0:
267,16,32447,1,0,1:2:0:0:
267,16,32618,2,0,P|297:0|332:0,1,70.9050005950584,8|0,0:3|1:2,0:2:0:0:
230,112,32961,6,0,B|129:86|129:86|95:113,1,141.810001190117,2|10,1:2|0:3,0:2:0:0:
159,213,33475,2,0,L|151:179,4,35.4525002975292,0|0|0|0|0,3:2|3:2|3:2|3:2|1:2,0:0:0:0:
64,198,33989,1,8,0:3:0:0:
254,228,34161,5,0,1:2:0:0:
254,228,34247,1,0,1:0:0:0:
254,228,34332,2,0,L|331:208,1,70.9050005950584,2|2,1:2|0:2,0:0:0:0:
451,176,34675,1,10,0:3:0:0:
421,287,34847,1,2,3:2:0:0:
421,287,34932,1,0,3:0:0:0:
421,287,35018,2,0,L|518:311,1,70.9050005950584,2|0,3:2|1:2,0:2:0:0:
376,384,35361,2,0,L|278:359,1,70.9050005950584,10|2,0:3|1:2,0:2:0:0:
188,359,35704,5,2,1:2:0:0:
246,252,35875,1,2,0:2:0:0:
180,346,36047,1,10,2:3:0:0:
140,202,36218,2,0,P|73:195|34:254,1,141.810001190117,2|0,3:2|1:2,0:0:0:0:
45,267,36647,1,0,1:0:0:0:
45,267,36732,2,0,L|113:284,1,70.9050005950584,8|0,0:3|1:2,0:2:0:0:
338,277,37075,5,2,1:2:0:0:
254,228,37247,1,2,0:2:0:0:
351,283,37418,2,0,L|368:351,1,70.9050005950584,10|2,0:3|0:2,0:0:0:0:
240,222,37761,2,0,L|258:153,1,70.9050005950584,2|0,0:2|1:2,0:2:0:0:
296,23,38104,1,10,0:3:0:0:
186,63,38275,1,2,1:2:0:0:
339,110,38447,6,0,B|388:98|388:98|424:133|471:124,1,141.810001190117,2|10,1:2|0:3,0:2:0:0:
455,37,38961,1,2,3:2:0:0:
455,37,39047,1,0,3:2:0:0:
455,37,39132,2,0,L|464:3,2,35.4525002975292,0|0|0,3:2|3:2|1:2,0:0:0:0:
333,123,39475,2,0,L|356:217,1,70.9050005950584,8|0,0:3|1:2,0:2:0:0:
389,358,39818,5,2,1:2:0:0:
258,318,39989,1,2,0:2:0:0:
371,274,40161,2,0,P|407:273|437:290,1,70.9050005950584,10|2,0:3|0:2,0:0:0:0:
273,232,40504,2,0,P|237:231|206:247,1,70.9050005950584,2|0,0:2|1:2,0:2:0:0:
184,384,40847,1,10,0:3:0:0:
258,318,41018,1,2,1:2:0:0:
116,287,41189,6,0,P|110:228|176:159,1,141.810001190117,2|8,1:2|0:3,0:2:0:0:
254,138,41704,1,2,3:2:0:0:
254,138,41789,1,0,3:0:0:0:
254,138,41875,2,0,L|262:103,2,35.4525002975292,0|0|0,3:0|3:0|1:2,0:0:0:0:
127,80,42218,2,0,L|109:11,1,70.9050005950584,10|0,0:3|1:2,0:2:0:0:
256,18,42561,6,0,B|329:2|311:64|388:49,1,141.810001190117,2|8,1:2|0:3,0:2:0:0:
341,157,43075,1,2,0:2:0:0:
506,54,43247,1,2,0:2:0:0:
506,54,43332,1,2,0:2:0:0:
506,54,43418,2,0,L|491:117,1,35.4525002975292,2|2,0:2|0:2,0:0:0:0:
453,189,43589,1,2,0:2:0:0:
453,189,43674,1,2,0:2:0:0:
453,189,43760,2,0,L|468:251,1,35.4525002975292,2|2,0:2|0:2,0:2:0:0:
512,384,43932,6,0,P|472:369|432:361,1,83.1300005073852,6|0,1:2|0:2,0:2:0:0:
342,242,44275,1,10,0:2:0:0:
248,384,44447,2,0,P|239:343|225:304,1,83.1300005073852,2|0,0:2|0:2,0:2:0:0:
62,184,44789,1,2,1:2:0:0:
117,335,44961,2,0,P|126:294|140:255,1,83.1300005073852,8|0,0:2|3:2,0:0:0:0:
155,230,45218,5,0,3:0:0:0:
155,230,45304,2,0,P|180:198|220:186,1,83.1300005073852,2|0,1:2|0:2,0:2:0:0:
55,37,45647,2,0,B|39:74|19:101|19:101|61:183,1,166.26000101477,10|0,0:2|0:2,0:2:0:0:
228,35,46161,1,2,1:2:0:0:
141,104,46332,1,10,0:2:0:0:
233,18,46503,1,2,0:2:0:0:
345,107,46675,6,0,P|368:73|370:32,1,83.1300005073852,2|0,1:2|0:2,0:2:0:0:
243,143,47018,2,0,P|273:221|297:300,1,166.26000101477,10|0,0:2|0:2,0:2:0:0:
412,166,47532,1,2,1:2:0:0:
494,299,47704,2,0,P|454:285|414:276,1,83.1300005073852,10|0,0:2|3:2,0:2:0:0:
396,275,47961,5,0,3:0:0:0:
396,275,48047,2,0,P|409:314|418:354,1,83.1300005073852,2|0,0:2|1:2,0:2:0:0:
247,243,48389,2,0,B|182:269|182:269|171:303|171:303|108:334,1,166.26000101477,10|0,0:2|0:2,0:2:0:0:
0,380,48904,1,2,1:2:0:0:
90,239,49075,1,10,0:2:0:0:
0,132,49247,1,2,0:2:0:0:
77,18,49418,6,0,P|137:14|185:52,1,124.695000761078,2|0,1:2|0:0,0:2:0:0:
195,66,49761,2,0,P|234:52|274:43,1,83.1300005073852,10|2,0:2|3:2,0:0:0:0:
295,45,50018,1,0,3:0:0:0:
295,45,50104,1,0,3:2:0:0:
371,232,50275,1,2,1:2:0:0:
385,79,50447,1,10,0:2:0:0:
240,168,50618,5,0,3:2:0:0:
240,168,50703,1,0,3:0:0:0:
240,168,50789,2,0,P|279:155|319:146,1,83.1300005073852,2|0,1:2|0:2,0:2:0:0:
482,30,51132,2,0,B|498:67|518:94|518:94|476:176,1,166.26000101477,10|0,0:2|0:2,0:2:0:0:
371,232,51647,1,2,1:2:0:0:
467,383,51818,1,10,0:2:0:0:
512,288,51989,1,0,0:2:0:0:
347,375,52161,6,0,P|308:362|268:353,1,83.1300005073852,2|0,1:2|0:2,0:2:0:0:
75,378,52504,2,0,P|150:349|174:272,1,166.26000101477,10|0,0:2|0:2,0:2:0:0:
16,173,53018,1,2,1:2:0:0:
72,275,53189,2,0,P|62:234|49:195,1,83.1300005073852,10|0,0:2|0:2,0:2:0:0:
102,75,53532,6,0,P|68:52|27:54,1,83.1300005073852,2|0,0:2|1:2,0:2:0:0:
155,171,53875,2,0,P|195:173|229:150,1,83.1300005073852,10|0,0:2|0:2,0:2:0:0:
315,22,54218,1,2,0:2:0:0:
210,52,54389,1,2,1:2:0:0:
324,6,54560,1,10,0:2:0:0:
443,131,54732,5,2,3:2:0:0:
443,131,54818,1,0,3:0:0:0:
443,131,54904,2,0,P|453:90|466:51,1,83.1300005073852,6|0,1:2|0:2,0:2:0:0:
325,126,55247,2,0,P|354:203|379:283,1,166.26000101477,10|0,0:2|0:2,0:0:0:0:
478,231,55761,1,2,1:2:0:0:
396,373,55932,2,0,P|356:375|322:352,1,83.1300005073852,8|0,0:2|3:2,0:0:0:0:
301,340,56189,5,0,3:0:0:0:
301,340,56275,2,0,P|260:350|221:363,1,83.1300005073852,2|0,1:2|0:2,0:2:0:0:
89,384,56618,2,0,B|120:348|131:293|131:293|104:265|92:224,1,166.26000101477,10|0,0:2|0:2,0:2:0:0:
201,117,57132,1,2,1:2:0:0:
302,222,57304,2,0,P|312:181|325:142,1,83.1300005073852,8|0,0:2|3:2,0:0:0:0:
338,115,57561,5,0,3:0:0:0:
338,115,57647,2,0,P|378:113|412:136,1,83.1300005073852,2|0,1:2|0:2,0:2:0:0:
254,21,57989,2,0,B|189:47|189:47|178:81|178:81|115:112,1,166.26000101477,10|0,0:2|0:2,0:2:0:0:
11,35,58504,1,2,1:2:0:0:
114,208,58675,1,10,0:2:0:0:
18,131,58847,1,0,0:2:0:0:
106,307,59018,6,0,P|66:293|26:284,1,83.1300005073852,2|0,0:2|1:2,0:2:0:0:
201,172,59361,2,0,P|290:184|317:257,1,166.26000101477,10|0,0:2|0:2,0:2:0:0:
219,365,59875,1,2,1:2:0:0:
220,262,60047,2,0,P|234:302|243:342,1,83.1300005073852,10|0,0:2|0:2,0:2:0:0:
126,223,60389,6,0,P|96:169|111:110,1,124.695000761078,2|0,1:2|0:0,0:2:0:0:
121,96,60732,2,0,P|160:82|200:73,1,83.1300005073852,10|2,0:2|3:2,0:0:0:0:
221,75,60989,1,0,3:0:0:0:
221,75,61075,1,0,3:2:0:0:
345,10,61247,1,2,1:2:0:0:
275,166,61418,1,10,0:2:0:0:
386,106,61589,5,0,3:2:0:0:
386,106,61675,1,0,3:0:0:0:
386,106,61761,2,0,P|400:145|409:185,1,83.1300005073852,2|0,1:2|0:2,0:2:0:0:
512,321,62104,2,0,B|449:292|449:292|405:323|345:321,1,166.26000101477,10|0,0:2|0:2,0:2:0:0:
189,380,62618,1,2,1:2:0:0:
271,283,62789,1,10,0:2:0:0:
183,167,62961,1,0,0:2:0:0:
87,289,63132,6,0,P|126:275|166:266,1,83.1300005073852,2|0,1:2|0:2,0:2:0:0:
85,165,63475,2,0,P|19:117|16:37,1,166.26000101477,10|0,0:2|0:2,0:2:0:0:
183,167,63989,1,2,1:2:0:0:
108,64,64161,2,0,P|147:50|187:41,1,83.1300005073852,10|0,0:2|0:2,0:2:0:0:
344,128,64504,6,0,P|358:89|367:49,1,58.6800014326172,2|0,0:2|0:2,0:2:0:0:
277,42,64847,2,0,P|263:81|254:121,1,58.6800014326172,2|0,3:2|0:2,0:2:0:0:
421,245,65189,5,2,0:2:0:0:
448,148,65361,1,2,3:2:0:0:
323,224,65532,5,2,0:2:0:0:
357,346,65704,1,2,0:2:0:0:
205,195,65875,6,0,B|140:179|140:179|93:225|32:213,1,182.560002228516,4|10,1:2|0:2,0:2:0:0:
151,67,66389,1,2,3:2:0:0:
173,72,66474,1,0,3:0:0:0:
195,78,66560,1,2,3:2:0:0:
217,83,66646,1,0,3:0:0:0:
239,89,66731,1,2,1:2:0:0:
62,114,66904,1,10,0:2:0:0:
309,26,67075,6,0,P|330:65|329:110,1,91.2800011142578,2|0,0:2|1:2,0:2:0:0:
195,208,67418,2,0,P|173:247|174:292,1,91.2800011142578,2|8,0:2|0:2,0:2:0:0:
372,376,67761,1,2,3:2:0:0:
372,376,67847,1,0,3:0:0:0:
372,376,67932,2,0,L|348:282,1,91.2800011142578,2|2,0:2|1:2,0:0:0:0:
314,122,68275,1,10,0:2:0:0:
263,269,68447,1,2,0:2:0:0:
490,184,68618,6,0,L|514:90,1,91.2800011142578,2|2,1:2|3:2,0:0:0:0:
493,88,68875,1,0,3:0:0:0:
493,88,68961,2,0,L|470:0,1,91.2800011142578,10|2,0:2|0:2,0:0:0:0:
314,122,69304,1,2,0:2:0:0:
252,9,69475,1,2,1:2:0:0:
403,158,69647,1,10,0:2:0:0:
263,274,69818,6,0,B|168:253|191:333|92:314,1,182.560002228516,2|2,0:2|1:2,0:2:0:0:
240,367,70332,1,10,0:2:0:0:
114,220,70504,2,0,L|92:131,1,91.2800011142578,2|0,0:2|0:2,0:2:0:0:
206,194,70847,1,0,1:2:0:0:
0,150,71018,2,0,L|23:57,1,91.2800011142578,8|2,0:2|0:2,0:0:0:0:
270,13,71361,6,0,B|324:59|324:59|293:183,1,182.560002228516,2|10,1:2|0:2,0:2:0:0:
430,293,71875,1,2,3:2:0:0:
424,270,71960,1,0,3:0:0:0:
418,248,72046,1,2,3:2:0:0:
413,226,72132,1,0,3:0:0:0:
407,204,72217,1,2,1:2:0:0:
361,359,72389,1,8,0:2:0:0:
507,213,72561,6,0,P|478:130|394:102,1,182.560002228516,2|0,0:2|0:0,0:0:0:0:
321,262,73075,2,0,P|283:286|238:281,1,91.2800011142578,8|0,0:2|3:0,0:0:0:0:
225,272,73332,1,0,3:0:0:0:
225,272,73418,1,0,3:2:0:0:
308,161,73589,1,2,1:2:0:0:
135,234,73761,1,10,0:2:0:0:
212,368,73932,1,2,0:2:0:0:
41,260,74104,6,0,P|36:215|58:175,1,91.2800011142578,2|0,1:2|0:2,0:2:0:0:
188,84,74447,2,0,P|191:39|169:0,1,91.2800011142578,10|0,0:2|0:2,0:2:0:0:
0,64,74789,2,0,L|88:86,1,91.2800011142578,2|0,0:2|1:2,0:2:0:0:
288,129,75132,1,10,0:2:0:0:
157,321,75304,6,0,L|134:232,1,91.2800011142578,2|0,0:2|0:2,0:2:0:0:
275,384,75647,2,0,L|252:295,1,91.2800011142578,2|8,1:2|0:2,0:2:0:0:
379,191,75989,6,0,L|356:279,1,91.2800011142578,2|0,0:2|0:2,0:2:0:0:
497,128,76332,2,0,L|474:216,1,91.2800011142578,2|8,1:2|0:2,0:2:0:0:
413,60,76675,1,0,0:2:0:0:
235,194,76847,6,0,B|168:178|168:178|142:136|142:136|77:121,1,182.560002228516,4|10,1:2|0:2,0:2:0:0:
245,16,77361,1,2,3:2:0:0:
239,38,77446,1,0,3:0:0:0:
233,60,77532,1,2,3:2:0:0:
228,82,77618,1,0,3:0:0:0:
222,104,77703,1,2,1:2:0:0:
121,0,77875,1,10,0:2:0:0:
0,190,78047,6,0,L|93:213,1,91.2800011142578,2|0,0:2|1:2,0:2:0:0:
235,281,78389,2,0,L|328:258,1,91.2800011142578,2|8,0:2|0:2,0:2:0:0:
110,384,78732,1,2,3:2:0:0:
110,384,78818,1,0,3:0:0:0:
110,384,78904,2,0,P|106:339|131:302,1,91.2800011142578,2|2,3:2|1:2,0:0:0:0:
260,184,79247,1,10,0:2:0:0:
88,211,79418,1,2,0:2:0:0:
262,372,79589,6,0,L|350:349,1,91.2800011142578,2|2,1:2|3:2,0:0:0:0:
365,332,79847,1,0,3:0:0:0:
365,332,79932,2,0,L|458:355,1,91.2800011142578,10|2,0:2|0:2,0:0:0:0:
391,166,80275,1,2,0:2:0:0:
224,277,80447,1,2,1:2:0:0:
316,110,80618,1,10,0:2:0:0:
440,251,80789,6,0,B|494:205|494:205|463:81,1,182.560002228516,2|2,0:2|1:2,0:2:0:0:
339,17,81304,1,10,0:2:0:0:
294,199,81475,2,0,L|205:176,1,91.2800011142578,2|0,0:2|0:2,0:2:0:0:
316,110,81818,1,0,1:2:0:0:
224,277,81989,2,0,L|135:299,1,91.2800011142578,8|2,0:2|0:2,0:2:0:0:
0,66,82332,6,0,B|63:50|63:50|110:95|171:84,1,182.560002228516,2|8,1:2|0:2,0:2:0:0:
20,241,82847,1,2,3:2:0:0:
25,218,82932,1,0,3:0:0:0:
31,196,83018,1,2,3:2:0:0:
36,174,83104,1,0,3:0:0:0:
42,152,83189,1,2,1:2:0:0:
46,333,83361,1,8,0:2:0:0:
196,175,83532,6,0,B|320:142|320:142|362:176,1,182.560002228516,2|0,0:2|0:0,0:0:0:0:
269,353,84047,2,0,L|292:259,1,91.2800011142578,8|0,0:2|3:0,0:0:0:0:
300,249,84304,1,0,3:0:0:0:
300,249,84389,1,0,3:2:0:0:
379,378,84561,1,0,1:2:0:0:
485,232,84732,1,10,0:2:0:0:
395,279,84904,1,2,0:2:0:0:
264,149,85075,6,0,L|175:171,1,91.2800011142578,2|0,1:2|0:2,0:2:0:0:
300,249,85418,1,10,0:2:0:0:
349,89,85589,1,0,1:2:0:0:
194,262,85761,2,0,P|149:264|110:241,1,91.2800011142578,2|8,0:2|0:2,0:0:0:0:
0,136,86104,1,2,1:2:0:0:
198,82,86275,6,0,L|175:170,1,91.2800011142578,10|0,0:2|1:2,0:0:0:0:
6,248,86618,1,2,0:2:0:0:
96,113,86789,1,8,0:2:0:0:
194,262,86961,2,0,L|282:239,1,91.2800011142578,2|0,1:2|0:2,0:2:0:0:
372,14,87304,5,10,0:2:0:0:
270,149,87475,1,0,1:2:0:0:
449,255,87647,1,8,0:2:0:0:
301,384,87818,5,4,1:2:0:0:
256,192,87989,12,0,90561,0:2:0:0:
512,384,97418,6,0,P|415:266|263:258,1,313.775009575653,0|0,3:2|0:2,0:2:0:0:
209,335,98789,6,0,B|160:323|160:323|124:358|77:349,1,141.810001190117,6|10,1:2|0:3,0:2:0:0:
84,223,99304,2,0,L|92:257,4,35.4525002975292,0|0|0|0|0,3:2|3:2|3:2|3:2|1:2,0:0:0:0:
6,283,99818,1,8,0:3:0:0:
35,152,99989,5,0,1:2:0:0:
35,152,100076,1,0,1:0:0:0:
35,152,100161,2,0,L|112:132,1,70.9050005950584,2|2,1:2|0:2,0:0:0:0:
207,164,100504,1,10,0:3:0:0:
109,46,100676,1,2,3:2:0:0:
109,46,100761,1,0,3:0:0:0:
109,46,100847,2,0,L|206:70,1,70.9050005950584,2|0,3:2|1:2,0:2:0:0:
287,0,101189,6,0,P|287:35|304:66,1,70.9050005950584,10|2,0:3|1:2,0:0:0:0:
373,124,101532,1,2,1:2:0:0:
430,29,101703,1,2,0:2:0:0:
365,138,101875,1,10,2:3:0:0:
499,117,102047,2,0,L|462:257,1,141.810001190117,2|0,3:2|1:2,0:0:0:0:
448,266,102476,1,0,1:0:0:0:
448,266,102561,2,0,L|465:334,1,70.9050005950584,8|0,0:3|1:2,0:2:0:0:
368,380,102904,5,2,1:2:0:0:
275,325,103075,1,2,0:2:0:0:
169,384,103247,2,0,L|152:316,1,70.9050005950584,10|2,0:3|0:2,0:0:0:0:
62,276,103589,2,0,L|45:208,1,70.9050005950584,2|0,0:2|1:2,0:2:0:0:
103,59,103933,1,10,0:3:0:0:
0,112,104104,1,2,1:2:0:0:
151,157,104275,6,0,B|202:169|202:169|222:201|222:201|272:213,1,141.810001190117,2|10,1:2|0:3,0:2:0:0:
306,126,104789,1,2,3:2:0:0:
306,126,104875,1,0,3:2:0:0:
306,126,104960,2,0,L|315:92,2,35.4525002975292,0|0|0,3:2|3:2|1:2,0:0:0:0:
363,267,105303,2,0,L|379:198,1,70.9050005950584,8|0,0:3|1:2,0:2:0:0:
404,114,105647,6,0,P|439:113|469:130,1,70.9050005950584,2|2,1:2|0:2,0:0:0:0:
338,0,105989,1,10,0:3:0:0:
338,0,106161,1,2,0:2:0:0:
246,108,106332,2,0,L|314:91,1,70.9050005950584,2|0,0:2|1:2,0:2:0:0:
210,0,106675,1,10,0:3:0:0:
128,73,106846,1,2,1:2:0:0:
3,3,107018,6,0,P|-3:62|63:131,1,141.810001190117,2|8,1:2|0:3,0:2:0:0:
109,215,107532,1,2,3:2:0:0:
109,215,107617,1,0,3:0:0:0:
109,215,107703,2,0,L|74:223,2,35.4525002975292,0|0|0,3:0|3:0|1:2,0:0:0:0:
84,322,108046,2,0,L|153:304,1,70.9050005950584,10|0,0:3|1:2,0:2:0:0:
234,380,108389,6,0,P|269:321|246:249,1,141.810001190117,2|8,1:2|0:3,0:2:0:0:
199,180,108904,1,0,0:2:0:0:
357,260,109075,1,2,0:2:0:0:
357,260,109160,1,2,0:2:0:0:
357,260,109246,2,0,L|372:197,1,35.4525002975292,2|2,0:2|0:2,0:0:0:0:
452,156,109418,1,2,0:2:0:0:
452,156,109503,1,2,0:2:0:0:
452,156,109589,2,0,L|437:93,1,35.4525002975292,2|2,0:2|0:2,0:2:0:0:
339,5,109761,6,0,P|297:3|262:24,1,83.1300005073852,6|0,1:2|0:2,0:2:0:0:
184,168,110104,1,10,0:2:0:0:
298,167,110276,2,0,P|305:126|318:86,1,83.1300005073852,2|0,0:2|0:2,0:2:0:0:
199,180,110618,1,2,1:2:0:0:
160,45,110789,2,0,P|124:24|83:25,1,83.1300005073852,8|0,0:2|3:2,0:0:0:0:
64,41,111047,5,0,3:0:0:0:
64,41,111132,2,0,L|84:121,1,83.1300005073852,2|0,1:2|0:2,0:2:0:0:
0,245,111475,2,0,B|85:226|64:298|154:281,1,166.26000101477,10|0,0:2|0:2,0:2:0:0:
289,171,111989,1,2,1:2:0:0:
138,192,112161,1,10,0:2:0:0:
248,300,112332,1,2,0:2:0:0:
274,81,112503,6,0,P|314:78|350:99,1,83.1300005073852,2|0,1:2|0:2,0:2:0:0:
447,254,112847,2,0,P|462:172|487:93,1,166.26000101477,10|0,0:2|0:2,0:2:0:0:
375,184,113360,1,2,1:2:0:0:
274,81,113532,2,0,P|233:90|194:103,1,83.1300005073852,10|0,0:2|3:2,0:2:0:0:
185,129,113790,5,0,3:0:0:0:
185,129,113876,2,0,P|175:169|164:209,1,83.1300005073852,2|0,3:2|1:2,0:0:0:0:
50,384,114218,2,0,B|4:345|4:345|30:240,1,166.26000101477,10|0,0:2|0:2,0:2:0:0:
176,303,114733,1,2,1:2:0:0:
86,173,114904,1,10,0:2:0:0:
160,315,115076,1,2,0:2:0:0:
276,166,115247,6,0,P|336:162|384:200,1,124.695000761078,2|0,1:2|0:0,0:2:0:0:
394,215,115590,2,0,P|432:200|473:194,1,83.1300005073852,10|2,0:2|3:2,0:0:0:0:
494,193,115847,1,0,3:0:0:0:
494,193,115933,1,0,3:2:0:0:
428,99,116104,1,2,1:2:0:0:
307,254,116276,1,10,0:2:0:0:
195,145,116447,5,0,3:2:0:0:
195,145,116532,1,0,3:0:0:0:
195,145,116618,2,0,P|235:152|275:165,1,83.1300005073852,2|0,1:2|0:2,0:2:0:0:
192,38,116961,2,0,P|106:79|86:160,1,166.26000101477,10|0,0:2|0:2,0:2:0:0:
140,295,117476,1,2,1:2:0:0:
195,145,117647,1,10,0:2:0:0:
235,255,117818,1,0,0:2:0:0:
64,234,117990,6,0,P|43:269|44:310,1,83.1300005073852,2|0,1:2|0:2,0:2:0:0:
181,384,118332,2,0,P|260:359|341:343,1,166.26000101477,10|0,0:2|0:2,0:2:0:0:
235,255,118847,1,2,1:2:0:0:
352,174,119018,2,0,P|343:214|331:254,1,83.1300005073852,10|0,0:2|0:2,0:2:0:0:
282,101,119361,6,0,P|317:80|359:80,1,83.1300005073852,2|0,0:2|1:2,0:2:0:0:
512,161,119704,2,0,P|470:160|434:140,1,83.1300005073852,10|0,0:2|0:2,0:2:0:0:
404,0,120047,1,2,0:2:0:0:
501,74,120218,1,2,1:2:0:0:
352,174,120389,1,10,0:2:0:0:
271,15,120561,5,2,3:2:0:0:
271,15,120647,1,0,3:0:0:0:
271,15,120733,2,0,P|231:26|190:35,1,83.1300005073852,6|0,1:2|0:2,0:2:0:0:
55,153,121075,2,0,B|93:107|93:107|197:133,1,166.26000101477,10|0,0:2|0:2,0:0:0:0:
84,75,121590,1,2,1:2:0:0:
185,233,121761,2,0,L|265:212,1,83.1300005073852,8|0,0:2|3:2,0:0:0:0:
287,230,122018,5,0,3:0:0:0:
287,230,122104,2,0,P|286:271|266:307,1,83.1300005073852,2|0,1:2|0:2,0:2:0:0:
87,384,122447,2,0,B|118:348|127:305|127:305|100:278|95:221,1,166.26000101477,10|0,0:2|0:2,0:2:0:0:
197,133,122961,1,2,1:2:0:0:
53,145,123133,2,0,P|44:104|32:64,1,83.1300005073852,8|0,0:2|3:2,0:0:0:0:
36,44,123390,5,0,3:0:0:0:
36,44,123476,2,0,P|71:23|112:23,1,83.1300005073852,2|0,1:2|0:2,0:2:0:0:
208,143,123818,2,0,B|294:124|273:197|364:179,1,166.26000101477,10|0,0:2|0:2,0:2:0:0:
512,138,124333,1,2,1:2:0:0:
348,92,124504,1,10,0:2:0:0:
490,38,124676,1,0,0:2:0:0:
458,210,124847,6,0,P|470:249|478:290,1,83.1300005073852,2|0,0:2|1:2,0:0:0:0:
359,384,125190,2,0,P|321:313|242:308,1,166.26000101477,10|0,0:2|0:2,0:2:0:0:
99,237,125704,1,2,1:2:0:0:
135,384,125876,2,0,P|141:342|154:303,1,83.1300005073852,10|0,0:2|0:2,0:0:0:0:
110,140,126218,6,0,B|154:150|154:150|172:178|172:178|216:188,1,124.695000761078,2|0,1:2|0:0,0:2:0:0:
232,176,126561,2,0,L|312:155,1,83.1300005073852,10|2,0:2|3:2,0:2:0:0:
336,157,126818,1,0,3:0:0:0:
336,157,126904,1,0,3:2:0:0:
304,253,127076,1,2,1:2:0:0:
217,85,127247,1,10,0:2:0:0:
412,92,127418,5,0,3:2:0:0:
412,92,127504,1,0,3:0:0:0:
412,92,127590,2,0,P|431:128|431:169,1,83.1300005073852,2|0,1:2|0:2,0:2:0:0:
512,337,127932,2,0,B|396:307|396:307|357:338,1,166.26000101477,10|0,0:2|0:2,0:2:0:0:
232,176,128447,1,2,1:2:0:0:
201,345,128618,1,10,0:2:0:0:
297,256,128790,1,0,0:2:0:0:
111,301,128961,6,0,L|30:321,1,83.1300005073852,2|0,1:2|0:2,0:2:0:0:
60,150,129304,2,0,L|221:190,1,166.26000101477,10|0,0:2|0:2,0:2:0:0:
187,58,129818,1,2,1:2:0:0:
314,179,129990,2,0,P|317:220|297:256,1,83.1300005073852,10|0,0:2|0:2,0:2:0:0:
272,80,130333,6,0,P|300:88|328:94,1,58.6800014326172,2|0,0:2|0:2,0:2:0:0:
429,0,130675,2,0,P|400:8|372:14,1,58.6800014326172,2|0,3:2|0:2,0:2:0:0:
484,196,131018,5,2,0:2:0:0:
512,97,131190,1,2,3:2:0:0:
387,173,131361,5,2,0:2:0:0:
421,295,131533,1,2,0:2:0:0:
260,170,131704,6,0,B|175:201|183:242|107:269,1,182.560002228516,4|10,1:2|0:2,0:2:0:0:
291,364,132218,1,2,3:2:0:0:
286,342,132303,1,0,3:0:0:0:
280,320,132389,1,2,3:2:0:0:
275,298,132475,1,0,3:0:0:0:
269,276,132560,1,2,1:2:0:0:
171,353,132732,1,10,0:2:0:0:
79,171,132904,6,0,P|37:188|9:224,1,91.2800011142578,2|0,0:2|1:2,0:2:0:0:
158,103,133247,2,0,L|128:16,1,91.2800011142578,2|8,0:2|0:2,0:2:0:0:
260,170,133590,1,2,3:2:0:0:
260,170,133675,1,0,3:0:0:0:
260,170,133761,2,0,L|173:199,1,91.2800011142578,2|2,0:2|1:2,0:0:0:0:
280,44,134104,1,10,0:2:0:0:
387,220,134275,1,2,0:2:0:0:
512,103,134447,6,0,L|418:79,1,91.2800011142578,2|2,1:2|3:2,0:0:0:0:
416,100,134704,1,0,3:0:0:0:
416,100,134790,2,0,L|328:123,1,91.2800011142578,10|2,0:2|0:2,0:0:0:0:
512,307,135132,1,2,0:2:0:0:
471,181,135303,1,2,1:2:0:0:
369,339,135475,1,10,0:2:0:0:
218,237,135647,6,0,B|155:277|155:277|157:330|115:374,1,182.560002228516,2|2,0:2|1:2,0:2:0:0:
246,335,136161,1,10,0:2:0:0:
23,212,136332,2,0,L|52:299,1,91.2800011142578,2|0,0:2|0:2,0:2:0:0:
186,102,136675,1,0,1:2:0:0:
117,185,136847,2,0,L|88:98,1,91.2800011142578,8|2,0:2|0:2,0:0:0:0:
244,3,137189,6,0,B|275:49|339:52|339:52|360:28|407:11,1,182.560002228516,2|10,1:2|0:2,0:2:0:0:
485,186,137704,1,2,3:2:0:0:
491,164,137789,1,0,3:0:0:0:
496,142,137875,1,2,3:2:0:0:
502,120,137961,1,0,3:0:0:0:
508,98,138046,1,2,1:2:0:0:
382,206,138218,1,8,0:2:0:0:
502,317,138389,6,0,P|444:378|349:367,1,182.560002228516,2|0,0:2|0:0,0:0:0:0:
237,282,138904,2,0,P|200:308|188:351,1,91.2800011142578,8|0,0:2|3:0,0:0:0:0:
191,367,139161,1,0,3:0:0:0:
191,367,139247,1,0,3:2:0:0:
124,224,139418,1,2,1:2:0:0:
327,282,139589,1,10,0:2:0:0:
247,161,139761,1,2,0:2:0:0:
411,304,139932,6,0,P|460:265|463:182,1,136.920001671387,2|0,1:2|0:0,0:2:0:0:
466,176,140275,2,0,L|379:147,1,91.2800011142578,10|0,0:2|0:2,0:2:0:0:
512,0,140618,2,0,P|496:42|458:65,1,91.2800011142578,2|0,0:2|1:2,0:2:0:0:
355,0,140961,1,10,0:2:0:0:
274,146,141132,6,0,L|229:16,1,136.920001671387,2|0,0:2|0:0,0:2:0:0:
221,0,141475,2,0,L|192:87,1,91.2800011142578,2|8,1:2|0:2,0:2:0:0:
42,218,141818,2,0,L|86:88,1,136.920001671387,2|0,0:2|0:0,0:2:0:0:
95,72,142161,2,0,L|124:159,1,91.2800011142578,2|8,1:2|0:2,0:2:0:0:
201,363,142504,1,0,0:2:0:0:
206,262,142675,6,0,B|139:278|139:278|113:320|113:320|48:335,1,182.560002228516,0|10,1:2|0:2,0:2:0:0:
232,178,143189,1,2,3:2:0:0:
259,191,143274,1,0,3:0:0:0:
281,215,143360,1,2,3:2:0:0:
293,244,143446,1,0,3:0:0:0:
294,276,143531,1,2,1:2:0:0:
386,119,143704,1,10,0:2:0:0:
497,254,143875,6,0,L|408:232,1,91.2800011142578,2|0,0:2|1:2,0:2:0:0:
512,46,144218,2,0,L|423:24,1,91.2800011142578,2|8,0:2|0:2,0:2:0:0:
290,105,144561,1,2,3:2:0:0:
290,105,144647,1,0,3:0:0:0:
290,105,144733,2,0,P|250:82|234:40,1,91.2800011142578,2|2,3:2|1:2,0:0:0:0:
448,220,145075,1,10,0:2:0:0:
393,111,145247,1,2,0:2:0:0:
289,284,145418,6,0,L|201:261,1,91.2800011142578,2|2,1:2|3:2,0:0:0:0:
186,244,145676,1,0,3:0:0:0:
186,244,145761,2,0,L|93:267,1,91.2800011142578,10|2,0:2|0:2,0:0:0:0:
184,358,146104,1,2,0:2:0:0:
262,184,146275,1,2,1:2:0:0:
84,358,146447,1,10,0:2:0:0:
162,157,146618,6,0,P|115:79|27:62,1,182.560002228516,2|2,0:2|1:2,0:2:0:0:
60,157,147132,1,10,0:2:0:0:
208,23,147304,2,0,L|296:44,1,91.2800011142578,2|0,0:2|0:2,0:2:0:0:
452,133,147647,1,0,1:2:0:0:
329,219,147818,2,0,L|350:130,1,91.2800011142578,8|2,0:2|0:2,0:2:0:0:
440,287,148161,6,0,P|374:350|285:343,1,182.560002228516,2|8,1:2|0:2,0:2:0:0:
143,279,148675,1,2,3:2:0:0:
116,292,148760,1,0,3:0:0:0:
94,316,148846,1,2,3:2:0:0:
82,345,148932,1,0,3:0:0:0:
81,377,149017,1,2,1:2:0:0:
235,253,149189,1,8,0:2:0:0:
99,151,149361,6,0,B|130:105|194:102|194:102|215:126|262:143,1,182.560002228516,2|0,0:2|0:0,0:0:0:0:
372,15,149875,2,0,P|316:21|274:53,1,91.2800011142578,8|0,0:2|3:0,0:0:0:0:
278,56,150132,1,0,3:0:0:0:
278,56,150218,1,0,3:2:0:0:
366,201,150389,1,0,1:2:0:0:
435,112,150561,1,10,0:2:0:0:
512,255,150732,1,0,0:2:0:0:
351,384,150904,6,0,L|262:362,1,91.2800011142578,2|0,1:2|0:2,0:2:0:0:
70,247,151247,1,10,0:2:0:0:
134,384,151418,1,0,0:2:0:0:
267,222,151589,2,0,L|178:244,1,91.2800011142578,2|0,0:2|1:2,0:0:0:0:
278,74,151932,1,10,3:2:0:0:
195,140,152104,6,0,P|171:101|172:56,1,91.2800011142578,2|0,0:2|0:2,0:2:0:0:
332,159,152447,2,0,P|355:197|354:242,1,91.2800011142578,2|8,0:2|0:3,0:2:0:0:
422,310,152789,2,0,P|383:338|332:339,1,100.245001529617,2|0,0:2|0:0,0:2:0:0:
319,336,153132,2,0,P|254:355|192:379,1,133.66000203949,2|0,3:2|0:2,0:0:0:0:
70,237,153647,6,0,P|37:220|0:222,1,74.9799974829713,4|0,1:2|0:2,0:2:0:0:
83,335,153989,1,10,0:2:0:0:
159,200,154161,1,2,3:2:0:0:
159,200,154247,1,0,3:0:0:0:
159,200,154332,2,0,L|140:127,1,74.9799974829713,2|2,3:2|1:2,0:0:0:0:
21,96,154675,1,10,0:2:0:0:
131,34,154847,6,0,P|168:35|201:51,1,74.9799974829713,2|0,0:2|1:2,0:2:0:0:
254,216,155189,2,0,L|244:179,1,37.4899987414856,2|0,0:2|0:2,0:2:0:0:
264,203,155361,2,0,L|245:130,1,74.9799974829713,10|0,0:2|0:2,0:2:0:0:
413,0,155704,1,2,0:2:0:0:
413,0,155789,1,2,0:2:0:0:
413,0,155875,2,0,P|410:18|404:36,1,37.4899987414856,2|2,1:2|0:2,0:0:0:0:
435,120,156047,1,10,0:2:0:0:
422,145,156132,1,2,0:2:0:0:
401,163,156218,1,2,0:2:0:0:
374,172,156304,1,2,0:2:0:0:
347,171,156389,6,0,L|311:26,1,149.959994965943,2|10,1:2|0:2,0:2:0:0:
440,252,156904,1,2,0:2:0:0:
440,252,156989,1,2,0:2:0:0:
440,252,157075,2,0,L|512:270,1,74.9799974829713,2|2,0:2|1:2,0:0:0:0:
406,335,157418,1,10,0:2:0:0:
253,172,157589,2,0,P|181:179|146:242,1,149.959994965943,2|2,0:2|1:2,0:2:0:0:
241,384,158104,5,10,0:2:0:0:
275,312,158275,1,2,0:2:0:0:
311,241,158447,1,2,0:2:0:0:
347,170,158618,1,2,1:2:0:0:
440,252,158789,1,10,0:2:0:0:
160,338,158961,5,2,0:2:0:0:
160,338,159047,1,2,0:2:0:0:
160,338,159132,2,0,P|88:316|14:301,1,149.959994965943,2|10,1:2|0:2,0:2:0:0:
146,241,159647,1,2,3:2:0:0:
146,241,159732,1,0,3:0:0:0:
146,241,159818,2,0,P|182:233|218:222,1,74.9799974829713,2|2,3:2|1:2,0:0:0:0:
65,180,160161,1,8,0:2:0:0:
227,125,160332,6,0,B|281:137|281:137|302:171|302:171|355:184,1,149.959994965943,2|0,0:2|0:2,0:2:0:0:
476,75,160847,1,10,0:2:0:0:
352,8,161018,2,0,L|362:45,1,37.4899987414856,2|0,0:2|0:0,0:0:0:0:
342,21,161190,2,0,L|361:94,1,74.9799974829713,2|0,0:2|1:2,0:2:0:0:
404,264,161532,1,10,0:2:0:0:
512,177,161704,1,2,0:2:0:0:
451,349,161875,6,0,P|379:362|321:318,1,149.959994965943,2|10,1:2|0:2,0:2:0:0:
253,199,162389,1,0,3:2:0:0:
253,199,162475,1,0,3:0:0:0:
253,199,162561,2,0,P|195:154|123:168,1,149.959994965943,2|10,3:2|0:2,0:2:0:0:
149,333,163075,6,0,L|167:260,1,74.9799974829713,2|0,0:2|0:2,0:2:0:0:
39,349,163418,2,0,L|57:276,1,74.9799974829713,2|8,1:2|0:2,0:2:0:0:
117,103,163761,6,0,L|135:175,1,74.9799974829713,2|0,0:2|0:2,0:2:0:0:
7,87,164104,2,0,L|25:159,1,74.9799974829713,2|8,1:2|0:2,0:2:0:0:
94,1,164447,6,0,P|131:2|164:18,1,74.9799974829713,2|0,0:2|1:2,0:2:0:0:
240,120,164789,2,0,P|277:119|310:103,1,74.9799974829713,2|8,0:2|0:2,0:2:0:0:
260,0,165132,2,0,L|250:36,2,37.4899987414856,2|0|0,3:2|3:0|3:2,0:2:0:0:
391,57,165475,2,0,L|406:119,2,49.9866649886475,2|2|2,1:2|0:2|0:2,0:0:0:0:
398,120,165818,6,0,L|361:266,1,149.959994965943,2|2,0:2|0:2,0:2:0:0:
301,384,166332,1,10,0:2:0:0:
439,336,166504,1,2,3:2:0:0:
439,336,166589,1,0,3:0:0:0:
439,336,166675,2,0,P|454:301|456:264,1,74.9799974829713,2|2,3:2|1:2,0:0:0:0:
338,182,167018,1,10,0:2:0:0:
225,324,167189,6,0,B|147:307|166:372|84:356,1,149.959994965943,2|2,0:2|0:2,0:2:0:0:
183,212,167704,2,0,L|220:220,1,37.4899987414856,10|2,0:2|0:2,0:0:0:0:
189,226,167876,2,0,L|262:243,1,74.9799974829713,2|2,0:2|0:2,0:0:0:0:
130,130,168218,1,2,1:2:0:0:
95,264,168389,1,10,0:2:0:0:
237,126,168561,6,0,B|340:99|340:99|375:127,1,149.959994965943,2|2,0:2|1:2,0:2:0:0:
352,4,169075,1,10,0:2:0:0:
470,118,169247,2,0,L|451:190,1,74.9799974829713,2|2,0:2|3:2,0:0:0:0:
432,211,169504,1,0,3:2:0:0:
432,211,169589,2,0,L|450:283,1,74.9799974829713,2|10,1:2|0:2,0:0:0:0:
290,369,169932,6,0,B|237:356|237:356|199:393|149:383,1,149.959994965943,2|2,0:2|0:2,0:2:0:0:
248,267,170447,1,8,0:2:0:0:
142,225,170618,1,2,3:2:0:0:
142,225,170704,1,0,3:0:0:0:
142,225,170789,2,0,L|160:297,1,74.9799974829713,0|2,3:2|1:2,0:0:0:0:
35,228,171132,1,8,0:2:0:0:
203,146,171304,5,2,3:2:0:0:
203,146,171389,1,0,3:0:0:0:
203,146,171475,2,0,L|296:169,1,74.9799974829713,2|0,1:2|0:2,0:2:0:0:
358,307,171818,2,0,P|340:274|342:237,1,74.9799974829713,10|0,0:2|3:2,0:2:0:0:
361,226,172075,1,0,3:0:0:0:
361,226,172161,2,0,P|378:193|376:156,1,74.9799974829713,2|2,3:2|1:2,0:0:0:0:
298,38,172504,1,8,0:2:0:0:
275,164,172675,1,2,0:2:0:0:
163,13,172847,6,0,B|108:25|108:25|87:59|87:59|33:72,1,149.959994965943,2|10,1:2|0:2,0:2:0:0:
162,184,173361,2,0,L|185:90,1,74.9799974829713,0|2,1:2|0:2,0:2:0:0:
59,175,173704,1,8,0:2:0:0:
162,285,173875,1,2,1:2:0:0:
45,167,174047,1,10,0:2:0:0:
103,366,174218,6,0,P|135:383|172:384,1,74.9799974829713,0|2,1:2|0:2,0:2:0:0:
323,239,174561,1,8,0:2:0:0:
277,384,174732,2,0,L|258:311,1,74.9799974829713,2|0,1:2|0:2,0:2:0:0:
388,170,175075,5,10,0:2:0:0:
230,218,175247,1,2,1:2:0:0:
334,52,175418,1,10,0:2:0:0:
137,17,175589,5,6,1:2:0:0:
256,192,175761,12,0,178332,0:2:0:0:
