osu file format v14

[General]
AudioFilename: audio.mp3
AudioLeadIn: 0
PreviewTime: 65789
Countdown: 0
SampleSet: Soft
StackLeniency: 0.3
Mode: 0
LetterboxInBreaks: 0
WidescreenStoryboard: 1

[Editor]
DistanceSpacing: 1
BeatDivisor: 4
GridSize: 16
TimelineZoom: 1.6

[Metadata]
Title:Time Bomb (feat. Veela)
TitleUnicode:Time Bomb (feat. Veela)
Artist:Feint & Boyinaband
ArtistUnicode:Feint & Boyinaband
Creator:Kuki1537
Version:Basen's Normal
Source:
Tags:dnb d&b d'n'b drum and n' bass monstercat 007 solace ft. basensorex nyantiaz intiaz majk00 enuhq my angel ram my_angel_ram english electronic edm female vocal featured artist fa
BeatmapID:3924036
BeatmapSetID:1722335

[Difficulty]
HPDrainRate:3.5
CircleSize:3.5
OverallDifficulty:4
ApproachRate:5.5
SliderMultiplier:0.999999999999999
SliderTickRate:1

[Events]
//Background and Video events
0,0,"Konachan.com - 335697 sample.jpg",0,0
//Break Periods
2,90761,97664
//Storyboard Layer 0 (Background)
//Storyboard Layer 1 (Fail)
//Storyboard Layer 2 (Pass)
//Storyboard Layer 3 (Foreground)
//Storyboard Layer 4 (Overlay)
//Storyboard Sound Samples

[TimingPoints]
47,342.857142857143,4,2,22,50,1,0
21989,-111.111111111111,4,2,22,50,0,0
32961,-100,4,2,22,50,0,0
43589,-100,4,2,22,65,0,0
43932,-90.9090909090909,4,2,22,75,0,1
64504,-100,4,2,22,65,0,0
65875,-90.9090909090909,4,2,22,80,0,1
87818,-90.9090909090909,4,2,22,80,0,0
87904,-90.9090909090909,4,2,22,50,0,0
90561,-90.9090909090909,4,2,22,5,0,0
98618,-90.9090909090909,4,2,22,5,0,0
98789,-100,4,2,22,50,0,0
109418,-100,4,2,22,65,0,0
109761,-90.9090909090909,4,2,22,75,0,1
130332,-100,4,2,22,65,0,0
131704,-90.9090909090909,4,2,22,80,0,1
152104,-100,4,2,22,65,0,0
153647,-100,4,2,22,75,0,0
175675,-100,4,2,22,50,0,0
178332,-100,4,2,22,5,0,0

[Colours]
Combo1 : 233,163,112
Combo2 : 182,252,252
Combo3 : 98,217,217
Combo4 : 255,209,159

[HitObjects]
124,50,21989,6,0,P|79:43|35:34,2,89.999997253418,6|10|0,1:2|0:3|0:2,0:2:0:0:
204,9,23018,1,8,0:3:0:0:
271,68,23361,2,0,P|274:90|278:112,2,44.999998626709,2|2|10,1:2|0:2|0:3,0:0:0:0:
310,44,23875,1,2,0:2:0:0:
310,44,24047,2,0,P|348:22|392:27,1,89.999997253418,2|10,0:2|0:3,0:2:0:0:
472,68,24732,5,2,1:2:0:0:
501,158,25075,1,10,0:3:0:0:
501,158,25247,2,0,P|487:223|477:290,1,134.999995880127,2|8,0:2|0:3,0:0:0:0:
402,340,26104,2,0,P|406:362|409:384,2,44.999998626709,2|2|10,1:2|0:2|0:3,0:0:0:0:
367,320,26618,1,2,0:2:0:0:
367,320,26790,2,0,P|328:298|284:303,1,89.999997253418,2|10,0:2|0:3,0:2:0:0:
214,360,27475,5,2,1:2:0:0:
130,342,27818,1,10,0:3:0:0:
130,342,27989,2,0,P|71:316|68:252,1,134.999995880127,2|8,0:2|0:3,0:0:0:0:
51,163,28847,2,0,P|28:158|6:155,2,44.999998626709,2|2|10,1:2|0:2|0:3,0:0:0:0:
82,130,29361,1,2,0:2:0:0:
82,130,29532,2,0,P|126:123|170:114,1,89.999997253418,2|10,0:2|0:3,0:2:0:0:
213,193,30218,6,0,P|257:199|301:208,1,89.999997253418,2|8,1:2|0:3,0:2:0:0:
324,247,30732,1,2,0:2:0:0:
398,306,31075,1,2,1:2:0:0:
398,306,31247,1,10,0:3:0:0:
483,279,31589,2,0,P|504:240|499:196,1,89.999997253418,2|8,1:2|0:3,0:2:0:0:
466,165,32104,2,0,P|472:120|481:76,1,89.999997253418,2|0,0:2|1:2,0:2:0:0:
457,38,32618,1,8,0:3:0:0:
358,52,32961,6,0,P|351:101|340:150,2,99.9999999999999,2|10|0,1:2|0:3|0:2,0:2:0:0:
270,3,33989,1,8,0:3:0:0:
181,50,34332,2,0,P|176:74|172:99,2,50,2|2|10,1:2|0:2|0:3,0:0:0:0:
144,23,34847,1,2,0:2:0:0:
144,23,35018,2,0,P|95:15|55:42,1,99.9999999999999,2|10,0:2|0:3,0:2:0:0:
3,130,35704,5,2,1:2:0:0:
3,130,35875,2,0,P|7:154|11:179,1,50,2|10,0:2|0:3,0:0:0:0:
59,194,36218,2,0,P|48:242|41:292,1,99.9999999999999,2|0,0:2|1:2,0:0:0:0:
72,331,36732,1,8,0:3:0:0:
171,335,37075,2,0,P|175:359|179:384,2,50,2|2|10,1:2|0:2|0:3,0:0:0:0:
217,312,37589,1,2,0:2:0:0:
217,312,37760,2,0,P|244:271|236:223,1,99.9999999999999,2|10,0:2|0:3,0:2:0:0:
192,133,38447,6,0,P|195:108|200:83,1,50,2|0,1:2|0:0,0:2:0:0:
233,46,38789,1,10,0:3:0:0:
233,46,38961,2,0,P|273:18|321:26,1,99.9999999999999,2|0,0:2|1:2,0:0:0:0:
364,51,39475,1,8,0:3:0:0:
432,123,39818,2,0,P|456:118|481:114,2,50,2|2|10,1:2|0:2|0:3,0:0:0:0:
414,172,40333,1,2,0:2:0:0:
414,172,40504,2,0,P|424:220|431:270,1,99.9999999999999,2|10,0:2|0:3,0:2:0:0:
366,347,41189,6,0,P|325:374|277:366,1,99.9999999999999,2|8,1:2|0:3,0:2:0:0:
236,336,41704,1,2,0:2:0:0:
149,381,42047,1,0,1:2:0:0:
149,381,42218,1,10,0:3:0:0:
75,312,42561,2,0,P|64:263|57:213,1,99.9999999999999,2|8,1:2|0:3,0:2:0:0:
8,199,43075,2,0,P|24:125|33:51,1,150,2|2,0:2|0:2,0:0:0:0:
136,10,43932,5,6,1:2:0:0:
197,100,44275,2,0,P|249:110|295:82,1,110.000003356934,10|0,0:2|0:2,0:0:0:0:
334,43,44789,1,2,1:2:0:0:
334,43,44961,1,8,0:2:0:0:
436,2,45304,1,2,1:2:0:0:
492,96,45647,2,0,P|475:148|467:202,1,110.000003356934,10|0,0:2|0:2,0:2:0:0:
419,225,46161,1,2,1:2:0:0:
419,225,46333,1,10,0:2:0:0:
335,154,46675,5,2,1:2:0:0:
232,194,47018,2,0,P|186:165|133:176,1,110.000003356934,10|0,0:2|0:2,0:2:0:0:
91,211,47532,1,2,1:2:0:0:
91,211,47704,1,10,0:2:0:0:
49,312,48047,1,2,0:2:0:0:
136,379,48389,2,0,P|188:362|242:354,1,110.000003356934,10|0,0:2|0:2,0:2:0:0:
288,322,48904,1,2,1:2:0:0:
288,322,49075,2,0,P|314:330|341:334,1,55.0000016784668,10|2,0:2|0:2,0:0:0:0:
396,335,49418,5,2,1:2:0:0:
489,277,49761,2,0,P|517:231|506:178,1,110.000003356934,10|0,0:2|0:2,0:0:0:0:
479,136,50275,1,2,1:2:0:0:
479,136,50447,1,10,0:2:0:0:
459,28,50789,1,2,1:2:0:0:
350,8,51132,2,0,P|297:24|243:32,1,110.000003356934,10|0,0:2|0:2,0:2:0:0:
191,35,51646,1,2,1:2:0:0:
191,35,51818,1,10,0:2:0:0:
86,1,52161,5,2,1:2:0:0:
6,77,52504,2,0,P|-4:129|23:175,1,110.000003356934,10|0,0:2|0:2,0:2:0:0:
74,208,53018,1,2,1:2:0:0:
74,208,53190,1,10,0:2:0:0:
52,315,53532,1,2,0:2:0:0:
144,374,53875,1,10,0:2:0:0:
241,323,54218,2,0,P|244:295|253:269,1,55.0000016784668,2|2,0:2|1:2,0:0:0:0:
296,236,54561,2,0,P|292:208|283:182,1,55.0000016784668,10|2,0:2|0:2,0:0:0:0:
247,141,54904,5,6,1:2:0:0:
289,39,55247,2,0,P|334:10|387:21,1,110.000003356934,10|0,0:2|0:2,0:0:0:0:
438,53,55761,1,2,1:2:0:0:
438,53,55933,1,8,0:2:0:0:
511,134,56276,1,2,1:2:0:0:
450,225,56618,2,0,P|433:277|425:331,1,110.000003356934,10|0,0:2|0:2,0:2:0:0:
391,375,57133,1,2,1:2:0:0:
391,375,57305,1,8,0:2:0:0:
301,311,57647,5,2,1:2:0:0:
210,372,57989,2,0,P|157:382|111:354,1,110.000003356934,10|0,0:2|0:2,0:2:0:0:
75,319,58504,1,2,1:2:0:0:
75,319,58675,2,0,P|71:291|62:265,1,55.0000016784668,10|0,0:2|0:2,0:0:0:0:
31,219,59019,1,2,0:2:0:0:
101,134,59361,2,0,P|117:81|125:27,1,110.000003356934,10|0,0:2|0:2,0:2:0:0:
178,5,59876,1,2,1:2:0:0:
178,5,60047,2,0,P|204:13|231:17,1,55.0000016784668,10|0,0:2|0:2,0:2:0:0:
286,9,60390,5,2,1:2:0:0:
392,34,60732,2,0,P|419:80|409:132,1,110.000003356934,10|0,0:2|0:2,0:0:0:0:
385,185,61247,1,2,1:2:0:0:
385,185,61419,1,10,0:2:0:0:
443,277,61761,1,2,1:2:0:0:
387,371,62104,2,0,P|334:355|280:347,1,110.000003356934,10|0,0:2|0:2,0:2:0:0:
231,367,62618,1,2,1:2:0:0:
231,367,62790,1,10,0:2:0:0:
136,310,63133,5,2,1:2:0:0:
34,351,63475,2,0,P|6:304|16:252,1,110.000003356934,10|0,0:2|0:2,0:2:0:0:
48,208,63990,1,2,1:2:0:0:
48,208,64162,1,10,0:2:0:0:
131,153,64504,6,0,P|179:164|229:171,1,99.9999999999999,2|2,0:2|0:2,0:2:0:0:
303,238,65189,2,0,P|306:262|311:287,2,50,2|2|2,0:2|0:2|0:2,0:0:0:0:
409,208,65875,6,0,P|437:162|427:109,1,110.000003356934,4|10,1:2|0:2,0:2:0:0:
392,74,66389,1,2,0:2:0:0:
392,74,66561,2,0,P|395:46|404:20,2,55.0000016784668,2|2|10,0:2|1:2|0:2,0:0:0:0:
337,81,67075,2,0,P|284:65|230:57,1,110.000003356934,2|2,0:2|0:2,0:2:0:0:
123,52,67761,1,2,0:2:0:0:
123,52,67932,2,0,P|119:24|110:-1,2,55.0000016784668,2|2|10,0:2|1:2|0:2,0:0:0:0:
32,115,68618,6,0,P|3:160|13:213,1,110.000003356934,2|10,1:2|0:2,0:0:0:0:
61,250,69132,1,2,0:2:0:0:
61,250,69304,2,0,P|52:276|48:303,2,55.0000016784668,2|2|10,0:2|1:2|0:2,0:0:0:0:
114,238,69818,1,2,0:2:0:0:
187,320,70161,2,0,P|214:316|240:307,1,55.0000016784668,2|10,1:2|0:2,0:0:0:0:
273,352,70504,2,0,P|327:360|379:375,1,110.000003356934,2|0,0:2|1:2,0:2:0:0:
430,353,71018,1,8,0:2:0:0:
506,274,71361,6,0,P|515:221|487:175,1,110.000003356934,2|10,1:2|0:2,0:2:0:0:
448,135,71875,1,2,0:2:0:0:
375,52,72218,2,0,P|347:48|321:39,1,55.0000016784668,2|8,1:2|0:2,0:2:0:0:
279,75,72561,2,0,P|224:83|172:98,1,110.000003356934,2|0,0:2|0:0,0:0:0:0:
151,150,73075,1,8,0:2:0:0:
200,248,73418,1,0,3:2:0:0:
123,327,73761,2,0,P|96:335|69:339,1,55.0000016784668,10|2,0:2|0:2,0:0:0:0:
24,307,74104,6,0,P|-4:261|5:208,1,110.000003356934,2|10,1:2|0:2,0:2:0:0:
3,98,74789,1,2,0:2:0:0:
105,52,75132,1,10,0:2:0:0:
105,52,75304,2,0,P|131:60|158:64,1,55.0000016784668,2|0,0:2|0:2,0:2:0:0:
211,49,75647,1,2,1:2:0:0:
299,114,75989,2,0,P|351:98|405:90,1,110.000003356934,2|2,0:2|1:2,0:2:0:0:
459,103,76504,1,8,0:2:0:0:
509,201,76847,6,0,P|518:253|490:299,1,110.000003356934,4|10,1:2|0:2,0:2:0:0:
446,331,77361,1,2,0:2:0:0:
446,331,77532,2,0,P|454:357|458:384,2,55.0000016784668,2|2|10,0:2|1:2|0:2,0:0:0:0:
396,306,78047,2,0,P|341:314|289:329,1,110.000003356934,2|2,0:2|0:2,0:2:0:0:
191,289,78733,1,2,0:2:0:0:
191,289,78904,2,0,P|182:315|178:342,2,55.0000016784668,2|2|10,0:2|1:2|0:2,0:0:0:0:
87,250,79589,6,0,P|58:204|68:151,1,110.000003356934,2|10,1:2|0:2,0:0:0:0:
70,99,80104,1,2,0:2:0:0:
70,99,80275,2,0,P|43:90|16:86,2,55.0000016784668,2|2|10,0:2|1:2|0:2,0:0:0:0:
116,68,80790,1,2,0:2:0:0:
213,17,81132,2,0,P|240:13|266:4,1,55.0000016784668,2|10,1:2|0:2,0:0:0:0:
307,41,81475,2,0,P|361:49|413:64,1,110.000003356934,2|0,0:2|1:2,0:2:0:0:
467,50,81990,1,8,0:2:0:0:
510,150,82332,6,0,P|519:202|491:248,1,110.000003356934,2|8,1:2|0:2,0:2:0:0:
385,267,83018,1,2,0:2:0:0:
385,267,83189,2,0,P|358:258|331:254,1,55.0000016784668,2|8,1:2|0:2,0:2:0:0:
296,212,83532,2,0,P|243:227|189:235,1,110.000003356934,2|0,0:2|0:0,0:0:0:0:
139,210,84047,1,8,0:2:0:0:
44,266,84390,1,0,3:2:0:0:
84,368,84732,2,0,P|110:376|137:380,1,55.0000016784668,10|2,0:2|0:2,0:2:0:0:
184,351,85075,6,0,P|229:322|282:332,1,110.000003356934,2|10,1:2|0:2,0:2:0:0:
382,378,85761,1,2,0:2:0:0:
473,315,86104,1,2,1:2:0:0:
473,315,86275,2,0,P|476:287|485:261,1,55.0000016784668,10|0,0:2|1:2,0:0:0:0:
509,212,86618,1,2,0:2:0:0:
420,146,86961,2,0,P|411:91|396:39,1,110.000003356934,2|10,1:2|0:2,0:2:0:0:
344,18,87475,2,0,P|316:21|290:30,1,55.0000016784668,0|8,1:2|0:2,0:0:0:0:
254,71,87818,5,4,1:2:0:0:
256,192,87989,12,0,90561,0:2:0:0:
113,340,98789,6,0,P|64:333|15:322,2,99.9999999999999,6|10|0,1:2|0:3|0:2,0:2:0:0:
192,279,99817,1,8,0:3:0:0:
277,330,100161,2,0,P|282:354|286:379,2,50,2|2|10,1:2|0:2|0:3,0:0:0:0:
318,300,100675,1,2,0:2:0:0:
318,300,100847,2,0,P|358:272|406:281,1,99.9999999999999,2|10,0:2|0:3,0:2:0:0:
492,226,101532,5,2,1:2:0:0:
492,226,101704,2,0,P|488:202|484:177,1,50,2|10,0:2|0:3,0:0:0:0:
440,151,102047,2,0,P|451:103|458:53,1,99.9999999999999,2|0,0:2|1:2,0:2:0:0:
420,20,102560,1,8,0:3:0:0:
330,65,102904,2,0,P|326:89|322:114,2,50,2|2|10,1:2|0:2|0:3,0:0:0:0:
295,36,103418,1,2,0:2:0:0:
295,36,103589,2,0,P|254:8|206:17,1,99.9999999999999,2|10,0:2|0:3,0:2:0:0:
105,20,104275,6,0,P|101:44|97:69,1,50,2|0,1:2|0:0,0:2:0:0:
54,91,104617,1,10,0:3:0:0:
54,91,104789,2,0,P|65:139|72:189,1,99.9999999999999,2|0,0:2|1:2,0:0:0:0:
103,227,105303,1,8,0:3:0:0:
194,186,105647,2,0,P|197:161|202:136,2,50,2|2|10,1:2|0:2|0:3,0:0:0:0:
231,227,106161,1,2,0:2:0:0:
231,227,106332,2,0,P|279:235|319:208,1,99.9999999999999,2|10,0:2|0:3,0:2:0:0:
376,125,107018,6,0,P|424:116|464:143,1,99.9999999999999,2|8,1:2|0:3,0:2:0:0:
488,188,107532,1,2,0:2:0:0:
512,289,107875,1,0,1:2:0:0:
512,289,108046,1,10,0:3:0:0:
437,356,108389,2,0,P|388:344|338:337,1,99.9999999999999,2|8,1:2|0:3,0:2:0:0:
303,301,108904,2,0,P|229:317|155:326,1,150,0|2,0:2|0:2,0:0:0:0:
63,364,109760,5,6,1:2:0:0:
1,272,110104,2,0,P|-9:220|19:174,1,110.000003356934,10|0,0:2|0:2,0:0:0:0:
72,151,110617,1,2,1:2:0:0:
72,151,110789,1,8,0:2:0:0:
34,47,111132,1,2,1:2:0:0:
135,3,111475,2,0,P|187:20|241:28,1,110.000003356934,10|0,0:2|0:2,0:2:0:0:
300,36,111989,1,2,1:2:0:0:
300,36,112161,1,10,0:2:0:0:
405,4,112503,5,2,1:2:0:0:
494,68,112847,2,0,P|522:113|512:166,1,110.000003356934,10|0,0:2|0:2,0:2:0:0:
484,215,113360,1,2,1:2:0:0:
484,215,113532,1,10,0:2:0:0:
508,322,113875,1,2,0:2:0:0:
412,377,114218,2,0,P|360:360|306:352,1,110.000003356934,10|0,0:2|0:2,0:2:0:0:
271,315,114732,1,2,1:2:0:0:
271,315,114904,2,0,P|279:289|283:262,1,55.0000016784668,10|2,0:2|0:2,0:0:0:0:
259,211,115246,5,2,1:2:0:0:
339,136,115589,2,0,P|348:83|320:37,1,110.000003356934,10|0,0:2|0:2,0:0:0:0:
277,12,116103,1,2,1:2:0:0:
277,12,116275,1,10,0:2:0:0:
176,56,116617,1,2,1:2:0:0:
74,13,116961,2,0,P|57:65|49:119,1,110.000003356934,10|0,0:2|0:2,0:2:0:0:
51,178,117474,1,2,1:2:0:0:
51,178,117646,1,10,0:2:0:0:
0,275,117989,5,2,1:2:0:0:
71,358,118332,2,0,P|123:367|169:339,1,110.000003356934,10|0,0:2|0:2,0:2:0:0:
209,301,118846,1,2,1:2:0:0:
209,301,119018,1,10,0:2:0:0:
290,374,119360,1,2,0:2:0:0:
396,345,119703,1,10,0:2:0:0:
438,243,120047,2,0,P|446:217|450:190,1,55.0000016784668,2|2,0:2|1:2,0:0:0:0:
493,156,120389,2,0,P|485:130|481:103,1,55.0000016784668,10|2,0:2|0:2,0:0:0:0:
482,47,120732,5,6,1:2:0:0:
380,4,121075,2,0,P|327:21|273:29,1,110.000003356934,10|0,0:2|0:2,0:0:0:0:
222,32,121589,1,2,1:2:0:0:
222,32,121761,1,8,0:2:0:0:
115,3,122104,1,2,1:2:0:0:
35,78,122447,2,0,P|25:130|53:176,1,110.000003356934,10|0,0:2|0:2,0:2:0:0:
104,209,122961,1,2,1:2:0:0:
104,209,123133,1,8,0:2:0:0:
209,240,123475,5,2,1:2:0:0:
284,160,123818,2,0,P|336:142|390:134,1,110.000003356934,10|0,0:2|0:2,0:2:0:0:
445,158,124332,1,2,1:2:0:0:
445,158,124504,2,0,P|453:184|457:211,1,55.0000016784668,10|0,0:2|0:2,0:0:0:0:
499,247,124847,1,2,0:2:0:0:
460,349,125189,2,0,P|414:377|361:367,1,110.000003356934,10|0,0:2|0:2,0:2:0:0:
322,336,125704,1,2,1:2:0:0:
322,336,125875,2,0,P|296:328|269:324,1,55.0000016784668,10|0,0:2|0:2,0:0:0:0:
218,347,126218,5,2,1:2:0:0:
109,367,126561,2,0,P|91:314|83:260,1,110.000003356934,10|0,0:2|0:2,0:2:0:0:
84,209,127075,1,2,1:2:0:0:
84,209,127247,1,10,0:2:0:0:
32,112,127589,1,2,1:2:0:0:
106,31,127932,2,0,P|151:2|204:12,1,110.000003356934,10|0,0:2|0:2,0:2:0:0:
248,53,128446,1,2,1:2:0:0:
248,53,128618,1,10,0:2:0:0:
344,0,128961,5,2,1:2:0:0:
439,54,129304,2,0,P|446:108|464:160,1,110.000003356934,10|0,0:2|0:2,0:2:0:0:
498,210,129818,1,2,1:2:0:0:
498,210,129990,1,10,0:2:0:0:
460,302,130332,6,0,P|410:308|361:320,1,99.9999999999999,2|2,0:2|0:2,0:2:0:0:
269,281,131017,2,0,P|264:305|260:330,2,50,2|2|2,0:2|0:2|0:2,0:0:0:0:
341,197,131704,6,0,P|369:151|359:98,1,110.000003356934,4|10,1:2|0:2,0:2:0:0:
322,65,132218,1,2,0:2:0:0:
322,65,132390,2,0,P|325:37|334:11,2,55.0000016784668,2|2|10,0:2|1:2|0:2,0:0:0:0:
267,72,132904,2,0,P|212:63|160:48,1,110.000003356934,2|2,0:2|0:2,0:2:0:0:
73,114,133589,1,2,0:2:0:0:
73,114,133761,2,0,P|45:116|19:125,2,55.0000016784668,2|2|10,0:2|1:2|0:2,0:0:0:0:
133,206,134447,6,0,P|104:251|114:304,1,110.000003356934,2|10,1:2|0:2,0:0:0:0:
167,331,134960,1,2,0:2:0:0:
167,331,135132,2,0,P|175:356|178:384,2,55.0000016784668,2|2|10,0:2|1:2|0:2,0:0:0:0:
215,304,135646,1,2,0:2:0:0:
316,345,135989,2,0,P|341:336|369:333,1,55.0000016784668,2|10,1:2|0:2,0:0:0:0:
413,300,136332,2,0,P|441:254|431:201,1,110.000003356934,2|0,0:2|1:2,0:2:0:0:
398,157,136846,1,8,0:2:0:0:
329,70,137189,6,0,P|274:61|222:46,1,110.000003356934,2|10,1:2|0:2,0:2:0:0:
169,27,137703,1,2,0:2:0:0:
77,88,138047,2,0,P|68:113|65:141,1,55.0000016784668,2|8,1:2|0:2,0:2:0:0:
91,189,138389,2,0,P|136:217|189:207,1,110.000003356934,2|0,0:2|0:0,0:0:0:0:
231,171,138903,1,8,0:2:0:0:
329,220,139246,1,0,3:2:0:0:
409,144,139589,2,0,P|436:146|462:155,1,55.0000016784668,10|2,0:2|0:2,0:0:0:0:
498,197,139932,6,0,P|482:249|474:303,1,110.000003356934,2|10,1:2|0:2,0:2:0:0:
396,382,140617,1,2,0:2:0:0:
299,340,140960,1,10,0:2:0:0:
299,340,141132,2,0,P|273:331|245:328,1,55.0000016784668,2|0,0:2|0:2,0:2:0:0:
196,354,141475,1,2,1:2:0:0:
89,380,141818,2,0,P|60:334|70:281,1,110.000003356934,2|2,0:2|1:2,0:2:0:0:
108,241,142332,1,8,0:2:0:0:
19,176,142675,6,0,P|27:121|42:69,1,110.000003356934,0|10,1:2|0:2,0:2:0:0:
98,52,143189,1,2,0:2:0:0:
98,52,143361,2,0,P|95:24|86:-1,2,55.0000016784668,2|2|10,0:2|1:2|0:2,0:0:0:0:
150,68,143875,2,0,P|195:39|248:49,1,110.000003356934,2|2,0:2|0:2,0:2:0:0:
340,119,144561,1,2,0:2:0:0:
340,119,144732,2,0,P|331:144|328:172,2,55.0000016784668,2|2|10,0:2|1:2|0:2,0:0:0:0:
427,52,145418,6,0,P|442:104|450:158,1,110.000003356934,2|10,1:2|0:2,0:0:0:0:
459,217,145932,1,2,0:2:0:0:
459,217,146104,2,0,P|486:219|512:228,2,55.0000016784668,2|2|10,0:2|1:2|0:2,0:0:0:0:
421,257,146618,1,2,0:2:0:0:
338,329,146961,2,0,P|312:337|284:340,1,55.0000016784668,2|10,1:2|0:2,0:0:0:0:
237,311,147304,2,0,P|208:265|218:212,1,110.000003356934,2|0,0:2|1:2,0:2:0:0:
256,172,147818,1,8,0:2:0:0:
227,65,148161,6,0,P|172:56|120:41,1,110.000003356934,2|8,1:2|0:2,0:2:0:0:
35,110,148846,1,2,0:2:0:0:
35,110,149018,2,0,P|43:135|46:163,1,55.0000016784668,2|8,1:2|0:2,0:2:0:0:
20,212,149361,2,0,P|-8:257|1:310,1,110.000003356934,2|0,0:2|0:0,0:0:0:0:
34,354,149875,1,8,0:2:0:0:
133,306,150218,1,0,3:2:0:0:
224,366,150561,2,0,P|249:374|277:377,1,55.0000016784668,10|0,0:2|0:2,0:2:0:0:
318,341,150904,6,0,P|363:312|416:322,1,110.000003356934,2|10,1:2|0:2,0:2:0:0:
511,266,151589,1,2,0:2:0:0:
478,165,151932,1,10,3:2:0:0:
478,165,152104,6,0,P|481:140|487:115,1,50,2|0,0:2|0:2,0:2:0:0:
454,77,152446,1,2,0:2:0:0:
374,15,152789,2,0,P|326:26|276:33,1,99.9999999999999,2|2,0:2|3:2,0:2:0:0:
237,66,153304,2,0,P|212:60|187:56,1,50,0|0,0:2|0:2,0:2:0:0:
150,23,153646,5,4,1:2:0:0:
58,62,153989,2,0,P|52:86|48:111,1,50,10|2,0:2|0:2,0:0:0:0:
10,143,154332,2,0,P|1:190|29:230,1,99.9999999999999,2|10,0:2|0:2,0:0:0:0:
78,241,154847,1,2,0:2:0:0:
167,193,155189,1,2,0:2:0:0:
167,193,155361,1,10,0:2:0:0:
258,233,155704,2,0,P|282:229|307:223,1,50,2|2,0:2|1:2,0:0:0:0:
352,202,156047,1,10,0:2:0:0:
451,198,156389,6,0,P|478:237|470:285,1,99.9999999999999,2|10,1:2|0:2,0:2:0:0:
433,320,156904,1,2,0:2:0:0:
433,320,157075,2,0,P|436:344|442:369,2,50,2|2|10,0:2|1:2|0:2,0:0:0:0:
384,306,157589,1,2,0:2:0:0:
308,370,157932,1,2,1:2:0:0:
308,370,158104,2,0,P|283:366|258:360,1,50,10|2,0:2|0:2,0:2:0:0:
217,331,158447,2,0,P|192:334|167:340,1,50,2|2,0:2|1:2,0:2:0:0:
127,369,158789,1,10,0:2:0:0:
28,351,159132,6,0,P|0:311|8:263,1,99.9999999999999,2|10,1:2|0:2,0:2:0:0:
34,219,159647,1,2,0:2:0:0:
96,141,159989,2,0,P|92:116|86:91,1,50,2|8,1:2|0:2,0:2:0:0:
115,49,160332,2,0,P|168:0|239:13,1,150,2|10,0:2|0:2,0:2:0:0:
315,78,161189,1,2,0:2:0:0:
404,32,161532,2,0,P|428:37|453:41,1,50,10|2,0:2|0:2,0:2:0:0:
489,75,161875,6,0,P|500:123|507:173,1,99.9999999999999,2|10,1:2|0:2,0:2:0:0:
494,272,162561,2,0,P|454:299|406:291,1,99.9999999999999,2|10,0:2|0:2,0:2:0:0:
357,303,163075,1,2,0:2:0:0:
273,248,163418,2,0,P|278:223|282:198,1,50,2|8,1:2|0:2,0:2:0:0:
256,155,163761,1,2,0:2:0:0:
166,110,164104,2,0,P|160:85|156:60,1,50,2|8,1:2|0:2,0:2:0:0:
115,32,164447,6,0,P|66:23|26:50,1,99.9999999999999,2|2,0:2|0:2,0:2:0:0:
2,147,165132,1,2,0:2:0:0:
58,229,165475,2,0,P|83:223|108:219,1,50,2|10,1:2|0:2,0:2:0:0:
148,247,165818,2,0,P|137:295|130:345,2,99.9999999999999,2|2|2,0:2|0:2|0:2,0:2:0:0:
195,232,166675,1,2,0:2:0:0:
249,322,167018,1,10,0:2:0:0:
249,322,167189,6,0,P|297:310|347:303,1,99.9999999999999,2|2,0:2|0:2,0:2:0:0:
390,328,167704,1,10,0:2:0:0:
462,259,168047,2,0,P|487:265|512:269,2,50,2|2|10,0:2|1:2|0:2,0:0:0:0:
435,216,168561,1,2,0:2:0:0:
394,124,168904,2,0,P|398:99|403:75,1,50,2|10,1:2|0:2,0:0:0:0:
372,35,169247,2,0,P|332:6|284:14,1,99.9999999999999,2|2,0:2|1:2,0:0:0:0:
245,45,169761,1,10,0:2:0:0:
152,7,170104,6,0,P|102:13|53:25,1,99.9999999999999,0|8,1:2|0:2,0:0:0:0:
22,64,170618,1,2,0:2:0:0:
4,162,170961,2,0,P|28:166|52:171,1,50,2|8,1:2|0:2,0:2:0:0:
83,211,171304,2,0,P|122:239|170:231,1,99.9999999999999,2|0,0:2|0:2,0:0:0:0:
215,210,171818,1,10,0:2:0:0:
273,128,172161,2,0,P|268:103|263:79,2,50,2|2|8,0:2|1:2|0:2,0:0:0:0:
364,169,172847,6,0,P|412:157|462:150,1,99.9999999999999,2|10,1:2|0:2,0:2:0:0:
504,178,173361,1,0,1:2:0:0:
493,280,173704,1,8,0:2:0:0:
493,280,173875,2,0,P|468:285|444:289,1,50,2|10,1:2|0:2,0:0:0:0:
420,334,174218,2,0,P|380:362|332:354,1,99.9999999999999,0|8,1:2|0:2,0:2:0:0:
289,328,174732,1,2,1:2:0:0:
203,377,175075,1,10,0:2:0:0:
203,377,175247,2,0,P|178:371|154:367,1,50,2|10,1:2|0:2,0:0:0:0:
104,374,175589,5,6,1:2:0:0:
256,192,175761,12,0,178332,0:2:0:0:
