osu file format v14

[General]
AudioFilename: audio.mp3
AudioLeadIn: 0
PreviewTime: 65893
Countdown: 0
SampleSet: Normal
StackLeniency: 0.7
Mode: 2
LetterboxInBreaks: 0
WidescreenStoryboard: 1

[Editor]
DistanceSpacing: 1
BeatDivisor: 4
GridSize: 32
TimelineZoom: 1.6

[Metadata]
Title:Time Bomb (feat. Veela)
TitleUnicode:Time Bomb (feat. Veela)
Artist:Feint & Boyinaband
ArtistUnicode:Feint & Boyinaband
Creator:IDu5t
Version:Zeitraffer
Source:
Tags:idust dnb d&b d'n'b drum and n' bass monstercat 007 solace ft.
BeatmapID:1905956
BeatmapSetID:912369

[Difficulty]
HPDrainRate:7
CircleSize:4.5
OverallDifficulty:9.2
ApproachRate:9.2
SliderMultiplier:2
SliderTickRate:2

[Events]
//Background and Video events
0,0,"bg.png",0,0
//Break Periods
//Storyboard Layer 0 (Background)
//Storyboard Layer 1 (Fail)
//Storyboard Layer 2 (Pass)
//Storyboard Layer 3 (Foreground)
//Storyboard Sound Samples

[TimingPoints]
151,342.857142857143,4,2,1,42,1,0
21751,-100,4,2,1,5,0,0
22093,-100,4,2,1,50,0,0
43351,-100,4,2,1,58,0,0
43693,-100,4,2,1,66,0,0
44036,-100,4,1,1,74,0,1
55008,-100,4,1,1,74,0,1
64608,-100,4,2,1,50,0,0
65636,-100,4,2,1,58,0,0
65808,-100,4,2,1,66,0,0
65979,-100,4,1,1,74,0,1
76951,-100,4,1,1,74,0,1
87922,-100,4,1,1,50,0,0
109865,-100,4,1,1,50,0,0
112608,-100,4,1,1,34,0,0

[Colours]
Combo1 : 174,174,174
Combo2 : 0,108,217
Combo3 : 12,196,205

[HitObjects]
256,192,19351,12,0,21751,0:0:0:0:
291,330,22093,6,0,P|295:216|295:216,1,100,2|0,0:0|0:0,0:0:0:0:
143,236,22436,1,10,0:0:0:0:
302,162,22608,2,0,L|308:108,1,50
227,122,22779,2,0,P|219:59|219:59,1,50,0|0,0:0|0:0,0:0:0:0:
303,33,22951,1,0,0:0:0:0:
131,326,23122,2,0,L|121:221,1,100,8|0,0:0|0:0,0:0:0:0:
355,220,23465,6,0,L|469:212,1,100,2|0,0:0|0:0,0:0:0:0:
281,93,23808,1,8,0:0:0:0:
452,73,23979,2,0,P|461:130|461:130,1,50,0|0,0:0|0:0,0:0:0:0:
282,306,24151,2,0,P|222:313|222:313,2,50,2|0|0,0:0|0:0|0:0,0:0:0:0:
451,264,24493,2,0,P|441:152|441:152,1,100,8|0,0:0|0:0,0:0:0:0:
200,172,24836,6,0,L|318:165,1,100,2|0,0:0|0:0,0:0:0:0:
197,67,25179,1,8,0:0:0:0:
440,313,25351,2,0,L|445:251,1,50,2|0,0:0|0:0,0:0:0:0:
358,249,25522,2,0,P|349:193|349:193,1,50,0|0,0:0|0:0,0:0:0:0:
437,179,25693,1,0,0:0:0:0:
267,109,25865,2,0,P|384:99|384:99,1,100,8|0,0:0|0:0,0:0:0:0:
125,274,26208,6,0,L|6:266,1,100,2|0,0:0|0:0,0:0:0:0:
198,168,26551,1,8,0:0:0:0:
27,171,26722,2,0,P|37:110|37:110,1,50,0|0,0:0|0:0,0:0:0:0:
211,236,26893,1,2,0:0:0:0:
261,236,26979,1,0,0:0:0:0:
311,236,27065,1,0,0:0:0:0:
143,158,27236,2,0,B|37:148|37:148|38:148,1,100,8|0,0:0|0:0,0:0:0:0:
286,324,27579,6,0,L|294:209,1,100,2|0,0:0|0:0,0:0:0:0:
123,210,27922,1,8,0:0:0:0:
361,150,28093,2,0,P|375:95|375:95,1,50,2|0,0:0|0:0,0:0:0:0:
284,100,28265,2,0,P|299:42|299:42,1,50,0|0,0:0|0:0,0:0:0:0:
385,29,28436,1,0,0:0:0:0:
214,324,28608,2,0,P|208:212|208:212,1,100,8|0,0:0|0:0,0:0:0:0:
451,264,28951,6,0,L|457:147,1,100,2|0,0:0|0:0,0:0:0:0:
285,153,29293,1,8,0:0:0:0:
457,103,29465,2,0,L|448:42,1,50,0|0,0:0|0:0,0:0:0:0:
274,265,29636,2,0,B|214:266,1,50,2|0,0:0|0:0,0:0:0:0:
224,215,29808,1,0,0:0:0:0:
394,232,29979,2,0,L|400:127,1,100,8|0,0:0|0:0,0:0:0:0:
157,327,30322,6,0,P|99:304|158:217,1,200,2|8,0:0|0:0,0:0:0:0:
328,227,30836,2,0,P|340:115|340:115,1,100,2|0,0:0|0:0,0:0:0:0:
166,82,31179,2,0,P|270:74|270:74,2,100,0|8|0,0:0|0:0|0:0,0:0:0:0:
407,304,31693,6,0,L|397:201,1,100,2|0,0:0|0:0,0:0:0:0:
226,195,32036,1,8,0:0:0:0:
468,158,32208,2,0,P|452:100|452:100,1,50,2|0,0:0|0:0,0:0:0:0:
367,125,32379,2,0,P|386:71|386:71,1,50
471,37,32551,1,0,0:0:0:0:
299,277,32722,2,0,L|420:272,1,100,8|0,0:0|0:0,0:0:0:0:
156,230,33065,6,0,P|152:115|152:115,1,100,2|0,0:0|0:0,0:0:0:0:
324,122,33408,1,10,0:0:0:0:
153,299,33579,2,0,P|101:286|101:286,1,50,0|0,0:0|0:0,0:0:0:0:
191,220,33751,2,0,P|254:230|254:230,1,50
152,130,33922,1,0,0:0:0:0:
322,280,34093,2,0,P|429:271|429:271,1,100,8|0,0:0|0:0,0:0:0:0:
178,252,34436,6,0,P|173:146|173:146,1,100,2|0,0:0|0:0,0:0:0:0:
343,132,34779,1,8,0:0:0:0:
171,92,34951,2,0,L|156:37,1,50,0|0,0:0|0:0,0:0:0:0:
335,279,35122,2,0,P|393:279|393:279,2,50,2|0|0,0:0|0:0|0:0,0:0:0:0:
165,257,35465,2,0,L|56:247,1,100,8|0,0:0|0:0,0:0:0:0:
308,152,35808,6,0,P|193:141|193:141,2,100,2|0|8,0:0|0:0|0:0,0:0:0:0:
134,295,36322,2,0,P|118:232|118:232,1,50
211,224,36493,2,0,L|264:225,1,50,2|0,0:0|0:0,0:0:0:0:
311,227,36665,1,0,0:0:0:0:
139,94,36836,2,0,L|124:195,1,100,8|0,0:0|0:0,0:0:0:0:
365,83,37179,6,0,P|251:74|251:74,1,100,2|0,0:0|0:0,0:0:0:0:
436,283,37522,1,8,0:0:0:0:
264,263,37693,2,0,P|202:263|202:263,1,50,0|0,0:0|0:0,0:0:0:0:
394,172,37865,2,0,P|460:172|460:172,2,50,2|0|0,0:0|0:0|0:0,0:0:0:0:
228,100,38208,2,0,P|336:93|336:93,1,100,8|0,0:0|0:0,0:0:0:0:
87,306,38551,6,0,L|107:193,1,100,2|0,0:0|0:0,0:0:0:0:
273,212,38893,1,8,0:0:0:0:
34,143,39065,2,0,L|23:206,1,50,2|0,0:0|0:0,0:0:0:0:
114,106,39236,2,0,L|121:55,1,50
27,261,39408,1,0,0:0:0:0:
204,299,39579,2,0,P|312:293|312:293,1,100,8|0,0:0|0:0,0:0:0:0:
68,154,39922,6,0,L|186:147,1,100,2|0,0:0|0:0,0:0:0:0:
338,98,40265,1,8,0:0:0:0:
175,52,40436,2,0,P|163:110|163:110,1,50
356,286,40608,1,2,0:0:0:0:
405,286,40693,1,0,0:0:0:0:
455,284,40779,1,0,0:0:0:0:
282,184,40951,2,0,P|390:180|390:180,1,100,8|0,0:0|0:0,0:0:0:0:
141,305,41293,6,0,P|84:268|175:208,1,200,2|8,0:0|0:0,0:0:0:0:
331,199,41808,2,0,L|119:163,1,200,2|0,0:0|0:0,0:0:0:0:
304,312,42322,2,0,L|411:304,1,100,8|0,0:0|0:0,0:0:0:0:
151,266,42665,2,0,P|157:202|290:159,1,200,2|8,0:0|0:0,0:0:0:0:
444,160,43179,1,2,0:0:0:0:
177,280,43351,6,0,L|169:220,1,50
310,267,43522,2,0,P|316:206|316:206,1,50
143,88,43693,2,0,L|72:87,1,50
308,90,43865,2,0,L|376:90,1,50
101,330,44036,6,0,P|98:210|98:210,1,100,6|0,0:0|0:0,0:0:0:0:
273,216,44379,2,0,P|343:211|352:100,1,200,10|0,0:0|0:0,0:0:0:0:
111,114,44893,2,0,L|220:121,2,100,2|8|0,0:0|0:0|0:0,0:0:0:0:
354,317,45408,6,0,L|363:205,1,100,2|0,0:0|0:0,0:0:0:0:
189,228,45751,2,0,P|156:172|265:136,1,200,10|0,0:0|0:0,0:0:0:0:
491,98,46265,2,0,B|386:89|387:89,2,100,2|8|0,0:0|0:0|0:0,0:0:0:0:
249,312,46779,6,0,P|240:207|240:207,1,100,2|0,0:0|0:0,0:0:0:0:
414,202,47122,2,0,P|459:171|363:111,1,200,10|0,0:0|0:0,0:0:0:0:
140,113,47636,1,2,0:0:0:0:
382,318,47808,2,0,L|489:315,1,100,10|0,0:0|0:0,0:0:0:0:
240,248,48151,6,0,P|232:146|232:146,1,100,2|0,0:0|0:0,0:0:0:0:
405,123,48493,2,0,L|197:115,1,200,10|0,0:0|0:0,0:0:0:0:
485,257,49008,1,2,0:0:0:0:
247,212,49179,2,0,L|360:204,1,100,10|0,0:0|0:0,0:0:0:0:
105,241,49522,6,0,B|119:128,1,100,2|0,0:0|0:0,0:0:0:0:
290,123,49865,2,0,P|350:86|265:37,1,200,10|0,0:0|0:0,0:0:0:0:
30,248,50379,1,2,0:0:0:0:
273,273,50551,2,0,P|375:278|375:278,1,100,10|0,0:0|0:0,0:0:0:0:
134,197,50893,6,0,P|125:93|125:93,1,100,2|0,0:0|0:0,0:0:0:0:
299,49,51236,2,0,P|368:62|318:149,1,200,10|2,0:0|0:0,0:0:0:0:
270,149,51665,1,0,0:0:0:0:
351,200,51751,2,0,L|406:202,1,50,2|0,0:0|0:0,0:0:0:0:
208,310,51922,2,0,L|199:202,1,100,10|0,0:0|0:0,0:0:0:0:
447,156,52265,6,0,P|427:52|427:52,1,100,2|0,0:0|0:0,0:0:0:0:
258,184,52608,2,0,P|203:178|142:50,1,200,10|0,0:0|0:0,0:0:0:0:
313,53,53122,1,2,0:0:0:0:
140,298,53293,2,0,P|134:172|134:172,1,100,10|0,0:0|0:0,0:0:0:0:
373,280,53636,6,0,L|380:161,1,100,2|0,0:0|0:0,0:0:0:0:
208,219,53979,2,0,P|195:105|195:105,1,100,10|0,0:0|0:0,0:0:0:0:
348,63,54322,1,2,0:0:0:0:
178,137,54493,1,2,0:0:0:0:
421,266,54665,1,10,0:0:0:0:
159,317,54836,1,2,0:0:0:0:
403,200,55008,6,0,P|413:87|413:87,1,100,6|0,0:0|0:0,0:0:0:0:
233,327,55351,2,0,L|450:312,1,200,10|0,0:0|0:0,0:0:0:0:
157,145,55865,2,0,L|271:136,2,100,2|8|0,0:0|0:0|0:0,0:0:0:0:
399,313,56379,6,0,L|373:205,1,100,2|0,0:0|0:0,0:0:0:0:
197,239,56722,2,0,P|139:213|212:150,1,200,10|0,0:0|0:0,0:0:0:0:
455,86,57236,2,0,P|342:80|342:80,2,100,2|8|0,0:0|0:0|0:0,0:0:0:0:
209,318,57751,6,0,P|197:217|197:217,1,100,2|0,0:0|0:0,0:0:0:0:
367,222,58093,2,0,P|389:161|272:98,1,200,10|0,0:0|0:0,0:0:0:0:
53,90,58608,1,2,0:0:0:0:
293,293,58779,2,0,P|400:285|400:285,1,100,10|0,0:0|0:0,0:0:0:0:
151,219,59122,6,0,P|141:112|141:112,1,100,2|0,0:0|0:0,0:0:0:0:
314,215,59465,2,0,L|93:194,1,200,10|0,0:0|0:0,0:0:0:0:
412,79,59979,1,2,0:0:0:0:
171,301,60151,2,0,P|64:296|64:296,1,100,10|0,0:0|0:0,0:0:0:0:
313,240,60493,6,0,L|294:138,1,100,2|0,0:0|0:0,0:0:0:0:
124,168,60836,2,0,P|118:113|238:48,1,200,10|0,0:0|0:0,0:0:0:0:
481,143,61351,1,2,0:0:0:0:
239,303,61522,2,0,P|231:192|231:192,1,100,10|0,0:0|0:0,0:0:0:0:
473,290,61865,6,0,P|463:181|463:181,1,100,2|0,0:0|0:0,0:0:0:0:
279,193,62208,2,0,P|222:192|250:90,1,200,10|2,0:0|0:0,0:0:0:0:
299,91,62636,1,0,0:0:0:0:
217,297,62722,2,0,L|157:299,1,50,2|0,0:0|0:0,0:0:0:0:
363,203,62893,2,0,L|372:312,1,100,10|0,0:0|0:0,0:0:0:0:
127,201,63236,6,0,P|114:91|114:91,1,100,2|0,0:0|0:0,0:0:0:0:
287,148,63579,2,0,P|361:117|288:40,1,200,10|0,0:0|0:0,0:0:0:0:
141,44,64093,1,2,0:0:0:0:
322,322,64265,2,0,L|329:206,1,100,10|0,0:0|0:0,0:0:0:0:
55,243,64608,6,0,P|53:133|53:133,1,100,0|0,0:0|0:0,0:0:0:0:
224,166,64951,2,0,L|224:57,1,100,8|0,0:0|0:0,0:0:0:0:
383,84,65293,1,0,0:0:0:0:
208,162,65465,1,0,0:0:0:0:
440,254,65636,1,10,0:0:0:0:
162,330,65808,1,2,0:0:0:0:
397,211,65979,6,0,L|403:105,1,100,4|0,0:0|0:0,0:0:0:0:
232,105,66322,1,10,0:0:0:0:
475,144,66493,1,2,0:0:0:0:
405,262,66579,1,0,0:0:0:0:
256,147,66664,1,2,0:0:0:0:
186,258,66750,1,0,0:0:0:0:
12,91,66836,1,2,0:0:0:0:
82,164,66921,1,0,0:0:0:0:
263,358,67007,1,10,0:0:0:0:
28,334,67179,6,0,L|24:223,1,100,2|0,0:0|0:0,0:0:0:0:
192,223,67522,2,0,B|309:214,1,100,0|8,0:0|0:0,0:0:0:0:
50,79,67865,2,0,P|62:17|62:17,1,50,2|0,0:0|0:0,0:0:0:0:
278,86,68036,2,0,P|290:34|290:34,1,50,2|0,0:0|0:0,0:0:0:0:
66,297,68208,2,0,L|53:235,1,50,2|0,0:0|0:0,0:0:0:0:
272,245,68379,2,0,L|260:178,1,50,10|0,0:0|0:0,0:0:0:0:
43,104,68551,1,2,0:0:0:0:
286,96,68722,6,0,L|171:88,1,100,2|0,0:0|0:0,0:0:0:0:
358,256,69065,1,8,0:0:0:0:
190,252,69236,1,0,0:0:0:0:
430,160,69408,2,0,L|372:157,1,50,2|0,0:0|0:0,0:0:0:0:
186,146,69579,2,0,L|61:139,1,100,0|8,0:0|0:0,0:0:0:0:
326,302,69922,6,0,L|434:307,1,100,2|0,0:0|0:0,0:0:0:0:
185,215,70265,2,0,L|122:210,1,50,2|0,0:0|0:0,0:0:0:0:
348,120,70436,2,0,L|413:125,1,50,10|0,0:0|0:0,0:0:0:0:
179,336,70608,2,0,L|62:327,1,100,2|2,0:0|0:0,0:0:0:0:
255,230,70951,1,0,0:0:0:0:
104,83,71122,1,8,0:0:0:0:
337,39,71293,1,0,0:0:0:0:
84,176,71465,6,0,P|79:56|79:56,1,100,2|0,0:0|0:0,0:0:0:0:
257,66,71808,1,8,0:0:0:0:
18,326,71979,2,0,L|25:227,1,100,2|0,0:0|0:0,0:0:0:0:
269,207,72322,2,0,L|374:198,1,100,0|8,0:0|0:0,0:0:0:0:
126,240,72665,6,0,P|57:192|138:138,1,200,2|0,0:0|0:0,0:0:0:0:
296,319,73179,2,0,P|301:215|301:215,1,100,8|0,0:0|0:0,0:0:0:0:
180,214,73522,1,0,0:0:0:0:
340,160,73693,1,0,0:0:0:0:
158,86,73865,1,10,0:0:0:0:
360,13,74036,1,2,0:0:0:0:
116,315,74208,6,0,L|108:192,1,100,2|0,0:0|0:0,0:0:0:0:
282,229,74551,2,0,P|291:117|291:117,1,100,8|0,0:0|0:0,0:0:0:0:
120,135,74893,2,0,L|241:124,1,100,2|0,0:0|0:0,0:0:0:0:
48,49,75236,1,8,0:0:0:0:
393,327,75408,6,0,L|497:320,1,100
258,220,75751,2,0,L|382:212,1,100,2|8,0:0|0:0,0:0:0:0:
120,153,76093,2,0,L|4:158,1,100
258,52,76436,2,0,P|142:56|142:56,1,100,2|8,0:0|0:0,0:0:0:0:
260,138,76779,1,0,0:0:0:0:
492,367,76951,6,0,L|479:257,1,100,4|0,0:0|0:0,0:0:0:0:
369,280,77293,1,10,0:0:0:0:
21,128,77465,1,2,0:0:0:0:
91,246,77551,1,0,0:0:0:0:
240,131,77636,1,2,0:0:0:0:
310,242,77722,1,0,0:0:0:0:
484,75,77808,1,2,0:0:0:0:
414,148,77893,1,0,0:0:0:0:
233,342,77979,1,10,0:0:0:0:
486,288,78151,6,0,L|488:179,1,100,2|0,0:0|0:0,0:0:0:0:
309,155,78493,2,0,L|434:144,1,100,0|8,0:0|0:0,0:0:0:0:
159,145,78836,2,0,L|99:152,1,50,2|0,0:0|0:0,0:0:0:0:
325,39,79008,2,0,P|256:48|256:48,1,50,2|0,0:0|0:0,0:0:0:0:
67,300,79179,2,0,L|120:295,1,50,2|0,0:0|0:0,0:0:0:0:
329,234,79351,2,0,L|389:227,1,50,10|0,0:0|0:0,0:0:0:0:
156,228,79522,1,2,0:0:0:0:
395,114,79693,6,0,L|396:223,1,100,2|0,0:0|0:0,0:0:0:0:
233,298,80036,1,8,0:0:0:0:
394,301,80208,1,0,0:0:0:0:
149,193,80379,2,0,L|79:188,1,50,2|0,0:0|0:0,0:0:0:0:
300,206,80551,2,0,L|406:211,1,100,0|8,0:0|0:0,0:0:0:0:
150,340,80893,6,0,L|46:332,1,100,2|0,0:0|0:0,0:0:0:0:
310,85,81236,2,0,L|249:80,1,50,2|0,0:0|0:0,0:0:0:0:
40,60,81408,2,0,L|102:65,1,50,10|0,0:0|0:0,0:0:0:0:
307,302,81579,2,0,L|192:294,1,100,2|0,0:0|0:0,0:0:0:0:
348,210,81922,1,0,0:0:0:0:
167,70,82093,1,8,0:0:0:0:
405,18,82265,1,0,0:0:0:0:
166,315,82436,6,0,L|378:304,1,200,2|8,0:0|0:0,0:0:0:0:
244,219,82951,1,0,0:0:0:0:
404,209,83122,1,2,0:0:0:0:
156,207,83293,2,0,L|145:93,1,100,0|8,0:0|0:0,0:0:0:0:
392,319,83636,6,0,P|400:261|270:189,1,200,2|0,0:0|0:0,0:0:0:0:
118,283,84151,2,0,L|111:165,1,100,8|0,0:0|0:0,0:0:0:0:
285,180,84493,2,0,P|295:59|295:59,1,100,0|0,0:0|0:0,0:0:0:0:
122,50,84836,2,0,P|229:45|229:45,1,100,8|0,0:0|0:0,0:0:0:0:
70,332,85179,6,0,L|78:222,1,100,2|0,0:0|0:0,0:0:0:0:
321,142,85522,2,0,L|217:137,1,100,10|0,0:0|0:0,0:0:0:0:
58,127,85865,1,2,0:0:0:0:
317,321,86036,2,0,L|427:314,1,100,8|0,0:0|0:0,0:0:0:0:
170,268,86379,2,0,L|163:162,1,100,10|0,0:0|0:0,0:0:0:0:
331,161,86722,5,2,0:0:0:0:
71,63,86893,2,0,L|184:67,2,100,8|2|0,0:0|0:0|0:0,0:0:0:0:
322,285,87408,1,10,0:0:0:0:
162,165,87579,1,2,0:0:0:0:
423,74,87751,1,10,0:0:0:0:
180,326,87922,6,0,L|193:207,1,100,4|0,0:0|0:0,0:0:0:0:
372,236,88265,1,10,0:0:0:0:
136,190,88436,2,0,L|147:129,1,50
242,148,88608,2,0,P|254:76|254:76,1,50,0|0,0:0|0:0,0:0:0:0:
157,80,88779,2,0,L|170:11,1,50,0|0,0:0|0:0,0:0:0:0:
261,26,88951,1,8,0:0:0:0:
24,332,89122,6,0,L|30:222,1,100,2|0,0:0|0:0,0:0:0:0:
213,221,89465,1,0,0:0:0:0:
40,178,89636,2,0,L|50:68,1,100,10|0,0:0|0:0,0:0:0:0:
98,84,89893,1,0,0:0:0:0:
288,298,89979,5,0,0:0:0:0:
314,286,90022,1,0,0:0:0:0:
316,248,90065,1,0,0:0:0:0:
291,235,90108,1,0,0:0:0:0:
225,222,90151,1,0,0:0:0:0:
210,202,90193,2,0,L|199:167,1,25
214,155,90279,1,0,0:0:0:0:
283,144,90322,2,0,L|313:116,1,25,8|0,0:0|0:0,0:0:0:0:
198,107,90451,1,0,0:0:0:0:
173,102,90493,2,0,L|170:65,1,25
239,64,90622,1,0,0:0:0:0:
398,324,90665,5,0,0:0:0:0:
397,225,90836,2,0,B|338:225,1,50,0|0,0:0|0:0,0:0:0:0:
136,228,91008,1,8,0:0:0:0:
136,122,91179,2,0,L|194:121,1,50,0|0,0:0|0:0,0:0:0:0:
366,122,91351,1,2,0:0:0:0:
122,327,91522,2,0,P|114:214|114:214,1,100,0|8,0:0|0:0,0:0:0:0:
353,326,91865,6,0,L|362:217,1,100,2|0,0:0|0:0,0:0:0:0:
191,264,92208,1,0,0:0:0:0:
423,275,92379,2,0,L|474:280,1,50,10|0,0:0|0:0,0:0:0:0:
281,208,92550,2,0,L|217:201,1,50,2|0,0:0|0:0,0:0:0:0:
431,164,92722,2,0,L|483:170,1,50,2|0,0:0|0:0,0:0:0:0:
285,100,92893,2,0,L|223:96,1,50,2|0,0:0|0:0,0:0:0:0:
429,49,93065,1,10,0:0:0:0:
496,130,93236,2,0,L|441:126,1,50
214,322,93408,6,0,B|330:330,2,100,2|0|8,0:0|0:0|0:0,0:0:0:0:
386,205,93922,2,0,L|279:205,1,100,2|0,0:0|0:0,0:0:0:0:
113,176,94265,2,0,P|103:64|103:64,1,100,0|8,0:0|0:0,0:0:0:0:
342,315,94608,6,0,P|368:267|266:205,1,200,2|0,0:0|0:0,0:0:0:0:
101,212,95122,1,8,0:0:0:0:
276,118,95293,1,0,0:0:0:0:
97,132,95465,2,0,P|88:21|88:21,1,100,2|0,0:0|0:0,0:0:0:0:
260,290,95808,2,0,P|138:277|138:277,1,100,8|0,0:0|0:0,0:0:0:0:
407,228,96151,6,0,P|416:111|416:111,1,100,2|0,0:0|0:0,0:0:0:0:
243,61,96493,2,0,P|350:69|350:69,1,100,8|0,0:0|0:0,0:0:0:0:
100,265,96836,2,0,P|91:148|91:148,1,100,2|0,0:0|0:0,0:0:0:0:
266,151,97179,1,8,0:0:0:0:
25,137,97351,6,0,L|140:129,1,100
299,272,97693,2,0,P|189:281|189:281,1,100,2|8,0:0|0:0,0:0:0:0:
30,216,98036,2,0,L|135:208,1,100
295,46,98379,2,0,L|173:54,1,100,2|8,0:0|0:0,0:0:0:0:
94,58,98722,1,0,0:0:0:0:
369,44,98893,5,0,0:0:0:0:
255,269,99065,2,0,L|248:167,1,100,2|8,0:0|0:0,0:0:0:0:
432,155,99408,2,0,L|328:144,1,100
151,73,99751,2,0,L|211:72,1,50
251,72,99922,2,0,L|316:72,1,50,8|0,0:0|0:0,0:0:0:0:
63,337,100093,6,0,L|67:226,1,100,2|0,0:0|0:0,0:0:0:0:
243,213,100436,2,0,P|361:217|361:217,1,100,0|8,0:0|0:0,0:0:0:0:
171,125,100779,1,0,0:0:0:0:
409,202,100951,1,2,0:0:0:0:
244,294,101122,1,0,0:0:0:0:
494,355,101293,1,8,0:0:0:0:
253,218,101465,2,0,L|182:210,1,50,2|0,0:0|0:0,0:0:0:0:
399,237,101636,6,0,L|408:118,1,100,0|2,0:0|0:0,0:0:0:0:
166,169,101979,2,0,P|159:54|159:54,1,100,10|0,0:0|0:0,0:0:0:0:
300,57,102322,1,0,0:0:0:0:
139,195,102493,1,0,0:0:0:0:
322,263,102665,1,8,0:0:0:0:
80,318,102836,6,0,P|74:196|74:196,1,100,2|0,0:0|0:0,0:0:0:0:
317,135,103179,2,0,L|255:141,1,50
177,80,103351,2,0,L|239:72,1,50,8|0,0:0|0:0,0:0:0:0:
437,326,103522,2,0,P|442:219|442:219,1,100,2|0,0:0|0:0,0:0:0:0:
280,190,103865,1,0,0:0:0:0:
340,190,103951,1,0,0:0:0:0:
399,190,104036,1,8,0:0:0:0:
150,308,104208,6,0,L|189:272,1,50,2|0,0:0|0:0,0:0:0:0:
372,240,104379,2,0,L|484:245,2,100,0|0|8,0:0|0:0|0:0,0:0:0:0:
202,105,104893,2,0,L|95:101,1,100,2|0,0:0|0:0,0:0:0:0:
274,318,105236,2,0,L|378:326,1,100,0|8,0:0|0:0,0:0:0:0:
120,209,105579,1,2,0:0:0:0:
358,203,105751,6,0,L|134:183,1,200,2|8,0:0|0:0,0:0:0:0:
355,55,106265,1,0,0:0:0:0:
193,276,106436,1,2,0:0:0:0:
371,251,106608,2,0,L|264:243,1,100,0|8,0:0|0:0,0:0:0:0:
382,146,106951,1,0,0:0:0:0:
141,323,107122,6,0,L|28:316,1,100,2|0,0:0|0:0,0:0:0:0:
215,238,107465,2,0,B|322:244|322:244|322:243,1,100,8|0,0:0|0:0,0:0:0:0:
69,138,107808,1,2,0:0:0:0:
307,147,107979,2,0,L|412:153,1,100,8|0,0:0|0:0,0:0:0:0:
166,310,108322,1,10,0:0:0:0:
405,250,108493,6,0,L|283:239,1,100,0|0,0:0|0:0,0:0:0:0:
63,150,108836,2,0,L|172:157,2,100,8|2|0,0:0|0:0|0:0,0:0:0:0:
309,348,109351,2,0,L|316:238,1,100,8|0,0:0|0:0,0:0:0:0:
72,206,109693,1,10,0:0:0:0:
353,110,109865,5,2,0:0:0:0:
256,192,110036,12,0,112608,0:0:0:0:
