osu file format v14

[General]
AudioFilename: audio.mp3
AudioLeadIn: 0
PreviewTime: 65893
Countdown: 0
SampleSet: Normal
StackLeniency: 0.7
Mode: 2
LetterboxInBreaks: 0
WidescreenStoryboard: 1

[Editor]
DistanceSpacing: 1
BeatDivisor: 4
GridSize: 32
TimelineZoom: 1

[Metadata]
Title:Time Bomb (feat. Veela)
TitleUnicode:Time Bomb (feat. Veela)
Artist:Feint & Boyinaband
ArtistUnicode:Feint & Boyinaband
Creator:IDu5t
Version:Salad
Source:
Tags:idust dnb d&b d'n'b drum and n' bass monstercat 007 solace ft.
BeatmapID:1905955
BeatmapSetID:912369

[Difficulty]
HPDrainRate:4
CircleSize:3
OverallDifficulty:7
ApproachRate:7
SliderMultiplier:1.4
SliderTickRate:1

[Events]
//Background and Video events
0,0,"bg.png",0,0
//Break Periods
//Storyboard Layer 0 (Background)
//Storyboard Layer 1 (Fail)
//Storyboard Layer 2 (Pass)
//Storyboard Layer 3 (Foreground)
//Storyboard Sound Samples

[TimingPoints]
151,342.857142857143,4,2,1,42,1,0
21751,-100,4,2,1,5,0,0
22093,-100,4,2,1,50,0,0
43351,-100,4,2,1,58,0,0
43693,-100,4,2,1,66,0,0
44036,-100,4,1,1,74,0,1
55008,-100,4,1,1,74,0,1
64608,-100,4,2,1,50,0,0
65636,-100,4,2,1,58,0,0
65808,-100,4,2,1,66,0,0
65979,-100,4,1,1,74,0,1
76951,-100,4,1,1,74,0,1
87922,-100,4,1,1,50,0,0
109865,-100,4,1,1,50,0,0
112608,-100,4,1,1,34,0,0

[Colours]
Combo1 : 174,174,174
Combo2 : 0,108,217
Combo3 : 12,196,205

[HitObjects]
256,192,19351,12,0,21751,0:0:0:0:
358,264,22093,5,2,0:0:0:0:
211,264,22436,2,0,P|207:113|207:113,1,140,10|0,0:0|0:0,0:0:0:0:
347,113,23122,1,8,0:0:0:0:
277,109,23293,1,0,0:0:0:0:
356,196,23465,6,0,L|417:233,2,70,2|0|8,0:0|0:0|0:0,0:0:0:0:
210,106,24151,2,0,P|370:94|370:94,1,140,2|8,0:0|0:0,0:0:0:0:
70,310,24836,6,0,L|84:155,1,140,2|8,0:0|0:0,0:0:0:0:
168,300,25351,2,0,P|229:297|302:181,1,210,2|8,0:0|0:0,0:0:0:0:
149,216,26208,5,2,0:0:0:0:
94,172,26379,1,0,0:0:0:0:
105,102,26551,1,8,0:0:0:0:
169,74,26722,1,0,0:0:0:0:
251,331,26893,2,0,L|407:316,1,140,2|8,0:0|0:0,0:0:0:0:
108,267,27579,6,0,L|96:122,1,140,2|8,0:0|0:0,0:0:0:0:
177,255,28093,2,0,P|253:255|212:164,1,210,2|8,0:0|0:0,0:0:0:0:
373,305,28951,5,2,0:0:0:0:
437,263,29122,1,0,0:0:0:0:
430,186,29293,1,8,0:0:0:0:
359,153,29465,1,0,0:0:0:0:
274,285,29636,2,0,P|202:267|188:192,1,140,2|8,0:0|0:0,0:0:0:0:
463,267,30322,6,0,L|451:107,1,140,2|8,0:0|0:0,0:0:0:0:
372,127,30836,1,2,0:0:0:0:
209,66,31179,1,0,0:0:0:0:
293,59,31351,1,8,0:0:0:0:
16,321,31693,6,0,L|23:161,1,140,2|8,0:0|0:0,0:0:0:0:
111,182,32208,1,2,0:0:0:0:
259,120,32551,1,0,0:0:0:0:
335,117,32722,1,8,0:0:0:0:
40,68,33065,5,2,0:0:0:0:
199,284,33408,2,0,P|363:279|363:279,1,140,10|0,0:0|0:0,0:0:0:0:
193,127,34093,1,8,0:0:0:0:
345,256,34436,5,2,0:0:0:0:
400,192,34608,1,0,0:0:0:0:
364,116,34779,1,8,0:0:0:0:
282,96,34951,1,0,0:0:0:0:
196,304,35122,2,0,L|67:232,1,140,2|8,0:0|0:0,0:0:0:0:
391,212,35808,6,0,L|451:161,2,70,2|0|8,0:0|0:0|0:0,0:0:0:0:
310,220,36322,1,0,0:0:0:0:
231,212,36493,2,0,L|220:72,1,140,2|8,0:0|0:0,0:0:0:0:
386,87,37179,5,2,0:0:0:0:
301,83,37351,1,0,0:0:0:0:
217,162,37522,2,0,P|305:170|305:170,2,70,8|0|2,0:0|0:0|0:0,0:0:0:0:
385,162,38208,1,8,0:0:0:0:
104,299,38551,6,0,L|99:143,1,140,2|8,0:0|0:0,0:0:0:0:
186,143,39065,2,0,P|129:70|0:82,1,210,2|8,0:0|0:0,0:0:0:0:
189,310,39922,5,2,0:0:0:0:
261,267,40093,1,0,0:0:0:0:
308,197,40265,1,8,0:0:0:0:
327,115,40436,1,0,0:0:0:0:
243,107,40608,2,0,P|99:91|99:91,1,140,2|8,0:0|0:0,0:0:0:0:
388,325,41293,6,0,P|396:163|396:163,1,140,2|8,0:0|0:0,0:0:0:0:
310,185,41808,1,2,0:0:0:0:
158,105,42151,1,0,0:0:0:0:
74,101,42322,1,8,0:0:0:0:
347,297,42665,6,0,L|506:286,1,140,2|8,0:0|0:0,0:0:0:0:
411,282,43179,1,2,0:0:0:0:
330,154,43351,2,0,P|332:240|332:240,1,70,0|0,0:0|0:0,0:0:0:0:
415,65,43693,1,0,0:0:0:0:
326,60,43865,1,0,0:0:0:0:
146,316,44036,6,0,P|140:234|140:234,1,70,6|0,0:0|0:0,0:0:0:0:
211,250,44379,2,0,L|224:164,1,70,10|0,0:0|0:0,0:0:0:0:
59,86,44893,2,0,L|51:178,1,70,2|8,0:0|0:0,0:0:0:0:
333,287,45408,6,0,L|425:278,1,70,2|0,0:0|0:0,0:0:0:0:
331,210,45751,2,0,L|242:201,1,70,10|0,0:0|0:0,0:0:0:0:
430,64,46265,2,0,L|400:151,1,70,2|8,0:0|0:0,0:0:0:0:
321,137,46608,1,0,0:0:0:0:
146,297,46779,6,0,L|131:220,1,70,2|0,0:0|0:0,0:0:0:0:
207,184,47122,2,0,P|282:170|282:170,1,70,10|0,0:0|0:0,0:0:0:0:
110,69,47636,1,2,0:0:0:0:
200,62,47808,1,10,0:0:0:0:
473,322,48151,6,0,P|482:240|482:240,1,70,2|0,0:0|0:0,0:0:0:0:
410,245,48493,2,0,P|329:223|329:223,1,70,10|0,0:0|0:0,0:0:0:0:
503,91,49008,1,2,0:0:0:0:
419,87,49179,1,10,0:0:0:0:
334,81,49351,1,0,0:0:0:0:
150,302,49522,6,0,L|160:204|160:204,1,70,2|0,0:0|0:0,0:0:0:0:
230,213,49865,2,0,P|221:126|221:126,1,70,10|0,0:0|0:0,0:0:0:0:
53,67,50379,1,2,0:0:0:0:
53,151,50551,1,10,0:0:0:0:
330,295,50893,6,0,P|412:283|412:283,1,70,2|0,0:0|0:0,0:0:0:0:
327,122,51236,2,0,P|311:212|311:212,1,70,10|0,0:0|0:0,0:0:0:0:
480,64,51751,2,0,L|468:146,1,70,2|10,0:0|0:0,0:0:0:0:
189,296,52265,6,0,P|175:202|175:202,1,70,2|0,0:0|0:0,0:0:0:0:
255,223,52608,2,0,L|335:218,1,70,10|0,0:0|0:0,0:0:0:0:
149,71,53122,2,0,L|69:59,1,70,2|10,0:0|0:0,0:0:0:0:
357,312,53636,6,0,L|367:165,1,140,2|10,0:0|0:0,0:0:0:0:
196,187,54322,2,0,P|187:106|187:106,1,70,2|2,0:0|0:0,0:0:0:0:
273,70,54665,2,0,P|366:67|366:67,1,70,10|2,0:0|0:0,0:0:0:0:
153,327,55008,6,0,L|79:310,1,70,6|0,0:0|0:0,0:0:0:0:
157,253,55351,2,0,L|172:177,1,70,10|0,0:0|0:0,0:0:0:0:
16,72,55865,2,0,P|107:68|107:68,1,70,2|8,0:0|0:0,0:0:0:0:
372,316,56379,6,0,L|462:306,2,70,2|0|10,0:0|0:0|0:0,0:0:0:0:
301,320,56893,1,0,0:0:0:0:
132,130,57236,2,0,L|115:229,1,70,2|8,0:0|0:0,0:0:0:0:
399,219,57751,6,0,L|407:128,1,70,2|0,0:0|0:0,0:0:0:0:
328,142,58093,2,0,P|310:50|310:50,1,70,10|0,0:0|0:0,0:0:0:0:
464,297,58608,1,2,0:0:0:0:
380,290,58779,1,10,0:0:0:0:
90,259,59122,6,0,B|4:256|3:256|3:256,1,70,2|0,0:0|0:0,0:0:0:0:
91,179,59465,2,0,P|166:183|166:183,1,70,10|0,0:0|0:0,0:0:0:0:
318,79,59979,2,0,L|331:157,1,70,2|10,0:0|0:0,0:0:0:0:
52,294,60493,6,0,L|21:228,2,70,2|0|10,0:0|0:0|0:0,0:0:0:0:
81,346,61008,1,0,0:0:0:0:
255,132,61351,1,2,0:0:0:0:
185,128,61522,1,10,0:0:0:0:
472,312,61865,6,0,P|491:232|491:232,2,70,2|0|10,0:0|0:0|0:0,0:0:0:0:
443,356,62379,1,0,0:0:0:0:
271,146,62722,1,2,0:0:0:0:
340,143,62893,1,10,0:0:0:0:
54,318,63236,6,0,P|40:226|40:226,1,70,2|0,0:0|0:0,0:0:0:0:
120,228,63579,2,0,L|158:153,1,70,10|0,0:0|0:0,0:0:0:0:
18,69,64093,2,0,P|95:65|95:65,1,70,2|10,0:0|0:0,0:0:0:0:
239,274,64608,6,0,P|88:251|88:251,2,140,0|8|0,0:0|0:0|0:0,0:0:0:0:
314,213,65465,1,0,0:0:0:0:
233,200,65636,1,10,0:0:0:0:
150,190,65808,1,2,0:0:0:0:
332,314,65979,5,4,0:0:0:0:
484,227,66322,2,0,L|409:220,1,70,10|2,0:0|0:0,0:0:0:0:
331,208,66665,1,2,0:0:0:0:
355,129,66836,1,2,0:0:0:0:
442,77,67008,1,10,0:0:0:0:
277,326,67179,6,0,L|272:178,1,140,2|0,0:0|0:0,0:0:0:0:
128,110,67865,1,2,0:0:0:0:
211,104,68036,1,2,0:0:0:0:
128,110,68208,1,2,0:0:0:0:
44,113,68379,1,10,0:0:0:0:
349,299,68722,6,0,P|357:137|357:137,1,140,2|8,0:0|0:0,0:0:0:0:
213,72,69408,1,2,0:0:0:0:
296,73,69579,1,0,0:0:0:0:
380,70,69751,1,8,0:0:0:0:
203,300,69922,6,0,L|196:144,1,140,2|2,0:0|0:0,0:0:0:0:
282,162,70436,1,10,0:0:0:0:
203,300,70608,2,0,L|194:149,1,140,2|0,0:0|0:0,0:0:0:0:
289,152,71122,1,8,0:0:0:0:
16,320,71465,6,0,L|25:167,1,140,2|8,0:0|0:0,0:0:0:0:
106,162,71979,2,0,P|256:150|256:150,1,140,2|0,0:0|0:0,0:0:0:0:
332,135,72493,1,8,0:0:0:0:
148,324,72665,6,0,P|100:288|185:213,1,210,2|8,0:0|0:0,0:0:0:0:
417,102,73693,1,0,0:0:0:0:
332,96,73865,1,10,0:0:0:0:
248,87,74036,1,2,0:0:0:0:
428,328,74208,6,0,P|435:170|435:170,1,140,2|8,0:0|0:0,0:0:0:0:
276,140,74893,2,0,P|177:136|177:136,1,70,2|0,0:0|0:0,0:0:0:0:
122,129,75236,1,8,0:0:0:0:
304,326,75408,6,0,L|308:238,1,70,0|0,0:0|0:0,0:0:0:0:
222,219,75751,2,0,L|140:206,1,70,2|8,0:0|0:0,0:0:0:0:
333,130,76093,2,0,L|338:227,1,70,0|0,0:0|0:0,0:0:0:0:
259,71,76436,2,0,L|184:61,1,70,2|8,0:0|0:0,0:0:0:0:
467,323,76951,5,4,0:0:0:0:
307,260,77293,2,0,P|229:254|229:254,1,70,10|2,0:0|0:0,0:0:0:0:
312,172,77636,1,2,0:0:0:0:
385,109,77808,1,2,0:0:0:0:
312,57,77979,1,10,0:0:0:0:
126,310,78151,6,0,P|117:160|117:160,1,140,2|0,0:0|0:0,0:0:0:0:
268,109,78836,1,2,0:0:0:0:
215,175,79008,1,2,0:0:0:0:
255,248,79179,1,2,0:0:0:0:
336,269,79351,1,10,0:0:0:0:
53,275,79693,6,0,P|51:129|51:129,1,140,2|8,0:0|0:0,0:0:0:0:
216,96,80379,1,2,0:0:0:0:
300,91,80551,1,0,0:0:0:0:
383,83,80722,1,8,0:0:0:0:
203,323,80893,6,0,L|51:309,1,140,2|2,0:0|0:0,0:0:0:0:
140,233,81408,1,10,0:0:0:0:
220,218,81579,2,0,P|385:205|385:205,1,140,2|0,0:0|0:0,0:0:0:0:
443,204,82093,1,8,0:0:0:0:
169,312,82436,6,0,L|162:163,1,140,2|8,0:0|0:0,0:0:0:0:
322,124,83122,2,0,L|390:172,2,70,2|0|8,0:0|0:0|0:0,0:0:0:0:
137,314,83636,6,0,P|114:273|236:182,1,210,2|8,0:0|0:0,0:0:0:0:
355,192,84493,1,0,0:0:0:0:
207,162,84836,2,0,P|202:73|202:73,1,70,8|0,0:0|0:0,0:0:0:0:
392,324,85179,6,0,L|410:172,1,140,2|10,0:0|0:0,0:0:0:0:
135,265,85865,2,0,L|56:254,2,70,2|8|0,0:0|0:0|0:0,0:0:0:0:
215,269,86379,2,0,L|232:120,1,140,10|2,0:0|0:0,0:0:0:0:
153,124,86893,5,8,0:0:0:0:
75,122,87065,1,2,0:0:0:0:
351,179,87408,2,0,L|435:173,2,70,10|2|10,0:0|0:0|0:0,0:0:0:0:
177,308,87922,5,4,0:0:0:0:
322,287,88265,2,0,P|329:135|329:135,1,140,10|0,0:0|0:0,0:0:0:0:
169,102,88951,2,0,P|248:97|248:97,1,70,8|2,0:0|0:0,0:0:0:0:
75,275,89465,6,0,L|162:269,1,70,0|10,0:0|0:0,0:0:0:0:
307,290,89979,2,0,P|470:279|470:279,1,140,0|8,0:0|0:0,0:0:0:0:
174,250,90665,6,0,L|177:96,1,140,0|8,0:0|0:0,0:0:0:0:
267,77,91179,1,0,0:0:0:0:
189,79,91351,1,2,0:0:0:0:
112,79,91522,1,0,0:0:0:0:
279,301,91865,6,0,L|431:291,1,140,2|0,0:0|0:0,0:0:0:0:
337,237,92379,1,10,0:0:0:0:
271,196,92551,1,2,0:0:0:0:
273,121,92722,1,2,0:0:0:0:
328,76,92893,1,2,0:0:0:0:
402,87,93065,1,10,0:0:0:0:
125,320,93408,6,0,L|135:166,1,140,2|8,0:0|0:0,0:0:0:0:
218,183,93922,1,2,0:0:0:0:
72,45,94265,2,0,L|89:128,1,70,0|8,0:0|0:0,0:0:0:0:
168,320,94608,6,0,P|22:314|22:314,1,140,2|0,0:0|0:0,0:0:0:0:
113,255,95122,1,8,0:0:0:0:
182,208,95293,1,0,0:0:0:0:
117,146,95465,1,2,0:0:0:0:
262,75,95808,2,0,B|350:71|350:71|350:70,1,70,8|0,0:0|0:0,0:0:0:0:
150,312,96151,6,0,L|144:151,1,140,2|8,0:0|0:0,0:0:0:0:
292,226,96836,2,0,P|304:54|304:54,1,140,2|8,0:0|0:0,0:0:0:0:
123,320,97351,6,0,B|118:167,1,140,0|2,0:0|0:0,0:0:0:0:
283,105,98036,2,0,B|122:97,1,140,0|2,0:0|0:0,0:0:0:0:
280,163,98722,5,0,0:0:0:0:
432,295,99065,2,0,P|440:208|440:208,1,70,2|8,0:0|0:0,0:0:0:0:
354,222,99408,1,0,0:0:0:0:
194,201,99751,2,0,L|181:121,1,70,0|8,0:0|0:0,0:0:0:0:
366,333,100093,6,0,P|377:179|377:179,1,140,2|0,0:0|0:0,0:0:0:0:
291,184,100608,1,8,0:0:0:0:
248,111,100779,1,0,0:0:0:0:
304,51,100951,1,2,0:0:0:0:
385,58,101122,1,0,0:0:0:0:
104,298,101465,6,0,P|97:153|97:153,1,140,2|2,0:0|0:0,0:0:0:0:
174,153,101979,1,10,0:0:0:0:
347,296,102322,2,0,L|417:269,2,70,0|0|8,0:0|0:0|0:0,0:0:0:0:
163,273,102836,6,0,L|182:122,1,140,2|0,0:0|0:0,0:0:0:0:
270,126,103351,1,8,0:0:0:0:
127,307,103693,1,0,0:0:0:0:
68,245,103865,1,0,0:0:0:0:
130,188,104036,1,8,0:0:0:0:
313,287,104208,6,0,L|365:158,1,140,2|0,0:0|0:0,0:0:0:0:
285,162,104722,1,8,0:0:0:0:
131,65,105065,2,0,L|64:98,2,70,0|0|8,0:0|0:0|0:0,0:0:0:0:
410,320,105751,6,0,L|427:155,1,140,2|8,0:0|0:0,0:0:0:0:
279,100,106436,1,2,0:0:0:0:
356,96,106608,1,0,0:0:0:0:
432,89,106779,1,8,0:0:0:0:
163,290,107122,6,0,P|8:280|8:280,1,140,2|8,0:0|0:0,0:0:0:0:
183,198,107808,2,0,P|180:122|180:122,1,70,2|8,0:0|0:0,0:0:0:0:
103,116,108151,1,0,0:0:0:0:
288,289,108322,6,0,L|379:292,1,70,10|0,0:0|0:0,0:0:0:0:
285,205,108665,2,0,L|211:202,1,70,0|8,0:0|0:0,0:0:0:0:
286,117,109008,1,2,0:0:0:0:
126,305,109351,2,0,P|46:308|46:308,2,70,8|0|10,0:0|0:0|0:0,0:0:0:0:
305,223,109865,5,2,0:0:0:0:
256,192,110208,12,0,112608,0:0:0:0:
