osu file format v14

[General]
AudioFilename: audio.mp3
AudioLeadIn: 0
PreviewTime: 65893
Countdown: 0
SampleSet: Normal
StackLeniency: 0.7
Mode: 2
LetterboxInBreaks: 0
WidescreenStoryboard: 1

[Editor]
DistanceSpacing: 1
BeatDivisor: 4
GridSize: 32
TimelineZoom: 1

[Metadata]
Title:Time Bomb (feat. Veela)
TitleUnicode:Time Bomb (feat. Veela)
Artist:Feint & Boyinaband
ArtistUnicode:Feint & Boyinaband
Creator:IDu5t
Version:Rain
Source:
Tags:idust dnb d&b d'n'b drum and n' bass monstercat 007 solace ft.
BeatmapID:1905954
BeatmapSetID:912369

[Difficulty]
HPDrainRate:6
CircleSize:4
OverallDifficulty:9
ApproachRate:9
SliderMultiplier:1.8
SliderTickRate:2

[Events]
//Background and Video events
0,0,"bg.png",0,0
//Break Periods
//Storyboard Layer 0 (Background)
//Storyboard Layer 1 (Fail)
//Storyboard Layer 2 (Pass)
//Storyboard Layer 3 (Foreground)
//Storyboard Sound Samples

[TimingPoints]
151,342.857142857143,4,2,1,42,1,0
21751,-100,4,2,1,5,0,0
22093,-100,4,2,1,50,0,0
43351,-100,4,2,1,58,0,0
43693,-100,4,2,1,66,0,0
44036,-100,4,1,1,74,0,1
55008,-100,4,1,1,74,0,1
64608,-100,4,2,1,50,0,0
65636,-100,4,2,1,58,0,0
65808,-100,4,2,1,66,0,0
65979,-100,4,1,1,74,0,1
76951,-100,4,1,1,74,0,1
87922,-100,4,1,1,50,0,0
109865,-100,4,1,1,50,0,0
112608,-100,4,1,1,34,0,0

[Colours]
Combo1 : 174,174,174
Combo2 : 0,108,217
Combo3 : 12,196,205

[HitObjects]
256,192,19351,12,0,21751,0:0:0:0:
351,306,22093,6,0,L|355:211,1,90,2|0,0:0|0:0,0:0:0:0:
257,224,22436,1,10,0:0:0:0:
422,153,22608,1,0,0:0:0:0:
450,119,22693,1,0,0:0:0:0:
430,78,22779,1,0,0:0:0:0:
388,61,22865,1,0,0:0:0:0:
342,59,22951,1,0,0:0:0:0:
157,40,23122,2,0,P|155:141|155:141,1,90,8|0,0:0|0:0,0:0:0:0:
340,272,23465,6,0,P|243:269|243:269,1,90,2|0,0:0|0:0,0:0:0:0:
352,166,23808,2,0,L|356:69,1,90,8|0,0:0|0:0,0:0:0:0:
170,103,24151,2,0,P|106:103|106:103,2,45,2|0|0,0:0|0:0|0:0,0:0:0:0:
352,310,24493,2,0,L|460:297,1,90,8|0,0:0|0:0,0:0:0:0:
136,277,24836,6,0,L|134:173,1,90,2|0,0:0|0:0,0:0:0:0:
244,191,25179,1,8,0:0:0:0:
63,169,25351,1,2,0:0:0:0:
28,133,25436,1,0,0:0:0:0:
37,84,25522,1,0,0:0:0:0:
68,45,25608,1,0,0:0:0:0:
116,36,25693,1,0,0:0:0:0:
299,35,25865,2,0,L|297:132,1,90,8|0,0:0|0:0,0:0:0:0:
126,278,26208,6,0,P|240:273|240:273,1,90,2|0,0:0|0:0,0:0:0:0:
125,174,26551,1,8,0:0:0:0:
269,146,26722,1,0,0:0:0:0:
314,145,26808,1,0,0:0:0:0:
358,145,26893,1,2,0:0:0:0:
265,55,27065,1,0,0:0:0:0:
84,123,27236,2,0,L|83:235,1,90,8|0,0:0|0:0,0:0:0:0:
360,331,27579,6,0,P|367:237|367:237,1,90,2|0,0:0|0:0,0:0:0:0:
274,225,27922,1,8,0:0:0:0:
455,220,28093,1,2,0:0:0:0:
483,173,28179,1,0,0:0:0:0:
480,118,28265,1,0,0:0:0:0:
446,75,28351,1,0,0:0:0:0:
398,59,28436,1,0,0:0:0:0:
213,71,28608,2,0,L|303:78,1,90,8|0,0:0|0:0,0:0:0:0:
471,318,28951,6,0,P|375:314|375:314,1,90,2|0,0:0|0:0,0:0:0:0:
196,231,29293,1,8,0:0:0:0:
303,139,29465,1,0,0:0:0:0:
258,135,29551,1,0,0:0:0:0:
213,129,29636,1,2,0:0:0:0:
309,47,29808,1,0,0:0:0:0:
134,65,29979,2,0,L|126:160,1,90,8|0,0:0|0:0,0:0:0:0:
384,326,30322,6,0,P|431:302|357:234,1,180,2|8,0:0|0:0,0:0:0:0:
188,221,30836,2,0,L|185:120,1,90,2|0,0:0|0:0,0:0:0:0:
294,79,31179,2,0,P|194:70|194:70,2,90,0|8|0,0:0|0:0|0:0,0:0:0:0:
40,308,31693,6,0,P|27:246|140:204,1,180,2|8,0:0|0:0,0:0:0:0:
301,168,32208,1,2,0:0:0:0:
257,165,32293,1,0,0:0:0:0:
212,163,32379,1,0,0:0:0:0:
116,153,32551,1,0,0:0:0:0:
205,73,32722,2,0,P|94:63|94:63,1,90,8|0,0:0|0:0,0:0:0:0:
373,334,33065,6,0,L|371:237,1,90,2|0,0:0|0:0,0:0:0:0:
261,207,33408,1,10,0:0:0:0:
438,192,33579,1,0,0:0:0:0:
466,157,33665,1,0,0:0:0:0:
457,112,33751,1,0,0:0:0:0:
429,76,33836,1,0,0:0:0:0:
386,62,33922,1,0,0:0:0:0:
205,280,34093,2,0,L|306:287,1,90,8|0,0:0|0:0,0:0:0:0:
115,104,34436,6,0,L|126:217,1,90,2|0,0:0|0:0,0:0:0:0:
220,198,34779,1,8,0:0:0:0:
54,281,34951,1,0,0:0:0:0:
226,285,35122,1,2,0:0:0:0:
271,285,35208,1,0,0:0:0:0:
315,283,35293,1,0,0:0:0:0:
138,85,35465,2,0,L|140:181,1,90,8|0,0:0|0:0,0:0:0:0:
391,288,35808,6,0,L|295:280,1,90,2|0,0:0|0:0,0:0:0:0:
404,193,36151,1,8,0:0:0:0:
220,132,36322,1,0,0:0:0:0:
264,126,36408,1,0,0:0:0:0:
308,121,36493,1,2,0:0:0:0:
352,116,36579,1,0,0:0:0:0:
397,112,36665,1,0,0:0:0:0:
306,241,36836,2,0,P|203:248|203:248,1,90,8|0,0:0|0:0,0:0:0:0:
471,152,37179,6,0,L|461:258,1,90,2|0,0:0|0:0,0:0:0:0:
279,108,37522,1,8,0:0:0:0:
386,101,37693,1,0,0:0:0:0:
205,286,37865,1,2,0:0:0:0:
250,285,37951,1,0,0:0:0:0:
294,283,38036,1,0,0:0:0:0:
196,207,38208,2,0,P|96:195|96:195,1,90,8|0,0:0|0:0,0:0:0:0:
362,207,38551,6,0,P|369:103|369:103,1,90,2|0,0:0|0:0,0:0:0:0:
260,111,38893,1,8,0:0:0:0:
438,324,39065,1,2,0:0:0:0:
473,295,39151,1,0,0:0:0:0:
465,251,39236,1,0,0:0:0:0:
432,219,39322,1,0,0:0:0:0:
387,212,39408,1,0,0:0:0:0:
293,175,39579,2,0,P|392:154|392:154,1,90,8|0,0:0|0:0,0:0:0:0:
128,274,39922,6,0,B|124:177,1,90,2|0,0:0|0:0,0:0:0:0:
232,84,40265,1,8,0:0:0:0:
124,77,40436,1,0,0:0:0:0:
311,267,40608,2,0,L|376:268,2,45,2|0|0,0:0|0:0|0:0,0:0:0:0:
206,180,40951,2,0,B|311:174|311:174|310:174,1,90,8|0,0:0|0:0,0:0:0:0:
45,304,41293,6,0,P|32:234|126:188,1,180,2|8,0:0|0:0,0:0:0:0:
307,192,41808,2,0,P|360:184|369:69,1,180,2|0,0:0|0:0,0:0:0:0:
186,152,42322,2,0,P|89:142|89:142,1,90,8|0,0:0|0:0,0:0:0:0:
353,325,42665,2,0,P|349:269|219:230,1,180,2|8,0:0|0:0,0:0:0:0:
64,215,43179,1,2,0:0:0:0:
246,149,43351,2,0,P|295:149|295:149,1,45,0|0,0:0|0:0,0:0:0:0:
246,149,43522,2,0,L|175:149,1,45,0|0,0:0|0:0,0:0:0:0:
394,78,43693,2,0,B|446:78|447:78|447:78,1,45,0|0,0:0|0:0,0:0:0:0:
205,50,43865,2,0,P|148:50|148:50,1,45,0|0,0:0|0:0,0:0:0:0:
397,324,44036,6,0,P|402:215|402:215,1,90,6|0,0:0|0:0,0:0:0:0:
230,250,44379,2,0,P|173:227|245:154,1,180,10|0,0:0|0:0,0:0:0:0:
392,105,44893,2,0,P|482:109|482:109,2,90,2|8|0,0:0|0:0|0:0,0:0:0:0:
132,292,45408,6,0,L|124:181,1,90,2|0,0:0|0:0,0:0:0:0:
298,210,45751,2,0,P|340:184|276:95,1,180,10|0,0:0|0:0,0:0:0:0:
115,93,46265,1,2,0:0:0:0:
222,94,46436,1,8,0:0:0:0:
54,218,46608,1,0,0:0:0:0:
318,309,46779,6,0,L|330:216,1,90,2|0,0:0|0:0,0:0:0:0:
155,220,47122,2,0,P|161:161|269:124,1,180,10|0,0:0|0:0,0:0:0:0:
433,138,47636,1,2,0:0:0:0:
261,289,47808,1,10,0:0:0:0:
368,286,47979,1,0,0:0:0:0:
99,212,48151,6,0,P|111:113|111:113,1,90,2|0,0:0|0:0,0:0:0:0:
281,148,48493,2,0,P|338:142|368:35,1,180,10|0,0:0|0:0,0:0:0:0:
190,268,49008,1,2,0:0:0:0:
361,279,49179,2,0,P|373:183|373:183,1,90,10|0,0:0|0:0,0:0:0:0:
115,165,49522,6,0,L|18:156,1,90,2|0,0:0|0:0,0:0:0:0:
198,80,49865,2,0,P|270:84|330:171,1,180,10|0,0:0|0:0,0:0:0:0:
232,172,50379,1,2,0:0:0:0:
397,309,50551,2,0,P|410:210|410:210,1,90,10|0,0:0|0:0,0:0:0:0:
176,232,50893,6,0,L|80:219,1,90,2|0,0:0|0:0,0:0:0:0:
260,163,51236,2,0,P|302:134|219:59,1,180,10|2,0:0|0:0,0:0:0:0:
75,283,51751,1,2,0:0:0:0:
245,248,51922,2,0,P|132:238|132:238,1,90,10|0,0:0|0:0,0:0:0:0:
421,285,52265,6,0,L|432:184|432:184,1,90,2|0,0:0|0:0,0:0:0:0:
263,159,52608,2,0,P|196:139|231:42,1,180,10|0,0:0|0:0,0:0:0:0:
311,51,53122,1,2,0:0:0:0:
138,320,53293,2,0,L|144:216,1,90,10|0,0:0|0:0,0:0:0:0:
402,234,53636,6,0,L|393:124,1,90,2|0,0:0|0:0,0:0:0:0:
222,156,53979,2,0,L|323:152,1,90,10|0,0:0|0:0,0:0:0:0:
201,266,54322,1,2,0:0:0:0:
322,262,54493,1,2,0:0:0:0:
173,154,54665,1,10,0:0:0:0:
339,148,54836,1,2,0:0:0:0:
96,248,55008,6,0,L|94:153,1,90,6|0,0:0|0:0,0:0:0:0:
258,143,55351,2,0,P|260:89|141:57,1,180,10|0,0:0|0:0,0:0:0:0:
327,284,55865,2,0,P|427:287|427:287,2,90,2|8|0,0:0|0:0|0:0,0:0:0:0:
92,222,56379,6,0,P|101:117|101:117,1,90,2|0,0:0|0:0,0:0:0:0:
271,157,56722,2,0,P|322:157|396:45,1,180,10|0,0:0|0:0,0:0:0:0:
223,296,57236,1,2,0:0:0:0:
331,296,57408,1,8,0:0:0:0:
159,179,57579,1,0,0:0:0:0:
405,173,57751,6,0,P|389:65|389:65,1,90,2|0,0:0|0:0,0:0:0:0:
230,329,58093,2,0,P|153:308|219:257,1,180,10|0,0:0|0:0,0:0:0:0:
362,260,58608,1,2,0:0:0:0:
192,192,58779,2,0,L|188:96,1,90,10|0,0:0|0:0,0:0:0:0:
430,58,59122,6,0,P|323:53|323:53,1,90,2|0,0:0|0:0,0:0:0:0:
151,322,59465,2,0,P|102:299|182:248,1,180,10|0,0:0|0:0,0:0:0:0:
339,237,59979,1,2,0:0:0:0:
169,146,60151,2,0,L|61:140,1,90,10|0,0:0|0:0,0:0:0:0:
335,49,60493,6,0,L|352:147,1,90,2|0,0:0|0:0,0:0:0:0:
185,326,60836,2,0,P|196:270|315:241,1,180,10|0,0:0|0:0,0:0:0:0:
200,232,61351,1,2,0:0:0:0:
364,153,61522,2,0,P|461:145|461:145,1,90,10|0,0:0|0:0,0:0:0:0:
200,122,61865,6,0,P|103:112|103:112,1,90,2|0,0:0|0:0,0:0:0:0:
274,319,62208,2,0,P|328:316|381:203,1,180,10|2,0:0|0:0,0:0:0:0:
221,213,62722,1,2,0:0:0:0:
385,160,62893,2,0,L|367:63,1,90,10|0,0:0|0:0,0:0:0:0:
130,293,63236,6,0,P|143:187|143:187,1,90,2|0,0:0|0:0,0:0:0:0:
311,203,63579,2,0,P|300:138|183:96,1,180,10|0,0:0|0:0,0:0:0:0:
301,90,64093,1,2,0:0:0:0:
130,306,64265,2,0,L|124:183|124:183,1,90,10|0,0:0|0:0,0:0:0:0:
374,252,64608,6,0,L|375:155,1,90,0|0,0:0|0:0,0:0:0:0:
211,116,64951,2,0,L|221:5,1,90,8|0,0:0|0:0,0:0:0:0:
321,121,65293,1,0,0:0:0:0:
167,219,65465,1,0,0:0:0:0:
345,291,65636,1,10,0:0:0:0:
97,343,65808,1,2,0:0:0:0:
334,206,65979,6,0,P|342:103|342:103,1,90,4|0,0:0|0:0,0:0:0:0:
172,72,66322,2,0,P|279:68|279:68,1,90,10|2,0:0|0:0,0:0:0:0:
97,299,66665,1,2,0:0:0:0:
248,251,66836,1,2,0:0:0:0:
100,163,67008,1,10,0:0:0:0:
352,93,67179,6,0,L|359:197,1,90,2|0,0:0|0:0,0:0:0:0:
187,149,67522,2,0,L|181:56,1,90,0|8,0:0|0:0,0:0:0:0:
424,278,67865,1,2,0:0:0:0:
289,231,68036,1,2,0:0:0:0:
426,178,68208,1,2,0:0:0:0:
181,109,68379,1,10,0:0:0:0:
319,107,68551,1,2,0:0:0:0:
59,319,68722,6,0,P|56:212|56:212,1,90,2|0,0:0|0:0,0:0:0:0:
227,173,69065,2,0,L|126:167,1,90,8|0,0:0|0:0,0:0:0:0:
306,70,69408,1,2,0:0:0:0:
140,53,69579,2,0,L|135:155,1,90,0|8,0:0|0:0,0:0:0:0:
388,295,69922,6,0,L|291:289,1,90,2|0,0:0|0:0,0:0:0:0:
141,189,70265,1,2,0:0:0:0:
303,161,70436,1,10,0:0:0:0:
47,315,70608,2,0,L|43:218,1,90,2|2,0:0|0:0,0:0:0:0:
207,220,70951,2,0,P|225:119|225:119,1,90,0|8,0:0|0:0,0:0:0:0:
69,121,71293,1,0,0:0:0:0:
335,306,71465,6,0,L|342:209,1,90,2|0,0:0|0:0,0:0:0:0:
177,205,71808,1,8,0:0:0:0:
339,154,71979,2,0,L|320:55,1,90,2|0,0:0|0:0,0:0:0:0:
150,308,72322,2,0,L|164:203,1,90,0|8,0:0|0:0,0:0:0:0:
405,191,72665,6,0,P|202:174|202:174,1,180,2|0,0:0|0:0,0:0:0:0:
395,120,73179,2,0,L|391:228,1,90,8|0,0:0|0:0,0:0:0:0:
294,196,73522,1,0,0:0:0:0:
399,316,73693,1,0,0:0:0:0:
231,289,73865,1,10,0:0:0:0:
390,194,74036,1,2,0:0:0:0:
49,296,74208,6,0,P|44:248|151:185,1,180,2|8,0:0|0:0,0:0:0:0:
432,234,74893,2,0,P|466:183|378:112,1,180,2|8,0:0|0:0,0:0:0:0:
225,312,75408,6,0,L|320:305,1,90,0|0,0:0|0:0,0:0:0:0:
56,137,75751,2,0,L|46:241,1,90,2|8,0:0|0:0,0:0:0:0:
211,74,76093,2,0,L|109:63,1,90,0|0,0:0|0:0,0:0:0:0:
385,263,76436,2,0,B|394:155,1,90,2|8,0:0|0:0,0:0:0:0:
302,167,76779,1,0,0:0:0:0:
47,276,76951,6,0,P|42:183|42:183,1,90,4|0,0:0|0:0,0:0:0:0:
207,116,77293,2,0,P|101:110|101:110,1,90,10|2,0:0|0:0,0:0:0:0:
286,272,77636,1,2,0:0:0:0:
182,271,77808,1,2,0:0:0:0:
65,269,77979,1,10,0:0:0:0:
326,179,78151,6,0,P|334:80|334:80,1,90,2|0,0:0|0:0,0:0:0:0:
169,144,78493,2,0,P|179:39|179:39,1,90,0|8,0:0|0:0,0:0:0:0:
358,299,78836,1,2,0:0:0:0:
222,291,79008,1,2,0:0:0:0:
87,280,79179,1,2,0:0:0:0:
356,166,79351,1,10,0:0:0:0:
221,158,79522,1,2,0:0:0:0:
471,299,79693,6,0,P|480:194|480:194,1,90,2|0,0:0|0:0,0:0:0:0:
306,138,80036,1,8,0:0:0:0:
414,135,80208,1,0,0:0:0:0:
244,47,80379,1,2,0:0:0:0:
412,318,80551,2,0,P|421:216|421:216,1,90,0|8,0:0|0:0,0:0:0:0:
168,151,80893,6,0,P|281:145|281:145,1,90,2|0,0:0|0:0,0:0:0:0:
98,262,81236,1,2,0:0:0:0:
266,249,81408,1,10,0:0:0:0:
18,169,81579,2,0,P|38:61|38:61,1,90,2|0,0:0|0:0,0:0:0:0:
198,131,81922,2,0,L|191:34,1,90,0|8,0:0|0:0,0:0:0:0:
86,45,82265,1,0,0:0:0:0:
345,315,82436,6,0,P|423:309|422:224,1,180,2|8,0:0|0:0,0:0:0:0:
325,219,82951,1,0,0:0:0:0:
152,171,83122,1,2,0:0:0:0:
315,167,83293,2,0,L|321:60,1,90,0|8,0:0|0:0,0:0:0:0:
84,314,83636,6,0,P|41:278|139:237,1,180,2|0,0:0|0:0,0:0:0:0:
281,235,84151,2,0,P|289:136|289:136,1,90,8|0,0:0|0:0,0:0:0:0:
129,169,84493,2,0,B|121:73|121:73|120:73,1,90,0|0,0:0|0:0,0:0:0:0:
289,50,84836,2,0,L|391:44,1,90,8|0,0:0|0:0,0:0:0:0:
124,339,85179,6,0,L|139:245,1,90,2|0,0:0|0:0,0:0:0:0:
304,249,85522,2,0,L|317:151,1,90,10|0,0:0|0:0,0:0:0:0:
159,140,85865,1,2,0:0:0:0:
400,137,86036,2,0,L|410:38,1,90,8|0,0:0|0:0,0:0:0:0:
154,309,86379,6,0,L|147:210,1,90,10|0,0:0|0:0,0:0:0:0:
309,217,86722,1,2,0:0:0:0:
51,89,86893,2,0,L|147:92|147:92,2,90,8|2|0,0:0|0:0|0:0,0:0:0:0:
315,300,87408,1,10,0:0:0:0:
199,286,87579,1,2,0:0:0:0:
373,180,87751,1,10,0:0:0:0:
119,203,87922,6,0,L|110:101,1,90,4|0,0:0|0:0,0:0:0:0:
285,52,88265,2,0,P|169:48|169:48,1,90,10|0,0:0|0:0,0:0:0:0:
375,211,88608,2,0,B|270:207|270:207|270:209,1,90,0|0,0:0|0:0,0:0:0:0:
415,144,88951,1,8,0:0:0:0:
172,322,89122,6,0,P|165:216|165:216,1,90,2|0,0:0|0:0,0:0:0:0:
322,205,89465,1,0,0:0:0:0:
153,104,89636,2,0,P|256:98|256:98,1,90,10|0,0:0|0:0,0:0:0:0:
99,268,89979,1,0,0:0:0:0:
241,242,90151,1,0,0:0:0:0:
96,173,90322,2,0,L|47:96,1,90,8|0,0:0|0:0,0:0:0:0:
294,323,90665,6,0,P|323:285|293:248,1,90,0|0,0:0|0:0,0:0:0:0:
131,256,91008,2,0,L|126:147,1,90,8|0,0:0|0:0,0:0:0:0:
180,169,91265,1,0,0:0:0:0:
234,169,91351,1,2,0:0:0:0:
71,80,91522,2,0,P|168:75|168:75,1,90,0|8,0:0|0:0,0:0:0:0:
412,325,91865,6,0,P|417:220|417:220,1,90,2|0,0:0|0:0,0:0:0:0:
251,202,92208,1,0,0:0:0:0:
421,178,92379,6,0,P|415:126|415:126,1,45,10|0,0:0|0:0,0:0:0:0:
343,146,92551,2,0,P|335:91|335:91,1,45,2|0,0:0|0:0,0:0:0:0:
264,110,92722,2,0,P|259:52|259:52,1,45,2|0,0:0|0:0,0:0:0:0:
185,71,92893,2,0,P|178:7|178:7,1,45,2|0,0:0|0:0,0:0:0:0:
357,320,93065,2,0,L|371:227,1,90,10|0,0:0|0:0,0:0:0:0:
113,250,93408,6,0,P|106:153|106:153,1,90,2|0,0:0|0:0,0:0:0:0:
275,154,93751,1,8,0:0:0:0:
183,79,93922,2,0,P|295:89|295:89,1,90,2|0,0:0|0:0,0:0:0:0:
159,194,94265,2,0,P|260:204|260:204,1,90,0|8,0:0|0:0,0:0:0:0:
494,334,94608,6,0,P|487:233|487:233,1,90,2|0,0:0|0:0,0:0:0:0:
309,174,94951,2,0,P|402:165|402:165,1,90,0|8,0:0|0:0,0:0:0:0:
307,76,95293,1,0,0:0:0:0:
483,235,95465,2,0,L|489:130,1,90,2|0,0:0|0:0,0:0:0:0:
378,297,95808,2,0,P|474:291|474:291,1,90,8|0,0:0|0:0,0:0:0:0:
182,237,96151,6,0,P|85:228|89:144,1,180,2|8,0:0|0:0,0:0:0:0:
391,303,96836,2,0,P|435:274|365:192,1,180,2|8,0:0|0:0,0:0:0:0:
216,102,97351,6,0,L|317:93,1,90,0|0,0:0|0:0,0:0:0:0:
141,179,97693,2,0,P|131:276|131:276,1,90,2|8,0:0|0:0,0:0:0:0:
296,288,98036,2,0,P|196:293|196:293,1,90,0|0,0:0|0:0,0:0:0:0:
368,224,98379,2,0,P|376:128|376:128,1,90,2|8,0:0|0:0,0:0:0:0:
126,203,98722,6,0,P|119:93|119:93,1,90,0|0,0:0|0:0,0:0:0:0:
286,174,99065,2,0,P|301:63|301:63,1,90,2|8,0:0|0:0,0:0:0:0:
135,329,99408,2,0,P|28:323|28:323,1,90,0|0,0:0|0:0,0:0:0:0:
215,247,99751,2,0,L|156:247,1,45,0|0,0:0|0:0,0:0:0:0:
124,247,99922,2,0,L|176:247,1,45,8|0,0:0|0:0,0:0:0:0:
368,314,100093,6,0,L|363:212,1,90,2|0,0:0|0:0,0:0:0:0:
184,254,100436,2,0,L|196:156,1,90,0|8,0:0|0:0,0:0:0:0:
358,156,100779,1,0,0:0:0:0:
425,216,100951,1,2,0:0:0:0:
405,303,101122,1,0,0:0:0:0:
316,319,101293,1,8,0:0:0:0:
63,210,101465,6,0,L|178:217,1,90,2|0,0:0|0:0,0:0:0:0:
64,121,101808,1,2,0:0:0:0:
244,125,101979,2,0,P|339:118|339:118,1,90,10|0,0:0|0:0,0:0:0:0:
167,248,102322,2,0,B|72:238|72:238|74:241,2,90,0|0|8,0:0|0:0|0:0,0:0:0:0:
429,328,102836,6,0,L|422:223|422:223,1,90,2|0,0:0|0:0,0:0:0:0:
260,142,103179,1,0,0:0:0:0:
368,138,103351,1,8,0:0:0:0:
198,298,103522,2,0,P|184:204|184:204,1,90,2|0,0:0|0:0,0:0:0:0:
358,220,103865,2,0,P|371:119|371:119,1,90,0|8,0:0|0:0,0:0:0:0:
109,69,104208,6,0,B|225:62,1,90,2|0,0:0|0:0,0:0:0:0:
361,327,104551,2,0,L|365:230,1,90,0|8,0:0|0:0,0:0:0:0:
202,216,104893,2,0,L|95:203,1,90,2|0,0:0|0:0,0:0:0:0:
277,63,105236,2,0,L|265:163,1,90,0|8,0:0|0:0,0:0:0:0:
109,104,105579,1,2,0:0:0:0:
396,317,105751,6,0,P|455:296|390:224,1,180,2|8,0:0|0:0,0:0:0:0:
242,222,106265,2,0,B|231:122|231:122|229:124,1,90,0|2,0:0|0:0,0:0:0:0:
408,127,106608,2,0,P|501:121|501:121,2,90,0|8|0,0:0|0:0|0:0,0:0:0:0:
155,302,107122,6,0,L|143:207,1,90,2|0,0:0|0:0,0:0:0:0:
312,234,107465,2,0,P|327:136|327:136,1,90,8|0,0:0|0:0,0:0:0:0:
151,109,107808,2,0,P|258:99|258:99,1,90,2|8,0:0|0:0,0:0:0:0:
89,236,108151,1,0,0:0:0:0:
342,307,108322,6,0,P|351:210|351:210,1,90,10|0,0:0|0:0,0:0:0:0:
180,212,108665,2,0,P|172:110|172:110,1,90,0|8,0:0|0:0,0:0:0:0:
346,61,109008,2,0,B|248:54|248:54|247:57,1,90,2|0,0:0|0:0,0:0:0:0:
88,282,109351,1,8,0:0:0:0:
208,228,109522,1,0,0:0:0:0:
40,152,109693,1,10,0:0:0:0:
294,136,109865,5,2,0:0:0:0:
256,192,110036,12,0,112608,0:0:0:0:
