osu file format v14

[General]
AudioFilename: audio.mp3
AudioLeadIn: 0
PreviewTime: 65893
Countdown: 0
SampleSet: Normal
StackLeniency: 0.7
Mode: 2
LetterboxInBreaks: 0
WidescreenStoryboard: 1

[Editor]
DistanceSpacing: 1
BeatDivisor: 4
GridSize: 32
TimelineZoom: 1

[Metadata]
Title:Time Bomb (feat. Veela)
TitleUnicode:Time Bomb (feat. Veela)
Artist:Feint & Boyinaband
ArtistUnicode:Feint & Boyinaband
Creator:IDu5t
Version:Platter
Source:
Tags:idust dnb d&b d'n'b drum and n' bass monstercat 007 solace ft.
BeatmapID:1905953
BeatmapSetID:912369

[Difficulty]
HPDrainRate:5
CircleSize:3.5
OverallDifficulty:8
ApproachRate:8
SliderMultiplier:1.6
SliderTickRate:2

[Events]
//Background and Video events
0,0,"bg.png",0,0
//Break Periods
//Storyboard Layer 0 (Background)
//Storyboard Layer 1 (Fail)
//Storyboard Layer 2 (Pass)
//Storyboard Layer 3 (Foreground)
//Storyboard Sound Samples

[TimingPoints]
151,342.857142857143,4,2,1,42,1,0
21751,-100,4,2,1,5,0,0
22093,-100,4,2,1,50,0,0
43351,-100,4,2,1,58,0,0
43693,-100,4,2,1,66,0,0
44036,-100,4,1,1,74,0,1
55008,-100,4,1,1,74,0,1
64608,-100,4,2,1,50,0,0
65636,-100,4,2,1,58,0,0
65808,-100,4,2,1,66,0,0
65979,-100,4,1,1,74,0,1
76951,-100,4,1,1,74,0,1
87922,-100,4,1,1,50,0,0
109865,-100,4,1,1,50,0,0
112608,-100,4,1,1,34,0,0

[Colours]
Combo1 : 174,174,174
Combo2 : 0,108,217
Combo3 : 12,196,205

[HitObjects]
256,192,19351,12,0,21751,0:0:0:0:
351,251,22093,5,2,0:0:0:0:
184,250,22436,2,0,P|125:212|198:167,1,160,10|0,0:0|0:0,0:0:0:0:
334,107,23122,2,0,L|341:193,1,80,8|0,0:0|0:0,0:0:0:0:
181,302,23465,6,0,L|95:290,1,80,2|0,0:0|0:0,0:0:0:0:
193,210,23808,2,0,P|283:220|283:220,1,80,8|0,0:0|0:0,0:0:0:0:
99,156,24151,2,0,P|50:136|109:76,1,160,2|8,0:0|0:0,0:0:0:0:
399,298,24836,6,0,P|436:263|375:197,1,160,2|8,0:0|0:0,0:0:0:0:
291,201,25351,2,0,P|226:199|188:102,1,160,2|0,0:0|0:0,0:0:0:0:
270,109,25865,2,0,L|279:217,1,80,8|0,0:0|0:0,0:0:0:0:
112,318,26208,6,0,P|106:222|106:222,1,80,2|0,0:0|0:0,0:0:0:0:
194,155,26551,2,0,P|100:159|100:159,1,80,8|0,0:0|0:0,0:0:0:0:
294,273,26893,2,0,P|345:273|397:184,1,160,2|8,0:0|0:0,0:0:0:0:
93,198,27579,6,0,P|78:154|172:99,1,160,2|8,0:0|0:0,0:0:0:0:
242,336,28093,2,0,P|75:326|75:326,1,160,2|0,0:0|0:0,0:0:0:0:
166,244,28608,2,0,P|69:239|69:239,1,80,8|0,0:0|0:0,0:0:0:0:
253,157,28951,6,0,P|344:162|344:162,1,80,2|0,0:0|0:0,0:0:0:0:
249,66,29293,2,0,L|348:71,1,80,8|0,0:0|0:0,0:0:0:0:
163,311,29636,2,0,P|117:294|168:216,1,160,2|8,0:0|0:0,0:0:0:0:
450,345,30322,6,0,P|433:294|326:247,1,160,2|8,0:0|0:0,0:0:0:0:
427,194,30836,2,0,P|480:167|420:107,1,160,2|0,0:0|0:0,0:0:0:0:
334,116,31351,1,8,0:0:0:0:
53,276,31693,6,0,P|72:219|181:192,1,160,2|8,0:0|0:0,0:0:0:0:
256,208,32208,2,0,P|311:195|280:107,1,160,2|0,0:0|0:0,0:0:0:0:
209,55,32722,2,0,L|239:143,1,80,8|0,0:0|0:0,0:0:0:0:
478,306,33065,5,2,0:0:0:0:
328,308,33408,2,0,P|273:292|327:223,1,160,10|0,0:0|0:0,0:0:0:0:
470,163,34093,2,0,P|465:71|465:71,1,80,8|0,0:0|0:0,0:0:0:0:
297,150,34436,6,0,P|204:146|204:146,1,80,2|0,0:0|0:0,0:0:0:0:
303,70,34779,2,0,L|388:75,1,80,8|0,0:0|0:0,0:0:0:0:
213,305,35122,2,0,P|226:266|345:219,1,160,2|8,0:0|0:0,0:0:0:0:
37,238,35808,6,0,B|41:146|41:145|41:145,1,80,2|0,0:0|0:0,0:0:0:0:
119,100,36151,2,0,P|31:94|31:94,1,80,8|0,0:0|0:0,0:0:0:0:
196,301,36493,2,0,P|227:269|151:205,1,160,2|8,0:0|0:0,0:0:0:0:
439,101,37179,6,0,L|441:180,1,80,2|0,0:0|0:0,0:0:0:0:
349,107,37522,2,0,L|257:111,1,80,8|0,0:0|0:0,0:0:0:0:
350,182,37865,1,2,0:0:0:0:
38,331,38208,2,0,P|42:242|42:242,1,80,8|0,0:0|0:0,0:0:0:0:
206,243,38551,6,0,P|262:242|320:142,1,160,2|8,0:0|0:0,0:0:0:0:
235,151,39065,2,0,P|166:145|123:68,1,160,2|0,0:0|0:0,0:0:0:0:
211,70,39579,1,8,0:0:0:0:
493,317,39922,6,0,P|402:312|402:312,1,80,2|0,0:0|0:0,0:0:0:0:
320,266,40265,2,0,P|325:182|325:182,1,80,8|0,0:0|0:0,0:0:0:0:
486,198,40608,2,0,P|491:103|491:103,1,80,2|0,0:0|0:0,0:0:0:0:
396,55,40951,1,8,0:0:0:0:
492,40,41122,1,0,0:0:0:0:
258,320,41293,6,0,P|195:302|246:228,1,160,2|8,0:0|0:0,0:0:0:0:
316,214,41808,2,0,P|290:153|181:141,1,160,2|0,0:0|0:0,0:0:0:0:
368,41,42322,2,0,L|373:144,1,80,8|0,0:0|0:0,0:0:0:0:
138,301,42665,6,0,P|87:276|151:211,1,160,2|8,0:0|0:0,0:0:0:0:
218,209,43179,1,2,0:0:0:0:
387,303,43351,2,0,L|396:213,1,80,0|0,0:0|0:0,0:0:0:0:
226,237,43693,2,0,L|136:232,1,80,0|0,0:0|0:0,0:0:0:0:
379,163,44036,6,0,L|384:75,1,80,6|0,0:0|0:0,0:0:0:0:
278,75,44379,2,0,P|188:68|188:68,1,80,10|0,0:0|0:0,0:0:0:0:
481,328,44893,2,0,P|494:234|494:234,2,80,2|8|0,0:0|0:0|0:0,0:0:0:0:
317,224,45408,6,0,P|224:215|224:215,1,80,2|0,0:0|0:0,0:0:0:0:
341,137,45751,2,0,P|422:143|422:143,1,80,10|0,0:0|0:0,0:0:0:0:
128,93,46265,2,0,L|111:177,2,80,2|8|0,0:0|0:0|0:0,0:0:0:0:
369,306,46779,6,0,L|374:213,1,80,2|0,0:0|0:0,0:0:0:0:
268,218,47122,2,0,P|253:116|253:116,1,80,10|0,0:0|0:0,0:0:0:0:
445,62,47636,1,2,0:0:0:0:
281,57,47808,2,0,P|189:55|189:55,1,80,10|0,0:0|0:0,0:0:0:0:
374,316,48151,6,0,L|381:221,1,80,2|0,0:0|0:0,0:0:0:0:
274,236,48493,2,0,L|279:146,1,80,10|0,0:0|0:0,0:0:0:0:
16,79,49008,2,0,P|111:86|111:86,2,80,2|10|0,0:0|0:0|0:0,0:0:0:0:
285,299,49522,6,0,L|371:303,1,80,2|0,0:0|0:0,0:0:0:0:
275,221,49865,2,0,P|171:217|171:217,1,80,10|0,0:0|0:0,0:0:0:0:
359,106,50379,1,2,0:0:0:0:
195,71,50551,2,0,L|184:153,1,80,10|0,0:0|0:0,0:0:0:0:
350,283,50893,6,0,L|358:191,1,80,2|0,0:0|0:0,0:0:0:0:
252,190,51236,2,0,P|167:184|167:184,1,80,10|0,0:0|0:0,0:0:0:0:
478,271,51751,2,0,P|482:179|482:179,1,80,2|10,0:0|0:0,0:0:0:0:
391,190,52093,1,0,0:0:0:0:
150,243,52265,6,0,L|146:330,1,80,2|0,0:0|0:0,0:0:0:0:
250,244,52608,2,0,L|355:250,1,80,10|0,0:0|0:0,0:0:0:0:
132,87,53122,2,0,P|217:91|217:91,2,80,2|10|0,0:0|0:0|0:0,0:0:0:0:
298,313,53636,6,0,L|388:317,1,80,2|0,0:0|0:0,0:0:0:0:
281,233,53979,2,0,L|286:139,1,80,10|0,0:0|0:0,0:0:0:0:
127,95,54322,2,0,L|231:100,1,80,2|2,0:0|0:0,0:0:0:0:
381,97,54665,2,0,L|480:101,1,80,10|2,0:0|0:0,0:0:0:0:
219,316,55008,6,0,P|216:226|216:226,1,80,6|0,0:0|0:0,0:0:0:0:
321,215,55351,2,0,L|412:214,1,80,10|0,0:0|0:0,0:0:0:0:
107,164,55865,1,2,0:0:0:0:
27,160,56036,2,0,L|48:78,1,80,8|0,0:0|0:0,0:0:0:0:
221,288,56379,6,0,P|314:291|314:291,1,80,2|0,0:0|0:0,0:0:0:0:
216,211,56722,2,0,L|299:214,1,80,10|0,0:0|0:0,0:0:0:0:
18,171,57236,2,0,L|25:87,1,80,2|8,0:0|0:0,0:0:0:0:
113,94,57579,1,0,0:0:0:0:
365,298,57751,6,0,P|373:206|373:206,1,80,2|0,0:0|0:0,0:0:0:0:
267,203,58093,2,0,P|172:194|172:194,1,80,10|0,0:0|0:0,0:0:0:0:
364,68,58608,1,2,0:0:0:0:
195,76,58779,2,0,L|106:74,1,80,10|0,0:0|0:0,0:0:0:0:
354,313,59122,6,0,L|359:214,1,80,2|0,0:0|0:0,0:0:0:0:
252,226,59465,2,0,L|160:222,1,80,10|0,0:0|0:0,0:0:0:0:
478,81,59979,2,0,P|385:76|385:76,2,80,2|10|0,0:0|0:0|0:0,0:0:0:0:
231,305,60493,6,0,L|220:210,1,80,2|0,0:0|0:0,0:0:0:0:
327,222,60836,2,0,P|340:130|340:130,1,80,10|0,0:0|0:0,0:0:0:0:
140,65,61351,1,2,0:0:0:0:
309,68,61522,2,0,P|404:69|404:69,1,80,10|0,0:0|0:0,0:0:0:0:
222,316,61865,6,0,L|212:228,1,80,2|0,0:0|0:0,0:0:0:0:
318,213,62208,2,0,L|408:218,1,80,10|0,0:0|0:0,0:0:0:0:
89,250,62722,2,0,L|6:245,2,80,2|10|0,0:0|0:0|0:0,0:0:0:0:
332,242,63236,6,0,L|341:140,1,80,2|0,0:0|0:0,0:0:0:0:
231,164,63579,2,0,P|219:65|219:65,1,80,10|0,0:0|0:0,0:0:0:0:
400,53,64093,2,0,P|491:57|491:57,2,80,2|10|0,0:0|0:0|0:0,0:0:0:0:
230,287,64608,6,0,L|365:187,2,160,0|8|0,0:0|0:0|0:0,0:0:0:0:
150,283,65465,1,0,0:0:0:0:
309,157,65636,1,10,0:0:0:0:
392,153,65808,1,2,0:0:0:0:
151,179,65979,5,4,0:0:0:0:
284,66,66322,2,0,P|191:60|191:60,1,80,10|2,0:0|0:0,0:0:0:0:
372,308,66665,1,2,0:0:0:0:
458,260,66836,1,2,0:0:0:0:
375,192,67008,1,10,0:0:0:0:
132,193,67179,6,0,L|46:179,1,80,2|0,0:0|0:0,0:0:0:0:
153,117,67522,2,0,L|242:128,1,80,0|8,0:0|0:0,0:0:0:0:
75,297,67865,1,2,0:0:0:0:
30,217,68036,1,2,0:0:0:0:
111,166,68208,1,2,0:0:0:0:
267,182,68379,1,10,0:0:0:0:
294,97,68551,1,2,0:0:0:0:
50,333,68722,6,0,P|32:295|130:235,1,160,2|8,0:0|0:0,0:0:0:0:
197,228,69236,1,0,0:0:0:0:
33,151,69408,2,0,L|37:58,1,80,2|0,0:0|0:0,0:0:0:0:
138,69,69751,1,8,0:0:0:0:
379,310,69922,6,0,P|404:257|318:200,1,160,2|2,0:0|0:0,0:0:0:0:
250,194,70436,1,10,0:0:0:0:
414,242,70608,2,0,P|456:217|399:122,1,160,2|0,0:0|0:0,0:0:0:0:
340,124,71122,1,8,0:0:0:0:
49,246,71465,6,0,P|35:207|132:149,1,160,2|8,0:0|0:0,0:0:0:0:
214,96,71979,2,0,P|114:84|114:84,1,80,2|0,0:0|0:0,0:0:0:0:
240,195,72322,2,0,P|339:208|339:208,1,80,0|8,0:0|0:0,0:0:0:0:
74,315,72665,6,0,P|38:275|113:214,1,160,2|0,0:0|0:0,0:0:0:0:
190,209,73179,1,8,0:0:0:0:
384,201,73522,2,0,P|387:112|387:112,1,80,0|0,0:0|0:0,0:0:0:0:
299,49,73865,2,0,P|386:53|386:53,1,80,10|2,0:0|0:0,0:0:0:0:
211,265,74208,6,0,L|28:258,2,160,2|8|2,0:0|0:0|0:0,0:0:0:0:
372,115,75236,1,8,0:0:0:0:
286,209,75408,6,0,L|375:205,1,80
204,123,75751,2,0,P|112:125|112:125,1,80,2|8,0:0|0:0,0:0:0:0:
218,40,76093,2,0,B|120:39,1,80
310,316,76436,2,0,P|368:304|337:215,1,160,2|0,0:0|0:0,0:0:0:0:
110,213,76951,5,4,0:0:0:0:
243,101,77293,2,0,L|326:95,1,80,10|2,0:0|0:0,0:0:0:0:
160,322,77636,1,2,0:0:0:0:
64,312,77808,1,2,0:0:0:0:
80,194,77979,1,10,0:0:0:0:
321,204,78151,6,0,L|337:116,1,80,2|0,0:0|0:0,0:0:0:0:
231,137,78493,2,0,P|217:49|217:49,1,80,0|8,0:0|0:0,0:0:0:0:
392,300,78836,1,2,0:0:0:0:
311,293,79008,1,2,0:0:0:0:
231,285,79179,1,2,0:0:0:0:
393,202,79351,1,10,0:0:0:0:
416,125,79522,1,2,0:0:0:0:
175,188,79693,6,0,P|117:171|181:116,1,160,2|8,0:0|0:0,0:0:0:0:
246,98,80208,1,0,0:0:0:0:
97,283,80379,2,0,L|3:273,2,80,2|0|8,0:0|0:0|0:0,0:0:0:0:
356,255,80893,6,0,P|412:239|391:150,1,160,2|2,0:0|0:0,0:0:0:0:
316,134,81408,1,10,0:0:0:0:
477,319,81579,2,0,P|492:266|408:210,1,160,2|0,0:0|0:0,0:0:0:0:
338,208,82093,1,8,0:0:0:0:
49,207,82436,6,0,P|41:160|144:99,1,160,2|8,0:0|0:0,0:0:0:0:
296,105,83122,1,2,0:0:0:0:
133,307,83293,2,0,B|131:212|131:212|130:212,1,80,0|8,0:0|0:0,0:0:0:0:
373,225,83636,6,0,P|423:207|367:151,1,160,2|0,0:0|0:0,0:0:0:0:
290,148,84151,1,8,0:0:0:0:
145,202,84493,2,0,P|144:108|144:108,1,80,0|0,0:0|0:0,0:0:0:0:
227,37,84836,2,0,P|135:38|135:38,1,80,8|0,0:0|0:0,0:0:0:0:
316,290,85179,6,0,P|138:280|138:280,2,160,2|10|2,0:0|0:0|0:0,0:0:0:0:
404,181,86036,2,0,P|302:177|302:177,1,80,8|0,0:0|0:0,0:0:0:0:
156,205,86379,2,0,P|146:113|146:113,1,80,10|0,0:0|0:0,0:0:0:0:
237,121,86722,5,2,0:0:0:0:
399,118,86893,2,0,L|488:113|488:113,2,80,8|2|0,0:0|0:0|0:0,0:0:0:0:
158,157,87408,2,0,L|57:161,2,80,10|2|10,0:0|0:0|0:0,0:0:0:0:
401,267,87922,5,4,0:0:0:0:
273,238,88265,2,0,L|272:149,1,80,10|0,0:0|0:0,0:0:0:0:
373,108,88608,2,0,P|465:107|465:107,2,80,0|0|8,0:0|0:0|0:0,0:0:0:0:
212,307,89122,6,0,L|186:207,1,80,2|0,0:0|0:0,0:0:0:0:
272,212,89465,1,0,0:0:0:0:
191,137,89636,1,10,0:0:0:0:
370,305,89979,2,0,P|429:288|389:207,1,160,0|8,0:0|0:0,0:0:0:0:
103,220,90665,6,0,L|107:132,1,80,0|0,0:0|0:0,0:0:0:0:
214,113,91008,2,0,P|302:116|302:116,1,80,8|0,0:0|0:0,0:0:0:0:
127,304,91351,2,0,P|227:305|227:305,1,80,2|0,0:0|0:0,0:0:0:0:
111,218,91693,1,8,0:0:0:0:
270,224,91865,6,0,P|315:215|262:135,1,160,2|0,0:0|0:0,0:0:0:0:
194,325,92379,1,10,0:0:0:0:
116,283,92551,1,2,0:0:0:0:
89,199,92722,1,2,0:0:0:0:
127,120,92893,1,2,0:0:0:0:
213,88,93065,2,0,L|119:64,1,80,10|0,0:0|0:0,0:0:0:0:
381,313,93408,6,0,P|432:297|388:216,1,160,2|8,0:0|0:0,0:0:0:0:
301,217,93922,2,0,P|204:207|204:207,1,80,2|0,0:0|0:0,0:0:0:0:
325,124,94265,2,0,P|411:132|411:132,1,80,0|8,0:0|0:0,0:0:0:0:
243,324,94608,6,0,P|196:292|262:224,1,160,2|0,0:0|0:0,0:0:0:0:
329,223,95122,1,8,0:0:0:0:
412,167,95293,1,0,0:0:0:0:
334,119,95465,1,2,0:0:0:0:
200,64,95808,2,0,P|293:59|293:59,1,80,8|0,0:0|0:0,0:0:0:0:
117,308,96151,6,0,P|113:218|113:218,1,80,2|0,0:0|0:0,0:0:0:0:
210,180,96493,2,0,P|305:176|305:176,1,80,8|0,0:0|0:0,0:0:0:0:
121,134,96836,2,0,P|118:43|118:43,1,80,2|0,0:0|0:0,0:0:0:0:
204,47,97179,1,8,0:0:0:0:
366,311,97351,5,0,0:0:0:0:
231,216,97693,2,0,L|331:208,1,80,2|8,0:0|0:0,0:0:0:0:
148,110,98036,1,0,0:0:0:0:
312,66,98379,2,0,L|224:68,1,80,2|8,0:0|0:0,0:0:0:0:
69,329,98722,6,0,P|53:288|157:225,1,160,0|2,0:0|0:0,0:0:0:0:
211,224,99236,1,8,0:0:0:0:
313,223,99408,2,0,P|316:121|316:121,1,80,0|0,0:0|0:0,0:0:0:0:
219,142,99751,1,0,0:0:0:0:
123,135,99922,1,8,0:0:0:0:
284,317,100093,6,0,P|294:224|294:224,1,80,2|0,0:0|0:0,0:0:0:0:
200,209,100436,2,0,L|296:200,1,80,0|8,0:0|0:0,0:0:0:0:
190,101,100779,1,0,0:0:0:0:
364,298,100951,5,2,0:0:0:0:
447,248,101122,1,0,0:0:0:0:
364,190,101293,1,8,0:0:0:0:
200,233,101465,2,0,L|194:133,1,80,2|0,0:0|0:0,0:0:0:0:
291,151,101808,1,2,0:0:0:0:
55,312,101979,5,10,0:0:0:0:
183,269,102322,2,0,L|274:273,2,80,0|0|8,0:0|0:0|0:0,0:0:0:0:
23,212,102836,2,0,P|29:122|29:122,1,80,2|0,0:0|0:0,0:0:0:0:
178,55,103179,6,0,P|81:51|81:51,2,80,0|8|2,0:0|0:0|0:0,0:0:0:0:
275,61,103693,1,0,0:0:0:0:
374,112,103865,1,0,0:0:0:0:
374,207,104036,1,8,0:0:0:0:
211,307,104208,6,0,B|206:220,1,80,2|0,0:0|0:0,0:0:0:0:
303,221,104551,2,0,P|391:218|391:218,1,80,0|8,0:0|0:0,0:0:0:0:
294,116,104893,2,0,L|386:111,1,80,2|0,0:0|0:0,0:0:0:0:
286,37,105236,2,0,P|196:40|196:40,1,80,0|8,0:0|0:0,0:0:0:0:
443,325,105579,6,0,P|481:289|362:190,1,240,2|8,0:0|0:0,0:0:0:0:
202,211,106436,2,0,P|197:126|197:126,1,80,2|0,0:0|0:0,0:0:0:0:
284,70,106779,2,0,P|188:73|188:73,1,80,8|0,0:0|0:0,0:0:0:0:
368,300,107122,6,0,P|375:199|375:199,1,80,2|0,0:0|0:0,0:0:0:0:
212,232,107465,2,0,P|201:144|201:144,1,80,8|0,0:0|0:0,0:0:0:0:
287,87,107808,2,0,P|187:80|187:80,1,80,2|8,0:0|0:0,0:0:0:0:
285,177,108151,1,0,0:0:0:0:
199,304,108322,2,0,P|191:217|191:217,1,80,10|0,0:0|0:0,0:0:0:0:
352,225,108665,6,0,P|362:129|362:129,1,80,0|8,0:0|0:0,0:0:0:0:
265,75,109008,2,0,P|348:82|348:82,1,80,2|0,0:0|0:0,0:0:0:0:
181,288,109351,2,0,P|279:298|279:298,2,80,8|0|10,0:0|0:0|0:0,0:0:0:0:
422,234,109865,5,2,0:0:0:0:
256,192,110208,12,0,112608,0:0:0:0:
